Tags
Language
Tags

Gal Costa - Nenhuma Dor (2021)

Posted By: delpotro
Gal Costa - Nenhuma Dor (2021)

Gal Costa - Nenhuma Dor (2021)
EAC Rip | FLAC (tracks+log+.cue) - 236 Mb | MP3 CBR 320 kbps - 128 Mb | Scans included | 00:34:59
MPB, Female Vocal | Label: Biscoito Fino

Brand new album of this Diva, comemorating her 75 year age. Special participations of the singers: Rodrigo Amarante, Seu Jorge, Rubel, Silva, Criolo, Antonio Zambujo, Ze Ibara, Tim Bernardes, Zeca Veloso e Jorge Drexler.
Tracklist:
1. Avarandado (feat. Rodrigo Amarante) (03:53)
2. Só Louco (feat. Silva) (03:56)
3. Paula E Bebeto (feat. Criolo) (03:11)
4. Pois É (feat. António Zambujo) (01:52)
5. Meu Bem, Meu Mal (feat. Zé Ibarra) (04:24)
6. Juventude Transviada (feat. Seu Jorge) (03:58)
7. Baby (feat. Martim Bernardes) (03:57)
8. Coração Vagabundo (feat. Rubel) (02:36)
9. Negro Amor (feat. Jorge Drexler) (04:06)
10. Nenhuma Dor (feat. Zeca Veloso) (02:39)

Exact Audio Copy V1.6 from 23. October 2020

EAC extraction logfile from 18. May 2022, 18:23

Gal Costa / Nenhuma Dor

Used drive : Dell DVD+/-RW DW316 Adapter: 1 ID: 0

Read mode : Secure
Utilize accurate stream : Yes
Defeat audio cache : Yes
Make use of C2 pointers : No

Read offset correction : 6
Overread into Lead-In and Lead-Out : No
Fill up missing offset samples with silence : Yes
Delete leading and trailing silent blocks : No
Null samples used in CRC calculations : Yes
Used interface : Native Win32 interface for Win NT & 2000
Gap handling : Appended to previous track

Used output format : User Defined Encoder
Selected bitrate : 1024 kBit/s
Quality : High
Add ID3 tag : No
Command line compressor : C:\Program Files (x86)\Exact Audio Copy\Flac\flac.exe
Additional command line options : -8 -V -T "ARTIST=%artist%" -T "TITLE=%title%" -T "ALBUM=%albumtitle%" -T "DATE=%year%" -T "TRACKNUMBER=%tracknr%" -T "GENRE=%genre%" -T "PERFORMER=%albuminterpret%" -T "COMPOSER=%composer%" -T "ALBUMARTIST=%albumartist%" -T "DISCNUMBER=%cdnumber%" -T "TOTALDISCS=%totalcds%" -T "TOTALTRACKS=%numtracks%" -T "COMMENT=%comment%" %source% -o %dest%


TOC of the extracted CD

Track | Start | Length | Start sector | End sector
––––––––––––––––––––––––––––-
1 | 0:00.00 | 3:55.71 | 0 | 17695
2 | 3:55.71 | 4:02.67 | 17696 | 35912
3 | 7:58.63 | 3:13.49 | 35913 | 50436
4 | 11:12.37 | 1:54.50 | 50437 | 59036
5 | 13:07.12 | 4:26.56 | 59037 | 79042
6 | 17:33.68 | 4:00.49 | 79043 | 97091
7 | 21:34.42 | 3:57.12 | 97092 | 114878
8 | 25:31.54 | 2:38.24 | 114879 | 126752
9 | 28:10.03 | 4:08.60 | 126753 | 145412
10 | 32:18.63 | 2:40.15 | 145413 | 157427


Track 1

Filename C:\Users\evert\Desktop\Gal Costa - Nenhuma Dor (2021) [FLAC] {Biscoito Fino - BF733-2}\01 - Avarandado.wav

Pre-gap length 0:00:02.00

Peak level 96.1 %
Extraction speed 2.7 X
Track quality 100.0 %
Test CRC 33AF1E56
Copy CRC 33AF1E56
Accurately ripped (confidence 1) [B2A764EA] (AR v2)
Copy OK

Track 2

Filename C:\Users\evert\Desktop\Gal Costa - Nenhuma Dor (2021) [FLAC] {Biscoito Fino - BF733-2}\02 - Só Louco.wav

Pre-gap length 0:00:01.98

Peak level 98.7 %
Extraction speed 3.0 X
Track quality 100.0 %
Test CRC 1996C581
Copy CRC 1996C581
Accurately ripped (confidence 1) [57BA49B7] (AR v2)
Copy OK

Track 3

Filename C:\Users\evert\Desktop\Gal Costa - Nenhuma Dor (2021) [FLAC] {Biscoito Fino - BF733-2}\03 - Paula e Bebeto.wav

Pre-gap length 0:00:02.76

Peak level 96.6 %
Extraction speed 3.1 X
Track quality 100.0 %
Test CRC CB4A0C78
Copy CRC CB4A0C78
Accurately ripped (confidence 1) [595C8DF4] (AR v2)
Copy OK

Track 4

Filename C:\Users\evert\Desktop\Gal Costa - Nenhuma Dor (2021) [FLAC] {Biscoito Fino - BF733-2}\04 - Pois É.wav

Pre-gap length 0:00:01.98

Peak level 96.7 %
Extraction speed 2.9 X
Track quality 100.0 %
Test CRC BE65C9D3
Copy CRC BE65C9D3
Accurately ripped (confidence 1) [352A95EF] (AR v2)
Copy OK

Track 5

Filename C:\Users\evert\Desktop\Gal Costa - Nenhuma Dor (2021) [FLAC] {Biscoito Fino - BF733-2}\05 - Meu Bem, Meu Mal.wav

Pre-gap length 0:00:01.98

Peak level 96.8 %
Extraction speed 3.6 X
Track quality 100.0 %
Test CRC C71B4144
Copy CRC C71B4144
Accurately ripped (confidence 1) [DC559BA2] (AR v2)
Copy OK

Track 6

Filename C:\Users\evert\Desktop\Gal Costa - Nenhuma Dor (2021) [FLAC] {Biscoito Fino - BF733-2}\06 - Juventude Transviada.wav

Pre-gap length 0:00:01.98

Peak level 98.7 %
Extraction speed 3.2 X
Track quality 99.9 %
Test CRC A6A5673F
Copy CRC A6A5673F
Accurately ripped (confidence 1) [B4D795E9] (AR v2)
Copy OK

Track 7

Filename C:\Users\evert\Desktop\Gal Costa - Nenhuma Dor (2021) [FLAC] {Biscoito Fino - BF733-2}\07 - Baby.wav

Pre-gap length 0:00:01.98

Peak level 96.5 %
Extraction speed 4.0 X
Track quality 100.0 %
Test CRC ED7F8BAE
Copy CRC ED7F8BAE
Accurately ripped (confidence 1) [F387D9A2] (AR v2)
Copy OK

Track 8

Filename C:\Users\evert\Desktop\Gal Costa - Nenhuma Dor (2021) [FLAC] {Biscoito Fino - BF733-2}\08 - Coração Vagabundo.wav

Peak level 96.6 %
Extraction speed 3.9 X
Track quality 100.0 %
Test CRC 434A5C66
Copy CRC 434A5C66
Accurately ripped (confidence 1) [5C2CDDC8] (AR v2)
Copy OK

Track 9

Filename C:\Users\evert\Desktop\Gal Costa - Nenhuma Dor (2021) [FLAC] {Biscoito Fino - BF733-2}\09 - Negro Amor.wav

Pre-gap length 0:00:01.98

Peak level 96.5 %
Extraction speed 4.4 X
Track quality 100.0 %
Test CRC A5DE4253
Copy CRC A5DE4253
Accurately ripped (confidence 1) [F3C88357] (AR v2)
Copy OK

Track 10

Filename C:\Users\evert\Desktop\Gal Costa - Nenhuma Dor (2021) [FLAC] {Biscoito Fino - BF733-2}\10 - Nenhuma Dor.wav

Pre-gap length 0:00:01.98

Peak level 95.6 %
Extraction speed 4.2 X
Track quality 100.0 %
Test CRC A5C5D7D4
Copy CRC A5C5D7D4
Accurately ripped (confidence 1) [B6FB9ECF] (AR v2)
Copy OK


All tracks accurately ripped

No errors occurred

End of status report

–– CUETools DB Plugin V2.1.6

[CTDB TOCID: 3jfLZ7TQ3NdE4sFTbqcVi41ZHrc-] disk not present in database
Submit result: 3jfLZ7TQ3NdE4sFTbqcVi41ZHrc- has been uploaded


==== Log checksum 119B70C5C9C40F92BF22C166F1BCED238B59EB1234BE33DCF22A34711679AE19 ====

Thanks to the Original ripper !