Tags
Language
Tags
April 2024
Su Mo Tu We Th Fr Sa
31 1 2 3 4 5 6
7 8 9 10 11 12 13
14 15 16 17 18 19 20
21 22 23 24 25 26 27
28 29 30 1 2 3 4

Greenslade - Temple Songs: The Albums 1973-1975 (2021)

Posted By: delpotro
Greenslade - Temple Songs: The Albums 1973-1975 (2021)

Greenslade - Temple Songs: The Albums 1973-1975 (2021)
XLD Rip | FLAC (tracks+log+.cue) | 02:31:32 | 861 Mb
Progressive Rock | Label: Cherry Red Records, Esoteric Recordings

Esoteric Recordings is pleased to announce the release of Temple Songs – The Albums 1973 – 1975, a four-disc clamshell box set of the four albums released by the legendary band GREENSLADE between 1973 and 1975; Greenslade, Bedside Manners Are Extra, Spyglass Guest and Time and Tide. One of the most interesting and musically able bands of the 1970s, GREENSLADE formed in 1972 and featured a line-up comprising former COLOSSEUM members Dave Greenslade (keyboards) and Tony Reeves (bass) along with Dave Lawson (keyboards, vocals) and Andrew McCulloch (drums, percussion). The band came together following the demise of Colosseum and were distinguished by having two keyboard players. Greenslade’s unique musical style set them aside from their Progressive Rock contemporaries of the era and the quartet of albums they issued between 1973 and 1975 were all of an excellent standard.

The band’s self-titled debut album was released in early 1973 and was an impressive musical statement featuring such material as “Feathered Friends”, “Drowning Man”, “Melange” and “Sundance”. This album was followed at the end of the same year by Bedside Manners Are Extra, one of their finest works featuring the classic title track along with the excellent Pilgrim’s Progress, Sunkissed You’re Not and Time to Dream.

1974’s Spyglass Guest saw Greenslade make an impression on the UK album charts and was another fine album with highlights such as Spirit of the Dance, Joie de Vivre, Melancholic Race and the band’s interpretation of the Jack Bruce and Pete Brown classic Theme for an Imaginary Western. Greenslade’s final album of the 1970s was Time and Tide, issued in May 1975. This album saw the departure of Tony Reeves who was replaced by Martin Briley on bass and guitar. Despite receiving critical acclaim for their live appearances and recorded work, the band split in 1976.Temple Songs – The Albums 1973 – 1975 is a fine collection of music by a truly original band.
Tracklist:
Disc 1
1. Feathered Friends
2. An English Western
3. Drowning Man
4. Temple Song
5. Melange
6. What Are You Doin’ To Me
7. Sundance

Disc 2
1. Bedside Manners Are Extra
2. Pilgrim’s Progress
3. Time To Dream
4. Drum Folk
5. Sunkissed You’re Not
6. Chalk Hill

Disc 3
1. Spirit Of The Dance
2. Little Red Fry Up
3. Rainbow
4. Siam Seesaw
5. Joie De Vivre
6. Red Light
7. Melancholic Race
8. Theme For An Imaginary Western

Disc 4
1. Animal Farm
2. Newsworth
3. Time
4. Tide
5. Catalan
6. The Flattery Stakes
7. Waltz For A Fallen Idol
8. The Ass’s Ears
9. Doldrums
10. Gangsters

X Lossless Decoder version 20211018 (154.0)

XLD extraction logfile from 2022-02-09 00:18:56 +0000

Greenslade / Temple Songs

Used drive : MATSHITA BD-MLT UJ240AF (revision 1.00)
Media type : Pressed CD

Ripper mode : XLD Secure Ripper
Disable audio cache : OK for the drive with a cache less than 1375KiB
Make use of C2 pointers : NO
Read offset correction : 103
Max retry count : 25
Gap status : Analyzed, Appended (except HTOA)

TOC of the extracted CD
Track | Start | Length | Start sector | End sector
––––––––––––––––––––––––––––-
1 | 00:00:16 | 06:46:46 | 16 | 30511
2 | 06:46:62 | 03:27:28 | 30512 | 46064
3 | 10:14:15 | 05:50:70 | 46065 | 72384
4 | 16:05:10 | 03:36:08 | 72385 | 88592
5 | 19:41:18 | 07:28:74 | 88593 | 122266
6 | 27:10:17 | 04:43:29 | 122267 | 143520
7 | 31:53:46 | 08:46:52 | 143521 | 183022

List of alternate offset correction values
# | Absolute | Relative | Confidence
–––––––––––––––––––––
1 | 97 | -6 | 10

AccurateRip Summary (DiscID: 000a792e-003f151d-5a098807)
Track 01 : OK (v2, confidence 9/9, with different offset)
Track 02 : OK (v2, confidence 10/10, with different offset)
Track 03 : OK (v2, confidence 10/10, with different offset)
Track 04 : OK (v2, confidence 10/10, with different offset)
Track 05 : OK (v2, confidence 10/10, with different offset)
Track 06 : OK (v2, confidence 10/10, with different offset)
Track 07 : OK (v2, confidence 10/10, with different offset)
->All tracks accurately ripped.

All Tracks
Album gain : -7.89 dB
Peak : 0.994263
Statistics
Read error : 0
Jitter error (maybe fixed) : 0
Retry sector count : 0
Damaged sector count : 0

Track 01
Filename : /Users/imac/Library/Mobile Documents/com~apple~CloudDocs/Working Folder/XLD/Greenslade - Temple Songs (1973) [FLAC]/01 - Greenslade - Feathered Friends.flac
/Users/imac/Library/Mobile Documents/com~apple~CloudDocs/Working Folder/XLD/Greenslade - Temple Songs (1973) [MP3-320]/01 - Greenslade - Feathered Friends.mp3
/Users/imac/Library/Mobile Documents/com~apple~CloudDocs/Working Folder/XLD/Greenslade - Temple Songs (1973) [MP3-V0]/01 - Greenslade - Feathered Friends.mp3
Pre-gap length : 00:02:16

Track gain : -6.78 dB
Peak : 0.994263
CRC32 hash (test run) : 98348336
CRC32 hash : 98348336
CRC32 hash (skip zero) : 4A75ACB5
AccurateRip v1 signature : 9E9416A4
AccurateRip v2 signature : 71B3EFC9 (B8A5AE5C w/correction)
->Accurately ripped with different offset (v2, confidence 9/9, offset -6)
Statistics
Read error : 0
Jitter error (maybe fixed) : 0
Retry sector count : 0
Damaged sector count : 0

Track 02
Filename : /Users/imac/Library/Mobile Documents/com~apple~CloudDocs/Working Folder/XLD/Greenslade - Temple Songs (1973) [FLAC]/02 - Greenslade - An English Western.flac
/Users/imac/Library/Mobile Documents/com~apple~CloudDocs/Working Folder/XLD/Greenslade - Temple Songs (1973) [MP3-320]/02 - Greenslade - An English Western.mp3
/Users/imac/Library/Mobile Documents/com~apple~CloudDocs/Working Folder/XLD/Greenslade - Temple Songs (1973) [MP3-V0]/02 - Greenslade - An English Western.mp3
Pre-gap length : 00:01:63

Track gain : -8.33 dB
Peak : 0.994263
CRC32 hash (test run) : 2EF90E63
CRC32 hash : 2EF90E63
CRC32 hash (skip zero) : DABAA3A6
AccurateRip v1 signature : 2BDB9322
AccurateRip v2 signature : 209E3AB0 (8B0A4E61 w/correction)
->Accurately ripped with different offset (v2, confidence 10/10, offset -6)
Statistics
Read error : 0
Jitter error (maybe fixed) : 0
Retry sector count : 0
Damaged sector count : 0

Track 03
Filename : /Users/imac/Library/Mobile Documents/com~apple~CloudDocs/Working Folder/XLD/Greenslade - Temple Songs (1973) [FLAC]/03 - Greenslade - Drowning Man.flac
/Users/imac/Library/Mobile Documents/com~apple~CloudDocs/Working Folder/XLD/Greenslade - Temple Songs (1973) [MP3-320]/03 - Greenslade - Drowning Man.mp3
/Users/imac/Library/Mobile Documents/com~apple~CloudDocs/Working Folder/XLD/Greenslade - Temple Songs (1973) [MP3-V0]/03 - Greenslade - Drowning Man.mp3
Pre-gap length : 00:02:06

Track gain : -7.21 dB
Peak : 0.994263
CRC32 hash (test run) : 0C324C08
CRC32 hash : 0C324C08
CRC32 hash (skip zero) : 571D5C3B
AccurateRip v1 signature : 109B146B
AccurateRip v2 signature : F96F9191 (4AF06C37 w/correction)
->Accurately ripped with different offset (v2, confidence 10/10, offset -6)
Statistics
Read error : 0
Jitter error (maybe fixed) : 0
Retry sector count : 0
Damaged sector count : 0

Track 04
Filename : /Users/imac/Library/Mobile Documents/com~apple~CloudDocs/Working Folder/XLD/Greenslade - Temple Songs (1973) [FLAC]/04 - Greenslade - Temple Song.flac
/Users/imac/Library/Mobile Documents/com~apple~CloudDocs/Working Folder/XLD/Greenslade - Temple Songs (1973) [MP3-320]/04 - Greenslade - Temple Song.mp3
/Users/imac/Library/Mobile Documents/com~apple~CloudDocs/Working Folder/XLD/Greenslade - Temple Songs (1973) [MP3-V0]/04 - Greenslade - Temple Song.mp3
Pre-gap length : 00:01:65

Track gain : -6.88 dB
Peak : 0.994263
CRC32 hash (test run) : FB266659
CRC32 hash : FB266659
CRC32 hash (skip zero) : BDAE863C
AccurateRip v1 signature : 922DAD90
AccurateRip v2 signature : 75D01DF4 (0D5B7309 w/correction)
->Accurately ripped with different offset (v2, confidence 10/10, offset -6)
Statistics
Read error : 0
Jitter error (maybe fixed) : 0
Retry sector count : 0
Damaged sector count : 0

Track 05
Filename : /Users/imac/Library/Mobile Documents/com~apple~CloudDocs/Working Folder/XLD/Greenslade - Temple Songs (1973) [FLAC]/05 - Greenslade - Melange.flac
/Users/imac/Library/Mobile Documents/com~apple~CloudDocs/Working Folder/XLD/Greenslade - Temple Songs (1973) [MP3-320]/05 - Greenslade - Melange.mp3
/Users/imac/Library/Mobile Documents/com~apple~CloudDocs/Working Folder/XLD/Greenslade - Temple Songs (1973) [MP3-V0]/05 - Greenslade - Melange.mp3
Pre-gap length : 00:01:67

Track gain : -8.31 dB
Peak : 0.994263
CRC32 hash (test run) : 4C1DC9F2
CRC32 hash : 4C1DC9F2
CRC32 hash (skip zero) : F2754920
AccurateRip v1 signature : 04FB098C
AccurateRip v2 signature : 96A85EB9 (9A827365 w/correction)
->Accurately ripped with different offset (v2, confidence 10/10, offset -6)
Statistics
Read error : 0
Jitter error (maybe fixed) : 0
Retry sector count : 0
Damaged sector count : 0

Track 06
Filename : /Users/imac/Library/Mobile Documents/com~apple~CloudDocs/Working Folder/XLD/Greenslade - Temple Songs (1973) [FLAC]/06 - Greenslade - What Are You Doin' to Me.flac
/Users/imac/Library/Mobile Documents/com~apple~CloudDocs/Working Folder/XLD/Greenslade - Temple Songs (1973) [MP3-320]/06 - Greenslade - What Are You Doin' to Me.mp3
/Users/imac/Library/Mobile Documents/com~apple~CloudDocs/Working Folder/XLD/Greenslade - Temple Songs (1973) [MP3-V0]/06 - Greenslade - What Are You Doin' to Me.mp3
Pre-gap length : 00:02:04

Track gain : -9.18 dB
Peak : 0.994263
CRC32 hash (test run) : E0B5CC43
CRC32 hash : E0B5CC43
CRC32 hash (skip zero) : 0A035484
AccurateRip v1 signature : E48F6A75
AccurateRip v2 signature : 9F84988B (14C79D66 w/correction)
->Accurately ripped with different offset (v2, confidence 10/10, offset -6)
Statistics
Read error : 0
Jitter error (maybe fixed) : 0
Retry sector count : 0
Damaged sector count : 0

Track 07
Filename : /Users/imac/Library/Mobile Documents/com~apple~CloudDocs/Working Folder/XLD/Greenslade - Temple Songs (1973) [FLAC]/07 - Greenslade - Sundance.flac
/Users/imac/Library/Mobile Documents/com~apple~CloudDocs/Working Folder/XLD/Greenslade - Temple Songs (1973) [MP3-320]/07 - Greenslade - Sundance.mp3
/Users/imac/Library/Mobile Documents/com~apple~CloudDocs/Working Folder/XLD/Greenslade - Temple Songs (1973) [MP3-V0]/07 - Greenslade - Sundance.mp3
Pre-gap length : 00:01:68

Track gain : -8.06 dB
Peak : 0.994263
CRC32 hash (test run) : 3B938C71
CRC32 hash : 3B938C71
CRC32 hash (skip zero) : DBA5A77F
AccurateRip v1 signature : CAA830F7
AccurateRip v2 signature : 1868D3B1 (99229B86 w/correction)
->Accurately ripped with different offset (v2, confidence 10/10, offset -6)
Statistics
Read error : 0
Jitter error (maybe fixed) : 0
Retry sector count : 0
Damaged sector count : 0

No errors occurred

End of status report

––-BEGIN XLD SIGNATURE––-
Gls6OPCIxCEtREk9pSjPFcSoQZaGLZLDUmp3RAl95NR9WOL5zoD0khta.G9xWX3NcQsDSWWHnB6D.hCGMWA1cfRKG2iM4dZixq5NEdy
––-END XLD SIGNATURE––-
X Lossless Decoder version 20211018 (154.0)

XLD extraction logfile from 2022-02-09 00:41:49 +0000

Greenslade / Temple Songs

Used drive : MATSHITA BD-MLT UJ240AF (revision 1.00)
Media type : Pressed CD

Ripper mode : XLD Secure Ripper
Disable audio cache : OK for the drive with a cache less than 1375KiB
Make use of C2 pointers : NO
Read offset correction : 103
Max retry count : 25
Gap status : Analyzed, Appended (except HTOA)

TOC of the extracted CD
Track | Start | Length | Start sector | End sector
––––––––––––––––––––––––––––-
1 | 00:00:00 | 06:24:34 | 0 | 28833
2 | 06:24:34 | 07:05:00 | 28834 | 60708
3 | 13:29:34 | 04:51:43 | 60709 | 82576
4 | 18:21:02 | 08:53:37 | 82577 | 122588
5 | 27:14:39 | 06:35:71 | 122589 | 152284
6 | 33:50:35 | 05:27:55 | 152285 | 176864

AccurateRip Summary
Disc not found in AccurateRip DB.

All Tracks
Album gain : -5.61 dB
Peak : 0.988556
Statistics
Read error : 0
Jitter error (maybe fixed) : 0
Retry sector count : 0
Damaged sector count : 0

Track 01
Filename : /Users/imac/Library/Mobile Documents/com~apple~CloudDocs/Working Folder/XLD/Greenslade - Temple Songs (1973) [FLAC]/01 - Greenslade - Bedside Manners Are Extra.flac
/Users/imac/Library/Mobile Documents/com~apple~CloudDocs/Working Folder/XLD/Greenslade - Temple Songs (1973) [MP3-320]/01 - Greenslade - Bedside Manners Are Extra.mp3
/Users/imac/Library/Mobile Documents/com~apple~CloudDocs/Working Folder/XLD/Greenslade - Temple Songs (1973) [MP3-V0]/01 - Greenslade - Bedside Manners Are Extra.mp3
Pre-gap length : 00:02:00

Track gain : -2.64 dB
Peak : 0.988556
CRC32 hash (test run) : 9F7642D7
CRC32 hash : 9F7642D7
CRC32 hash (skip zero) : 6E12859A
AccurateRip v1 signature : 5122C64A
AccurateRip v2 signature : C917FDD9
->Track not present in AccurateRip database.
Statistics
Read error : 0
Jitter error (maybe fixed) : 0
Retry sector count : 0
Damaged sector count : 0

Track 02
Filename : /Users/imac/Library/Mobile Documents/com~apple~CloudDocs/Working Folder/XLD/Greenslade - Temple Songs (1973) [FLAC]/02 - Greenslade - Pilgrims Progress.flac
/Users/imac/Library/Mobile Documents/com~apple~CloudDocs/Working Folder/XLD/Greenslade - Temple Songs (1973) [MP3-320]/02 - Greenslade - Pilgrims Progress.mp3
/Users/imac/Library/Mobile Documents/com~apple~CloudDocs/Working Folder/XLD/Greenslade - Temple Songs (1973) [MP3-V0]/02 - Greenslade - Pilgrims Progress.mp3
Pre-gap length : 00:02:23

Track gain : -5.88 dB
Peak : 0.988556
CRC32 hash (test run) : 6CEA690E
CRC32 hash : 6CEA690E
CRC32 hash (skip zero) : 15DCA630
AccurateRip v1 signature : 68835AD5
AccurateRip v2 signature : BE8F2F12
->Track not present in AccurateRip database.
Statistics
Read error : 0
Jitter error (maybe fixed) : 0
Retry sector count : 0
Damaged sector count : 0

Track 03
Filename : /Users/imac/Library/Mobile Documents/com~apple~CloudDocs/Working Folder/XLD/Greenslade - Temple Songs (1973) [FLAC]/03 - Greenslade - Time to Dream.flac
/Users/imac/Library/Mobile Documents/com~apple~CloudDocs/Working Folder/XLD/Greenslade - Temple Songs (1973) [MP3-320]/03 - Greenslade - Time to Dream.mp3
/Users/imac/Library/Mobile Documents/com~apple~CloudDocs/Working Folder/XLD/Greenslade - Temple Songs (1973) [MP3-V0]/03 - Greenslade - Time to Dream.mp3
Pre-gap length : 00:01:64

Track gain : -7.25 dB
Peak : 0.988556
CRC32 hash (test run) : 18EC03BE
CRC32 hash : 18EC03BE
CRC32 hash (skip zero) : CA7D082C
AccurateRip v1 signature : D5EC0C2E
AccurateRip v2 signature : 8ED01A91
->Track not present in AccurateRip database.
Statistics
Read error : 0
Jitter error (maybe fixed) : 0
Retry sector count : 0
Damaged sector count : 0

Track 04
Filename : /Users/imac/Library/Mobile Documents/com~apple~CloudDocs/Working Folder/XLD/Greenslade - Temple Songs (1973) [FLAC]/04 - Greenslade - Drum Folk.flac
/Users/imac/Library/Mobile Documents/com~apple~CloudDocs/Working Folder/XLD/Greenslade - Temple Songs (1973) [MP3-320]/04 - Greenslade - Drum Folk.mp3
/Users/imac/Library/Mobile Documents/com~apple~CloudDocs/Working Folder/XLD/Greenslade - Temple Songs (1973) [MP3-V0]/04 - Greenslade - Drum Folk.mp3
Pre-gap length : 00:02:28

Track gain : -5.23 dB
Peak : 0.988556
CRC32 hash (test run) : AD8B4426
CRC32 hash : AD8B4426
CRC32 hash (skip zero) : 26306BE9
AccurateRip v1 signature : D5490442
AccurateRip v2 signature : F811BF61
->Track not present in AccurateRip database.
Statistics
Read error : 0
Jitter error (maybe fixed) : 0
Retry sector count : 0
Damaged sector count : 0

Track 05
Filename : /Users/imac/Library/Mobile Documents/com~apple~CloudDocs/Working Folder/XLD/Greenslade - Temple Songs (1973) [FLAC]/05 - Greenslade - Sunkissed You Are Not.flac
/Users/imac/Library/Mobile Documents/com~apple~CloudDocs/Working Folder/XLD/Greenslade - Temple Songs (1973) [MP3-320]/05 - Greenslade - Sunkissed You Are Not.mp3
/Users/imac/Library/Mobile Documents/com~apple~CloudDocs/Working Folder/XLD/Greenslade - Temple Songs (1973) [MP3-V0]/05 - Greenslade - Sunkissed You Are Not.mp3
Pre-gap length : 00:02:21

Track gain : -5.10 dB
Peak : 0.988556
CRC32 hash (test run) : 4441ED98
CRC32 hash : 4441ED98
CRC32 hash (skip zero) : C3BAA810
AccurateRip v1 signature : A278439D
AccurateRip v2 signature : 271B6A80
->Track not present in AccurateRip database.
Statistics
Read error : 0
Jitter error (maybe fixed) : 0
Retry sector count : 0
Damaged sector count : 0

Track 06
Filename : /Users/imac/Library/Mobile Documents/com~apple~CloudDocs/Working Folder/XLD/Greenslade - Temple Songs (1973) [FLAC]/06 - Greenslade - Chalkhill.flac
/Users/imac/Library/Mobile Documents/com~apple~CloudDocs/Working Folder/XLD/Greenslade - Temple Songs (1973) [MP3-320]/06 - Greenslade - Chalkhill.mp3
/Users/imac/Library/Mobile Documents/com~apple~CloudDocs/Working Folder/XLD/Greenslade - Temple Songs (1973) [MP3-V0]/06 - Greenslade - Chalkhill.mp3
Pre-gap length : 00:02:23

Track gain : -6.64 dB
Peak : 0.988556
CRC32 hash (test run) : 535F5FE3
CRC32 hash : 535F5FE3
CRC32 hash (skip zero) : 70FF1C13
AccurateRip v1 signature : 35BDA4FB
AccurateRip v2 signature : EF5B3708
->Track not present in AccurateRip database.
Statistics
Read error : 0
Jitter error (maybe fixed) : 0
Retry sector count : 0
Damaged sector count : 0

No errors occurred

End of status report

––-BEGIN XLD SIGNATURE––-
rEMRJIVsW.sTVhnnC4JuHrqII9ZjT3bynROsL_r.uTRFkEVU42y2bdxSrnJBc5gS_PPBHKFQOJMBYE7.p5Zr5szrFkXdo7KKwxzzhVK
––-END XLD SIGNATURE––-
X Lossless Decoder version 20211018 (154.0)

XLD extraction logfile from 2022-02-09 01:07:41 +0000

Greenslade / Temple Songs

Used drive : MATSHITA BD-MLT UJ240AF (revision 1.00)
Media type : Pressed CD

Ripper mode : XLD Secure Ripper
Disable audio cache : OK for the drive with a cache less than 1375KiB
Make use of C2 pointers : NO
Read offset correction : 103
Max retry count : 25
Gap status : Analyzed, Appended (except HTOA)

TOC of the extracted CD
Track | Start | Length | Start sector | End sector
––––––––––––––––––––––––––––-
1 | 00:00:00 | 05:10:05 | 0 | 23254
2 | 05:10:05 | 05:07:06 | 23255 | 46285
3 | 10:17:11 | 04:21:41 | 46286 | 65901
4 | 14:38:52 | 04:47:19 | 65902 | 87445
5 | 19:25:71 | 08:27:62 | 87446 | 125532
6 | 27:53:58 | 02:49:51 | 125533 | 138258
7 | 30:43:34 | 04:17:04 | 138259 | 157537
8 | 35:00:38 | 03:53:62 | 157538 | 175074

AccurateRip Summary
Disc not found in AccurateRip DB.

All Tracks
Album gain : -5.85 dB
Peak : 0.994263
Statistics
Read error : 0
Jitter error (maybe fixed) : 0
Retry sector count : 0
Damaged sector count : 0

Track 01
Filename : /Users/imac/Library/Mobile Documents/com~apple~CloudDocs/Working Folder/XLD/Greenslade - Temple Songs (1974) [FLAC]/01 - Greenslade - Spirit of the Dance.flac
/Users/imac/Library/Mobile Documents/com~apple~CloudDocs/Working Folder/XLD/Greenslade - Temple Songs (1974) [MP3-320]/01 - Greenslade - Spirit of the Dance.mp3
/Users/imac/Library/Mobile Documents/com~apple~CloudDocs/Working Folder/XLD/Greenslade - Temple Songs (1974) [MP3-V0]/01 - Greenslade - Spirit of the Dance.mp3
Pre-gap length : 00:02:00

Track gain : -7.20 dB
Peak : 0.994263
CRC32 hash (test run) : 34860DD2
CRC32 hash : 34860DD2
CRC32 hash (skip zero) : 7E5A57EC
AccurateRip v1 signature : FFE5E431
AccurateRip v2 signature : 71228AB2
->Track not present in AccurateRip database.
Statistics
Read error : 0
Jitter error (maybe fixed) : 0
Retry sector count : 0
Damaged sector count : 0

Track 02
Filename : /Users/imac/Library/Mobile Documents/com~apple~CloudDocs/Working Folder/XLD/Greenslade - Temple Songs (1974) [FLAC]/02 - Greenslade - Little Red Fry Up.flac
/Users/imac/Library/Mobile Documents/com~apple~CloudDocs/Working Folder/XLD/Greenslade - Temple Songs (1974) [MP3-320]/02 - Greenslade - Little Red Fry Up.mp3
/Users/imac/Library/Mobile Documents/com~apple~CloudDocs/Working Folder/XLD/Greenslade - Temple Songs (1974) [MP3-V0]/02 - Greenslade - Little Red Fry Up.mp3
Pre-gap length : 00:02:39

Track gain : -6.29 dB
Peak : 0.994263
CRC32 hash (test run) : 43CD6D63
CRC32 hash : 43CD6D63
CRC32 hash (skip zero) : 4B6699B7
AccurateRip v1 signature : 8E8024FF
AccurateRip v2 signature : 256CA837
->Track not present in AccurateRip database.
Statistics
Read error : 0
Jitter error (maybe fixed) : 0
Retry sector count : 0
Damaged sector count : 0

Track 03
Filename : /Users/imac/Library/Mobile Documents/com~apple~CloudDocs/Working Folder/XLD/Greenslade - Temple Songs (1974) [FLAC]/03 - Greenslade - Rainbow.flac
/Users/imac/Library/Mobile Documents/com~apple~CloudDocs/Working Folder/XLD/Greenslade - Temple Songs (1974) [MP3-320]/03 - Greenslade - Rainbow.mp3
/Users/imac/Library/Mobile Documents/com~apple~CloudDocs/Working Folder/XLD/Greenslade - Temple Songs (1974) [MP3-V0]/03 - Greenslade - Rainbow.mp3

Track gain : -3.99 dB
Peak : 0.994263
CRC32 hash (test run) : B0B01895
CRC32 hash : B0B01895
CRC32 hash (skip zero) : 0EA0A546
AccurateRip v1 signature : 8581F0C6
AccurateRip v2 signature : 5EC0352D
->Track not present in AccurateRip database.
Statistics
Read error : 0
Jitter error (maybe fixed) : 0
Retry sector count : 0
Damaged sector count : 0

Track 04
Filename : /Users/imac/Library/Mobile Documents/com~apple~CloudDocs/Working Folder/XLD/Greenslade - Temple Songs (1974) [FLAC]/04 - Greenslade - Siam Seesaw.flac
/Users/imac/Library/Mobile Documents/com~apple~CloudDocs/Working Folder/XLD/Greenslade - Temple Songs (1974) [MP3-320]/04 - Greenslade - Siam Seesaw.mp3
/Users/imac/Library/Mobile Documents/com~apple~CloudDocs/Working Folder/XLD/Greenslade - Temple Songs (1974) [MP3-V0]/04 - Greenslade - Siam Seesaw.mp3
Pre-gap length : 00:00:37

Track gain : -5.25 dB
Peak : 0.994263
CRC32 hash (test run) : C874406C
CRC32 hash : C874406C
CRC32 hash (skip zero) : A085F8DC
AccurateRip v1 signature : C3EF87C1
AccurateRip v2 signature : B382725C
->Track not present in AccurateRip database.
Statistics
Read error : 0
Jitter error (maybe fixed) : 0
Retry sector count : 0
Damaged sector count : 0

Track 05
Filename : /Users/imac/Library/Mobile Documents/com~apple~CloudDocs/Working Folder/XLD/Greenslade - Temple Songs (1974) [FLAC]/05 - Greenslade - Joie de Vivre.flac
/Users/imac/Library/Mobile Documents/com~apple~CloudDocs/Working Folder/XLD/Greenslade - Temple Songs (1974) [MP3-320]/05 - Greenslade - Joie de Vivre.mp3
/Users/imac/Library/Mobile Documents/com~apple~CloudDocs/Working Folder/XLD/Greenslade - Temple Songs (1974) [MP3-V0]/05 - Greenslade - Joie de Vivre.mp3
Pre-gap length : 00:01:70

Track gain : -6.19 dB
Peak : 0.994263
CRC32 hash (test run) : 67D5B9C6
CRC32 hash : 67D5B9C6
CRC32 hash (skip zero) : C286D7F3
AccurateRip v1 signature : 52E8795E
AccurateRip v2 signature : A09ABDC6
->Track not present in AccurateRip database.
Statistics
Read error : 0
Jitter error (maybe fixed) : 0
Retry sector count : 0
Damaged sector count : 0

Track 06
Filename : /Users/imac/Library/Mobile Documents/com~apple~CloudDocs/Working Folder/XLD/Greenslade - Temple Songs (1974) [FLAC]/06 - Greenslade - Red Light.flac
/Users/imac/Library/Mobile Documents/com~apple~CloudDocs/Working Folder/XLD/Greenslade - Temple Songs (1974) [MP3-320]/06 - Greenslade - Red Light.mp3
/Users/imac/Library/Mobile Documents/com~apple~CloudDocs/Working Folder/XLD/Greenslade - Temple Songs (1974) [MP3-V0]/06 - Greenslade - Red Light.mp3
Pre-gap length : 00:02:28

Track gain : -4.78 dB
Peak : 0.994263
CRC32 hash (test run) : 11AF7964
CRC32 hash : 11AF7964
CRC32 hash (skip zero) : 3B2C755B
AccurateRip v1 signature : B9D443DA
AccurateRip v2 signature : AC99A2E1
->Track not present in AccurateRip database.
Statistics
Read error : 0
Jitter error (maybe fixed) : 0
Retry sector count : 0
Damaged sector count : 0

Track 07
Filename : /Users/imac/Library/Mobile Documents/com~apple~CloudDocs/Working Folder/XLD/Greenslade - Temple Songs (1974) [FLAC]/07 - Greenslade - Melancholic Race.flac
/Users/imac/Library/Mobile Documents/com~apple~CloudDocs/Working Folder/XLD/Greenslade - Temple Songs (1974) [MP3-320]/07 - Greenslade - Melancholic Race.mp3
/Users/imac/Library/Mobile Documents/com~apple~CloudDocs/Working Folder/XLD/Greenslade - Temple Songs (1974) [MP3-V0]/07 - Greenslade - Melancholic Race.mp3
Pre-gap length : 00:01:47

Track gain : -5.44 dB
Peak : 0.994263
CRC32 hash (test run) : E7DFF269
CRC32 hash : E7DFF269
CRC32 hash (skip zero) : 4E4F2F61
AccurateRip v1 signature : 67F92363
AccurateRip v2 signature : B0046645
->Track not present in AccurateRip database.
Statistics
Read error : 0
Jitter error (maybe fixed) : 0
Retry sector count : 0
Damaged sector count : 0

Track 08
Filename : /Users/imac/Library/Mobile Documents/com~apple~CloudDocs/Working Folder/XLD/Greenslade - Temple Songs (1974) [FLAC]/08 - Greenslade - Theme for an Imaginary Western.flac
/Users/imac/Library/Mobile Documents/com~apple~CloudDocs/Working Folder/XLD/Greenslade - Temple Songs (1974) [MP3-320]/08 - Greenslade - Theme for an Imaginary Western.mp3
/Users/imac/Library/Mobile Documents/com~apple~CloudDocs/Working Folder/XLD/Greenslade - Temple Songs (1974) [MP3-V0]/08 - Greenslade - Theme for an Imaginary Western.mp3
Pre-gap length : 00:01:44

Track gain : -5.54 dB
Peak : 0.994263
CRC32 hash (test run) : 538B52F9
CRC32 hash : 538B52F9
CRC32 hash (skip zero) : 10C2A987
AccurateRip v1 signature : 96191069
AccurateRip v2 signature : 9C014CC9
->Track not present in AccurateRip database.
Statistics
Read error : 0
Jitter error (maybe fixed) : 0
Retry sector count : 0
Damaged sector count : 0

No errors occurred

End of status report

––-BEGIN XLD SIGNATURE––-
EJNVyR24YUQTEwm22e5Ru3Tv4HaxOAkB3VrtGrejpTZjOA8hHYvT9GeC1T6ZU6rGKEK_HOe3_ji.DgIsMzByst.EZh_rD3dVFg0.pRq
––-END XLD SIGNATURE––-
X Lossless Decoder version 20211018 (154.0)

XLD extraction logfile from 2022-02-09 01:23:29 +0000

Greenslade / Temple Songs

Used drive : MATSHITA BD-MLT UJ240AF (revision 1.00)
Media type : Pressed CD

Ripper mode : XLD Secure Ripper
Disable audio cache : OK for the drive with a cache less than 1375KiB
Make use of C2 pointers : NO
Read offset correction : 103
Max retry count : 25
Gap status : Analyzed, Appended (except HTOA)

TOC of the extracted CD
Track | Start | Length | Start sector | End sector
––––––––––––––––––––––––––––-
1 | 00:00:05 | 03:26:30 | 5 | 15484
2 | 03:26:35 | 03:04:73 | 15485 | 29357
3 | 06:31:33 | 01:16:54 | 29358 | 35111
4 | 07:48:12 | 02:50:60 | 35112 | 47921
5 | 10:38:72 | 05:06:17 | 47922 | 70888
6 | 15:45:14 | 03:58:40 | 70889 | 88778
7 | 19:43:54 | 03:18:53 | 88779 | 103681
8 | 23:02:32 | 03:24:33 | 103682 | 119014
9 | 26:26:65 | 03:44:46 | 119015 | 135860
10 | 30:11:36 | 02:28:41 | 135861 | 147001

AccurateRip Summary
Disc not found in AccurateRip DB.

All Tracks
Album gain : -3.76 dB
Peak : 0.988617
Statistics
Read error : 0
Jitter error (maybe fixed) : 0
Retry sector count : 0
Damaged sector count : 0

Track 01
Filename : /Users/imac/Library/Mobile Documents/com~apple~CloudDocs/Working Folder/XLD/Greenslade - Temple Songs (1975) [FLAC]/01 - Greenslade - Animal Farm.flac
/Users/imac/Library/Mobile Documents/com~apple~CloudDocs/Working Folder/XLD/Greenslade - Temple Songs (1975) [MP3-320]/01 - Greenslade - Animal Farm.mp3
/Users/imac/Library/Mobile Documents/com~apple~CloudDocs/Working Folder/XLD/Greenslade - Temple Songs (1975) [MP3-V0]/01 - Greenslade - Animal Farm.mp3
Pre-gap length : 00:02:05

Track gain : -5.73 dB
Peak : 0.988617
CRC32 hash (test run) : DC6C22A2
CRC32 hash : DC6C22A2
CRC32 hash (skip zero) : 67F6486F
AccurateRip v1 signature : 2D23AB07
AccurateRip v2 signature : 91B1F4D2
->Track not present in AccurateRip database.
Statistics
Read error : 0
Jitter error (maybe fixed) : 0
Retry sector count : 0
Damaged sector count : 0

Track 02
Filename : /Users/imac/Library/Mobile Documents/com~apple~CloudDocs/Working Folder/XLD/Greenslade - Temple Songs (1975) [FLAC]/02 - Greenslade - Newsworth.flac
/Users/imac/Library/Mobile Documents/com~apple~CloudDocs/Working Folder/XLD/Greenslade - Temple Songs (1975) [MP3-320]/02 - Greenslade - Newsworth.mp3
/Users/imac/Library/Mobile Documents/com~apple~CloudDocs/Working Folder/XLD/Greenslade - Temple Songs (1975) [MP3-V0]/02 - Greenslade - Newsworth.mp3
Pre-gap length : 00:00:50

Track gain : -4.32 dB
Peak : 0.988586
CRC32 hash (test run) : D200B813
CRC32 hash : D200B813
CRC32 hash (skip zero) : 38C5B9F4
AccurateRip v1 signature : F3E2A73E
AccurateRip v2 signature : 1F5B1673
->Track not present in AccurateRip database.
Statistics
Read error : 0
Jitter error (maybe fixed) : 0
Retry sector count : 0
Damaged sector count : 0

Track 03
Filename : /Users/imac/Library/Mobile Documents/com~apple~CloudDocs/Working Folder/XLD/Greenslade - Temple Songs (1975) [FLAC]/03 - Greenslade - Time.flac
/Users/imac/Library/Mobile Documents/com~apple~CloudDocs/Working Folder/XLD/Greenslade - Temple Songs (1975) [MP3-320]/03 - Greenslade - Time.mp3
/Users/imac/Library/Mobile Documents/com~apple~CloudDocs/Working Folder/XLD/Greenslade - Temple Songs (1975) [MP3-V0]/03 - Greenslade - Time.mp3
Pre-gap length : 00:01:41

Track gain : -1.83 dB
Peak : 0.754578
CRC32 hash (test run) : A6882546
CRC32 hash : A6882546
CRC32 hash (skip zero) : ABDD3C8C
AccurateRip v1 signature : C18A3D9A
AccurateRip v2 signature : F352EE9F
->Track not present in AccurateRip database.
Statistics
Read error : 0
Jitter error (maybe fixed) : 0
Retry sector count : 0
Damaged sector count : 0

Track 04
Filename : /Users/imac/Library/Mobile Documents/com~apple~CloudDocs/Working Folder/XLD/Greenslade - Temple Songs (1975) [FLAC]/04 - Greenslade - Tide.flac
/Users/imac/Library/Mobile Documents/com~apple~CloudDocs/Working Folder/XLD/Greenslade - Temple Songs (1975) [MP3-320]/04 - Greenslade - Tide.mp3
/Users/imac/Library/Mobile Documents/com~apple~CloudDocs/Working Folder/XLD/Greenslade - Temple Songs (1975) [MP3-V0]/04 - Greenslade - Tide.mp3

Track gain : -0.83 dB
Peak : 0.701965
CRC32 hash (test run) : C2024F83
CRC32 hash : C2024F83
CRC32 hash (skip zero) : F28B882C
AccurateRip v1 signature : AC0882B6
AccurateRip v2 signature : B441A000
->Track not present in AccurateRip database.
Statistics
Read error : 0
Jitter error (maybe fixed) : 0
Retry sector count : 0
Damaged sector count : 0

Track 05
Filename : /Users/imac/Library/Mobile Documents/com~apple~CloudDocs/Working Folder/XLD/Greenslade - Temple Songs (1975) [FLAC]/05 - Greenslade - Catalan.flac
/Users/imac/Library/Mobile Documents/com~apple~CloudDocs/Working Folder/XLD/Greenslade - Temple Songs (1975) [MP3-320]/05 - Greenslade - Catalan.mp3
/Users/imac/Library/Mobile Documents/com~apple~CloudDocs/Working Folder/XLD/Greenslade - Temple Songs (1975) [MP3-V0]/05 - Greenslade - Catalan.mp3

Track gain : -4.89 dB
Peak : 0.988586
CRC32 hash (test run) : 38F01B89
CRC32 hash : 38F01B89
CRC32 hash (skip zero) : 470AAD5D
AccurateRip v1 signature : 3DAF2CF2
AccurateRip v2 signature : 22078642
->Track not present in AccurateRip database.
Statistics
Read error : 0
Jitter error (maybe fixed) : 0
Retry sector count : 0
Damaged sector count : 0

Track 06
Filename : /Users/imac/Library/Mobile Documents/com~apple~CloudDocs/Working Folder/XLD/Greenslade - Temple Songs (1975) [FLAC]/06 - Greenslade - The Flattery Stakes.flac
/Users/imac/Library/Mobile Documents/com~apple~CloudDocs/Working Folder/XLD/Greenslade - Temple Songs (1975) [MP3-320]/06 - Greenslade - The Flattery Stakes.mp3
/Users/imac/Library/Mobile Documents/com~apple~CloudDocs/Working Folder/XLD/Greenslade - Temple Songs (1975) [MP3-V0]/06 - Greenslade - The Flattery Stakes.mp3
Pre-gap length : 00:01:31

Track gain : -4.32 dB
Peak : 0.988556
CRC32 hash (test run) : F7413595
CRC32 hash : F7413595
CRC32 hash (skip zero) : 33B501F9
AccurateRip v1 signature : 450F81A8
AccurateRip v2 signature : DBB370C8
->Track not present in AccurateRip database.
Statistics
Read error : 0
Jitter error (maybe fixed) : 0
Retry sector count : 0
Damaged sector count : 0

Track 07
Filename : /Users/imac/Library/Mobile Documents/com~apple~CloudDocs/Working Folder/XLD/Greenslade - Temple Songs (1975) [FLAC]/07 - Greenslade - Waltz For a Fallen Idol.flac
/Users/imac/Library/Mobile Documents/com~apple~CloudDocs/Working Folder/XLD/Greenslade - Temple Songs (1975) [MP3-320]/07 - Greenslade - Waltz For a Fallen Idol.mp3
/Users/imac/Library/Mobile Documents/com~apple~CloudDocs/Working Folder/XLD/Greenslade - Temple Songs (1975) [MP3-V0]/07 - Greenslade - Waltz For a Fallen Idol.mp3
Pre-gap length : 00:01:37

Track gain : 0.12 dB
Peak : 0.755554
CRC32 hash (test run) : 26824752
CRC32 hash : 26824752
CRC32 hash (skip zero) : D0240EAF
AccurateRip v1 signature : 6C969496
AccurateRip v2 signature : B05FE27E
->Track not present in AccurateRip database.
Statistics
Read error : 0
Jitter error (maybe fixed) : 0
Retry sector count : 0
Damaged sector count : 0

Track 08
Filename : /Users/imac/Library/Mobile Documents/com~apple~CloudDocs/Working Folder/XLD/Greenslade - Temple Songs (1975) [FLAC]/08 - Greenslade - The Ass's Ears.flac
/Users/imac/Library/Mobile Documents/com~apple~CloudDocs/Working Folder/XLD/Greenslade - Temple Songs (1975) [MP3-320]/08 - Greenslade - The Ass's Ears.mp3
/Users/imac/Library/Mobile Documents/com~apple~CloudDocs/Working Folder/XLD/Greenslade - Temple Songs (1975) [MP3-V0]/08 - Greenslade - The Ass's Ears.mp3

Track gain : -3.84 dB
Peak : 0.950531
CRC32 hash (test run) : C693E553
CRC32 hash : C693E553
CRC32 hash (skip zero) : 9D140A85
AccurateRip v1 signature : 3CB207B3
AccurateRip v2 signature : 4DA5E8EF
->Track not present in AccurateRip database.
Statistics
Read error : 0
Jitter error (maybe fixed) : 0
Retry sector count : 0
Damaged sector count : 0

Track 09
Filename : /Users/imac/Library/Mobile Documents/com~apple~CloudDocs/Working Folder/XLD/Greenslade - Temple Songs (1975) [FLAC]/09 - Greenslade - Doldrums.flac
/Users/imac/Library/Mobile Documents/com~apple~CloudDocs/Working Folder/XLD/Greenslade - Temple Songs (1975) [MP3-320]/09 - Greenslade - Doldrums.mp3
/Users/imac/Library/Mobile Documents/com~apple~CloudDocs/Working Folder/XLD/Greenslade - Temple Songs (1975) [MP3-V0]/09 - Greenslade - Doldrums.mp3
Pre-gap length : 00:02:19

Track gain : 2.45 dB
Peak : 0.594635
CRC32 hash (test run) : F12A4793
CRC32 hash : F12A4793
CRC32 hash (skip zero) : A5DA5F89
AccurateRip v1 signature : 9FDC54C9
AccurateRip v2 signature : 6AA1FC6A
->Track not present in AccurateRip database.
Statistics
Read error : 0
Jitter error (maybe fixed) : 0
Retry sector count : 0
Damaged sector count : 0

Track 10
Filename : /Users/imac/Library/Mobile Documents/com~apple~CloudDocs/Working Folder/XLD/Greenslade - Temple Songs (1975) [FLAC]/10 - Greenslade - Gangsters.flac
/Users/imac/Library/Mobile Documents/com~apple~CloudDocs/Working Folder/XLD/Greenslade - Temple Songs (1975) [MP3-320]/10 - Greenslade - Gangsters.mp3
/Users/imac/Library/Mobile Documents/com~apple~CloudDocs/Working Folder/XLD/Greenslade - Temple Songs (1975) [MP3-V0]/10 - Greenslade - Gangsters.mp3
Pre-gap length : 00:02:24

Track gain : -5.34 dB
Peak : 0.988617
CRC32 hash (test run) : 0F4CC0F2
CRC32 hash : 0F4CC0F2
CRC32 hash (skip zero) : 5AE526B4
AccurateRip v1 signature : 8855AA24
AccurateRip v2 signature : FDA28B90
->Track not present in AccurateRip database.
Statistics
Read error : 0
Jitter error (maybe fixed) : 0
Retry sector count : 0
Damaged sector count : 0

No errors occurred

End of status report

––-BEGIN XLD SIGNATURE––-
um7YhPt7xIIh5qhiiKtcbctxmlTBUvZpWbPt0Q_eq4RCkHxJFspcUhjJGH9AcxxbNhoWlw7PRfw7MfEDaU6ZmJePuYBUT4h5ei4r_iu
––-END XLD SIGNATURE––-

Thanks to the Original ripper !