Subcategories

Jon Hassell & Brian Eno - Fourth World, Vol. 1: Possible Musics (1980) {EG Records}

Posted By: ruskaval
Jon Hassell & Brian Eno - Fourth World, Vol. 1: Possible Musics (1980) {EG Records}

Jon Hassell & Brian Eno - Fourth World, Vol. 1: Possible Musics (1980) {EG Records}
EAC rip (secure mode) | FLAC (tracks)+CUE+LOG -> 200 Mb | MP3 @320 -> 108 Mb
Full Artwork @ 300 dpi (png) -> 11 Mb | 5% repair rar
© 1992 EG Records / Caroline | EEGCD-7
New Age / Avant-Garde / Electronic / Ambient / Ethnic Fusion / Experimental

Largely thought of merely as a mostly stillborn offshoot of Brian Eno's larger ambient music series, the Fourth World series of albums, in collaboration with trumpeter Jon Hassell, is actually an entirely separate beast. Fourth World, Vol. 1: Possible Musics starts off from the same basic idea as Hassell's previous solo albums, like Earthquake Island and Vernal Equinox: a blend of avant-garde composition, jazz soloing, and African and Middle Eastern rhythmic forms.

This album adds only Eno's characteristic production touches, like the reversed echo that adds a ghostly, unreal edge to Hassell's trumpet solos on the side-long "Charm (Over Burundi Cloud)." The rest of the album, including the African hand drummers on the hypnotic "Delta Rain Dream" and the swirling, almost speech-like solos of "Griot," is pure Hassell. Although this album was never a chart hit and has become surprisingly underappreciated over the years, its influence on what has since become known as tribal techno is incalculable, as has its influence on those art rockers who have picked up a world music vibe. Peter Gabriel in particular owes a fair chunk of his royalty checks from Security onward to Jon Hassell.

More INFO

tracklist:
01 - Chemistry
02 - Delta Rain Dream
03 - Griot (over 'Contagious Magic')
04 - Ba-Benzele
05 - Rising Thermal 14 16' N; 32 28' E
06 - Charm (over 'Burundi Cloud')

Exact Audio Copy V0.99 prebeta 5 from 4. May 2009

EAC extraction logfile from 30. June 2010, 10:39

Jon Hassell & Brian Eno / Fourth World Vol. 1 - Possible Musics

Used drive : Optiarc DVD RW AD-7170S Adapter: 4 ID: 0

Read mode : Secure
Utilize accurate stream : Yes
Defeat audio cache : Yes
Make use of C2 pointers : No

Read offset correction : 48
Overread into Lead-In and Lead-Out : No
Fill up missing offset samples with silence : Yes
Delete leading and trailing silent blocks : No
Null samples used in CRC calculations : Yes
Used interface : Native Win32 interface for Win NT & 2000
Gap handling : Appended to previous track

Used output format : User Defined Encoder
Selected bitrate : 128 kBit/s
Quality : High
Add ID3 tag : No
Command line compressor : C:\Program Files (x86)\FLAC\flac.exe
Additional command line options : -8 -V -T "ARTIST=%a" -T "TITLE=%t" -T "ALBUM=%g" -T "DATE=%y" -T "TRACKNUMBER=%n" -T "TOTALTRACKS=%x" -T "GENRE=%m" -T "ALBUM ARTIST=%v" -T "ALBUMARTIST=%v" -T "COMMENT=EAC V0.99 prebeta 5, Secure Mode, Test & Copy, Accurat


TOC of the extracted CD

Track | Start | Length | Start sector | End sector
––––––––––––––––––––––––––––-
1 | 0:00.00 | 6:55.42 | 0 | 31166
2 | 6:55.42 | 3:29.15 | 31167 | 46856
3 | 10:24.57 | 4:02.58 | 46857 | 65064
4 | 14:27.40 | 6:17.70 | 65065 | 93409
5 | 20:45.35 | 3:10.00 | 93410 | 107659
6 | 23:55.35 | 21:33.40 | 107660 | 204674


Track 1

Filename C:\EACrips\01 - Chemistry.wav

Pre-gap length 0:00:02.00

Peak level 75.2 %
Track quality 100.0 %
Test CRC EC5F7052
Copy CRC EC5F7052
Accurately ripped (confidence 9) [E10184F5]
Copy OK

Track 2

Filename C:\EACrips\02 - Delta Rain Dream.wav

Peak level 97.7 %
Track quality 99.9 %
Test CRC 440DBE36
Copy CRC 440DBE36
Accurately ripped (confidence 9) [FB408804]
Copy OK

Track 3

Filename C:\EACrips\03 - Griot (over 'Contagious Magic').wav

Peak level 74.4 %
Track quality 100.0 %
Test CRC F9AD1ABD
Copy CRC F9AD1ABD
Accurately ripped (confidence 9) [FF2D1861]
Copy OK

Track 4

Filename C:\EACrips\04 - Ba-Benzele.wav

Peak level 36.2 %
Track quality 100.0 %
Test CRC 330518C4
Copy CRC 330518C4
Accurately ripped (confidence 9) [8798F20E]
Copy OK

Track 5

Filename C:\EACrips\05 - Rising Thermal 14 16' N; 32 28' E.wav

Pre-gap length 0:00:00.04

Peak level 18.9 %
Track quality 100.0 %
Test CRC A0AB1133
Copy CRC A0AB1133
Accurately ripped (confidence 9) [5ABC20E5]
Copy OK

Track 6

Filename C:\EACrips\06 - Charm (over 'Burundi Cloud').wav

Peak level 100.0 %
Track quality 100.0 %
Test CRC F9BC3BFF
Copy CRC F9BC3BFF
Accurately ripped (confidence 9) [BC9C62A7]
Copy OK


All tracks accurately ripped

No errors occurred

End of status report


Jon Hassell & Brian Eno - Fourth World, Vol. 1: Possible Musics (1980) {EG Records}

Jon Hassell & Brian Eno - Fourth World, Vol. 1: Possible Musics (1980) {EG Records}


All thanks goes to the original releaser!

Fripp & Eno - No Pussyfooting (1973) [2CD] {2008 Discipline Remaster Limited Edition}
Fripp & Eno - The Equatorial Stars (2004) {Opal}
Fripp & Eno - Evening Star (1975) {2008 Opal Remaster}
Fripp & Eno - Beyond Even 1992-2006 [2CD] (2007) {Opal Limited Edition}

Brian Eno - Apollo - Atmospheres & Soundtracks (1983) {2009 Virgin DSD Remaster}
Brian Eno - Discreet Music (1975) {2009 Virgin DSD Remaster}
Brian Eno - Ambient 1 Music For Airports (1978) {2009 Virgin DSD Remaster}
Brian Eno - Taking Tiger Mountain (By Strategy) (1974) {2009 Virgin DSD Remaster}

Fripp & Eno - Live In Paris 28.05.1975 [3CD BoxSet] (2014) {Opal}

Brian Eno - Another Green World (1975) {2009 Virgin DSD Remaster}
Brian Eno - Music For Films (1978) {2009 Virgin DSD Remaster}

Robert Fripp & Brian Eno - The Essential Fripp and Eno (1994) {Virgin}
Brian Eno & Peter Schwalm + Reiko Okano - Music for Onmyo-Ji (2000) [2CD] {Victor Entertainment Japan}

Brian Eno - Before And After Science (1977) {2004 Virgin DSD Remaster}
Brian Eno & Harold Budd - Ambient 2: The Plateaux Of Mirror (1980) {2009 Virgin DSD Remaster}
Brian Eno - Ambient 4: On Land (1982) {2009 Virgin DSD Remaster}
Brian Eno - Thursday Afternoon (1985) {2009 Virgin DSD Remaster}

Cluster and Eno - Cluster and Eno (1977) {Sky Records}

Brian Eno & Harold Budd - The Pearl (1984) {2009 Virgin DSD Remaster}
Brian Eno - More Music For Films (1976-83) {2009 Virgin DSD Remaster}

Cluster & Brian Eno - Old Land (1986) {Relativity Records}
Brian Eno & Jah Wobble - Spinner (1995) {All Saints Records}

Brian Eno - Neroli (1993) {All Saints Records}
Brian Eno - Nerve Net (1992) {Opal}
Brian Eno - The Drop (1997) {All Saints Records}

Brian Eno + David Byrne - My Life In The Bush Of Ghosts (1981) {2006 Nonesuch Remaster}

Brian Eno - Neroli (1993) [2CD] {2014 All Saints Records Deluxe Expanded Edition}
Brian Eno - The Drop (1997) [2CD] {2014 All Saints Records Deluxe Expanded Edition}
Brian Eno - Nerve Net (1992) [2CD] {2014 All Saints Records Deluxe Expanded Edition}
Brian Eno - The Shutov Assembly (1992) [2CD] {2014 All Saints Records Deluxe Expanded Edition}

Brian Eno - Another Day On Earth (2005) {Opal Japan Edition BRC-128}