Subcategories

Jon Hassell featuring Brian Eno - Fourth World Volume 2: Dream Theory In Malaya (1981) {EG Records EEGCD 13}

Posted By: ruskaval
Jon Hassell featuring Brian Eno - Fourth World Volume 2: Dream Theory In Malaya (1981) {EG Records EEGCD 13}

Jon Hassell featuring Brian Eno - Fourth World Volume 2: Dream Theory In Malaya (1981) {EG Records EEGCD 13}
EAC rip (secure mode) | FLAC (tracks)+CUE+LOG -> 173 Mb | MP3 @320 -> 87 Mb
Full Artwork @ 300 dpi (png) -> 12 Mb | 5% repair rar
© 1999 EG Records / Caroline | EEGCD 13
New Age / Avant-Garde / Electronic / Ambient / Ethnic Fusion / Experimental

Overwhelmingly interesting and extremely variant, Jon Hassell's Dream Theory in Malaya is rescued from the stereotypical new age recipe, thanks to its ever-changing instrumental structure and the use of numerous eccentric instruments that emerge as the album progresses. The album's concept is taken from an anthropologist's 1935 study of a tribe of Malaysian aborigines who made it part of their daily routine to discuss the dreams they had the night before. To this story line, Hassell has created a novel and extraordinary set of instrumental meanderings that even includes a refurbished and re-fragmented set of rhythms that was believed to be created by the Semelai tribe.

The mixture of bowl gongs, bells, and assorted drums captures the primeval spirit of the album, while Hassell's use of the trumpet on all of the tracks implements some of today's modern sound amongst the percussiveness. Brian Eno lends a hand on "Courage," "Dream Theory," and "These Times," playing drums and bells, while the entire album was spotlessly engineered by Daniel Lanois. Without coming off as an album that is restrained in clichéd patterns and tempos, Jon Hassell makes sure the instruments fluctuate and change time signatures on a steady basis, enabling added attention to be given to the culmination of the music as a whole.
Jon Hassell featuring Brian Eno - Fourth World Volume 2: Dream Theory In Malaya (1981) {EG Records EEGCD 13}


Personnel:
Jon Hassell – trumpet, pottery drums, Prophet 5, bowl gongs
Brian Eno – drums, bowl gongs & bells
Michael Brook – bass
Miguel Frasconi – bowl gongs
Walter DeMaria – distant drum

tracklist:
01 - Chor Moire
02 - Courage
03 - Dream Theory
04 - Datu Bintung At Jelong
05 - Malay
06 - These Times…
07 - Gift Of Fire

Exact Audio Copy V1.0 beta 3 from 29. August 2011

EAC extraction logfile from 19. November 2011, 21:03

Jon Hassell / Dream Theory In Malaya (Fourth World Volume 2)

Used drive : PLEXTOR DVDR PX-760A Adapter: 0 ID: 0

Read mode : Secure
Utilize accurate stream : Yes
Defeat audio cache : Yes
Make use of C2 pointers : No

Read offset correction : 30
Overread into Lead-In and Lead-Out : Yes
Fill up missing offset samples with silence : Yes
Delete leading and trailing silent blocks : No
Null samples used in CRC calculations : Yes
Used interface : Native Win32 interface for Win NT & 2000
Gap handling : Appended to previous track

Used output format : User Defined Encoder
Selected bitrate : 1024 kBit/s
Quality : High
Add ID3 tag : No
Command line compressor : C:\Program Files\Exact Audio Copy\Flac\flac.exe
Additional command line options : -8 -V -T "ARTIST=%artist%" -T "TITLE=%title%" -T "ALBUM=%albumtitle%" -T "DATE=%year%" -T "TRACKNUMBER=%tracknr%" -T "TOTALTRACKS=%numtracks%" -T "GENRE=%genre%" -T "ALBUMARTIST=%albumartist%" -T "ALBUM ARTIST=%albumartist%" %source%


TOC of the extracted CD

Track | Start | Length | Start sector | End sector
––––––––––––––––––––––––––––-
1 | 0:00.20 | 2:21.72 | 20 | 10666
2 | 2:22.17 | 3:38.73 | 10667 | 27089
3 | 6:01.15 | 5:15.27 | 27090 | 50741
4 | 11:16.42 | 7:08.15 | 50742 | 82856
5 | 18:24.57 | 10:08.68 | 82857 | 128524
6 | 28:33.50 | 2:53.17 | 128525 | 141516
7 | 31:26.67 | 5:02.03 | 141517 | 164169


Track 1

Filename h:\Jon Hassell - Dream Theory In Malaya (Fourth World Volume 2) (1981) [FLAC]\01 - Chor Moire.wav

Pre-gap length 0:00:02.20

Peak level 74.5 %
Extraction speed 2.0 X
Track quality 100.0 %
Test CRC AB20B33B
Copy CRC AB20B33B
Accurately ripped (confidence 2) [6A2DAD63] (AR v2)
Copy OK

Track 2

Filename h:\Jon Hassell - Dream Theory In Malaya (Fourth World Volume 2) (1981) [FLAC]\02 - Courage.wav

Pre-gap length 0:00:00.15

Peak level 80.7 %
Extraction speed 2.1 X
Track quality 100.0 %
Test CRC 51B9D99F
Copy CRC 51B9D99F
Accurately ripped (confidence 2) [B6CADB04] (AR v2)
Copy OK

Track 3

Filename h:\Jon Hassell - Dream Theory In Malaya (Fourth World Volume 2) (1981) [FLAC]\03 - Dream Theory.wav

Peak level 58.3 %
Extraction speed 1.7 X
Track quality 99.9 %
Test CRC 1D38DEB6
Copy CRC 1D38DEB6
Accurately ripped (confidence 2) [30C988E1] (AR v2)
Copy OK

Track 4

Filename h:\Jon Hassell - Dream Theory In Malaya (Fourth World Volume 2) (1981) [FLAC]\04 - Datu Bintung At Jelong.wav

Pre-gap length 0:00:01.67

Peak level 73.5 %
Extraction speed 2.3 X
Track quality 100.0 %
Test CRC 22ABDCC5
Copy CRC 22ABDCC5
Accurately ripped (confidence 2) [C56CF149] (AR v2)
Copy OK

Track 5

Filename h:\Jon Hassell - Dream Theory In Malaya (Fourth World Volume 2) (1981) [FLAC]\05 - Malay.wav

Pre-gap length 0:00:03.72

Peak level 66.4 %
Extraction speed 2.0 X
Track quality 99.9 %
Test CRC 34C789CB
Copy CRC 34C789CB
Accurately ripped (confidence 2) [5C66AE2F] (AR v2)
Copy OK

Track 6

Filename h:\Jon Hassell - Dream Theory In Malaya (Fourth World Volume 2) (1981) [FLAC]\06 - These Times….wav

Pre-gap length 0:00:06.48

Peak level 9.6 %
Extraction speed 2.0 X
Track quality 100.0 %
Test CRC 9A843171
Copy CRC 9A843171
Accurately ripped (confidence 2) [A1353C05] (AR v2)
Copy OK

Track 7

Filename h:\Jon Hassell - Dream Theory In Malaya (Fourth World Volume 2) (1981) [FLAC]\07 - Gift Of Fire.wav

Peak level 61.9 %
Extraction speed 2.4 X
Track quality 100.0 %
Test CRC 8E368018
Copy CRC 8E368018
Accurately ripped (confidence 2) [EED4AAA0] (AR v2)
Copy OK


All tracks accurately ripped

No errors occurred

End of status report

==== Log checksum A75EADA5E5E04BDFB6A852C6F6D5DE9C9A8689C6FB16144C132EB5479C1EFEE5 ====


Jon Hassell featuring Brian Eno - Fourth World Volume 2: Dream Theory In Malaya (1981) {EG Records EEGCD 13}

Jon Hassell featuring Brian Eno - Fourth World Volume 2: Dream Theory In Malaya (1981) {EG Records EEGCD 13}


Fripp & Eno - No Pussyfooting (1973) [2CD] {2008 Discipline Remaster Limited Edition}
Fripp & Eno - The Equatorial Stars (2004) {Opal}
Fripp & Eno - Evening Star (1975) {2008 Opal Remaster}
Fripp & Eno - Beyond Even 1992-2006 [2CD] (2007) {Opal Limited Edition}

Brian Eno - Apollo - Atmospheres & Soundtracks (1983) {2009 Virgin DSD Remaster}
Brian Eno - Discreet Music (1975) {2009 Virgin DSD Remaster}
Brian Eno - Ambient 1 Music For Airports (1978) {2009 Virgin DSD Remaster}
Brian Eno - Taking Tiger Mountain (By Strategy) (1974) {2009 Virgin DSD Remaster}

Fripp & Eno - Live In Paris 28.05.1975 [3CD BoxSet] (2014) {Opal}

Brian Eno - Another Green World (1975) {2009 Virgin DSD Remaster}
Brian Eno - Music For Films (1978) {2009 Virgin DSD Remaster}

Robert Fripp & Brian Eno - The Essential Fripp and Eno (1994) {Virgin}
Brian Eno & Peter Schwalm + Reiko Okano - Music for Onmyo-Ji (2000) [2CD] {Victor Entertainment Japan}

Brian Eno - Before And After Science (1977) {2004 Virgin DSD Remaster}
Brian Eno & Harold Budd - Ambient 2: The Plateaux Of Mirror (1980) {2009 Virgin DSD Remaster}
Brian Eno - Ambient 4: On Land (1982) {2009 Virgin DSD Remaster}
Brian Eno - Thursday Afternoon (1985) {2009 Virgin DSD Remaster}

Cluster and Eno - Cluster and Eno (1977) {Sky Records}

Brian Eno & Harold Budd - The Pearl (1984) {2009 Virgin DSD Remaster}
Brian Eno - More Music For Films (1976-83) {2009 Virgin DSD Remaster}

Cluster & Brian Eno - Old Land (1986) {Relativity Records}
Brian Eno & Jah Wobble - Spinner (1995) {All Saints Records}

Brian Eno - Neroli (1993) {All Saints Records}
Brian Eno - Nerve Net (1992) {Opal}
Brian Eno - The Drop (1997) {All Saints Records}

Brian Eno + David Byrne - My Life In The Bush Of Ghosts (1981) {2006 Nonesuch Remaster}

Brian Eno - Neroli (1993) [2CD] {2014 All Saints Records Deluxe Expanded Edition}
Brian Eno - The Drop (1997) [2CD] {2014 All Saints Records Deluxe Expanded Edition}
Brian Eno - Nerve Net (1992) [2CD] {2014 All Saints Records Deluxe Expanded Edition}
Brian Eno - The Shutov Assembly (1992) [2CD] {2014 All Saints Records Deluxe Expanded Edition}

Brian Eno - Another Day On Earth (2005) {Opal Japan Edition BRC-128}
Jon Hassell & Brian Eno - Fourth World, Vol. 1: Possible Musics (1980) {EG Records}
Brian Eno & Karl Hyde - High Life (2014) {Opal}