Tags
Language
Tags

Hawkwind - Out Of The Shadows (2004/2017)

Posted By:
Hawkwind - Out Of The Shadows (2004/2017)

Hawkwind - Out Of The Shadows (2004/2017)
EAC Rip | FLAC (tracks+log+.cue) - 336 Mb | MP3 CBR 320 kbps - 184 Mb | 01:19:24
Progressive Rock, Psychedelic Rock, Space Rock | Label: Secret Records

Recorded live at the Newcastle Opera House, December 4th, 2002, with the God of Hellfire himself, Arthur Brown on vocals! Features all your favourites: From the breathtaking pace of the late Robert Calvert's 'Aero Space Age Inferno' and Lemmy's 'The Watcher' to the Brock/Calvert mega-opus, 'Silver Machine'. their Top Three hit from 1972.
Tracklist:
1. Aero Space Age Inferno
2. Angels Of Death
3. Out Of The Shadows
4. Time Captives
5. Master Of The Universe
6. The Song Of The Gremlin
7. Time & Confusion
8. Hurry On Sundown
9. Lighthouse
10. The Watcher
11. Assassins Of Allah
12. Earth Calling
13. Sonic Space Attack
14. Silver Machine

Exact Audio Copy V1.6 from 23. October 2020

EAC extraction logfile from 15. September 2021, 1:53

Hawkwind / Out of the Shadows

Used drive : ASUS DRW-24D5MT Adapter: 1 ID: 1

Read mode : Secure
Utilize accurate stream : Yes
Defeat audio cache : Yes
Make use of C2 pointers : No

Read offset correction : 6
Overread into Lead-In and Lead-Out : No
Fill up missing offset samples with silence : Yes
Delete leading and trailing silent blocks : No
Null samples used in CRC calculations : Yes
Used interface : Native Win32 interface for Win NT & 2000
Gap handling : Appended to previous track

Used output format : User Defined Encoder
Selected bitrate : 896 kBit/s
Quality : High
Add ID3 tag : No
Command line compressor : C:\Program Files (x86)\Exact Audio Copy\FLAC\FLAC.EXE
Additional command line options : -6 -V -T "ARTIST=%artist%" -T "TITLE=%title%" -T "ALBUM=%albumtitle%" -T "DATE=%year%" -T "TRACKNUMBER=%tracknr%" -T "GENRE=%genre%" -T "COMMENT=%comment%" -T "BAND=%albuminterpret%" -T "ALBUMARTIST=%albuminterpret%" -T "COMPOSER=%composer%" %haslyrics%–tag-from-file=LYRICS="%lyricsfile%"%haslyrics% -T "DISCNUMBER=%cdnumber%" -T "TOTALDISCS=%totalcds%" -T "TOTALTRACKS=%numtracks%" %hascover%–picture="%coverfile%"%hascover% %source% -o %dest%


TOC of the extracted CD

Track | Start | Length | Start sector | End sector
––––––––––––––––––––––––––––-
1 | 0:00.00 | 8:48.59 | 0 | 39658
2 | 8:48.59 | 5:57.65 | 39659 | 66498
3 | 14:46.49 | 5:24.21 | 66499 | 90819
4 | 20:10.70 | 6:33.16 | 90820 | 120310
5 | 26:44.11 | 4:41.37 | 120311 | 141422
6 | 31:25.48 | 2:39.72 | 141423 | 153419
7 | 34:05.45 | 6:10.34 | 153420 | 181203
8 | 40:16.04 | 3:58.61 | 181204 | 199114
9 | 44:14.65 | 6:57.37 | 199115 | 230426
10 | 51:12.27 | 5:14.41 | 230427 | 254017
11 | 56:26.68 | 7:40.05 | 254018 | 288522
12 | 64:06.73 | 5:09.66 | 288523 | 311763
13 | 69:16.64 | 5:50.50 | 311764 | 338063
14 | 75:07.39 | 4:16.49 | 338064 | 357312


Track 1

Filename F:\Losless\New Rips\Hawkwind - 2004 - Out Of The Shadows (2017, Secret Records - SECDP157, CD)\01. Aero Space Age Inferno.wav

Pre-gap length 0:00:02.00

Peak level 96.6 %
Extraction speed 5.3 X
Track quality 100.0 %
Test CRC 9CF94B09
Copy CRC 9CF94B09
Accurately ripped (confidence 2) [D332F682] (AR v2)
Copy OK

Track 2

Filename F:\Losless\New Rips\Hawkwind - 2004 - Out Of The Shadows (2017, Secret Records - SECDP157, CD)\02. Angels of Death.wav

Peak level 96.6 %
Extraction speed 5.3 X
Track quality 99.9 %
Test CRC 69A3C8B4
Copy CRC 69A3C8B4
Accurately ripped (confidence 2) [E29B180A] (AR v2)
Copy OK

Track 3

Filename F:\Losless\New Rips\Hawkwind - 2004 - Out Of The Shadows (2017, Secret Records - SECDP157, CD)\03. Out of the Shadows.wav

Peak level 96.6 %
Extraction speed 6.3 X
Track quality 100.0 %
Test CRC 3CBBCE5B
Copy CRC 3CBBCE5B
Accurately ripped (confidence 2) [D158DB16] (AR v2)
Copy OK

Track 4

Filename F:\Losless\New Rips\Hawkwind - 2004 - Out Of The Shadows (2017, Secret Records - SECDP157, CD)\04. Time Captives.wav

Peak level 96.6 %
Extraction speed 6.8 X
Track quality 100.0 %
Test CRC 67491893
Copy CRC 67491893
Accurately ripped (confidence 2) [0AE585E5] (AR v2)
Copy OK

Track 5

Filename F:\Losless\New Rips\Hawkwind - 2004 - Out Of The Shadows (2017, Secret Records - SECDP157, CD)\05. Master of the Universe.wav

Peak level 96.6 %
Extraction speed 6.4 X
Track quality 99.9 %
Test CRC 78CF5AD8
Copy CRC 78CF5AD8
Accurately ripped (confidence 2) [6D2C8527] (AR v2)
Copy OK

Track 6

Filename F:\Losless\New Rips\Hawkwind - 2004 - Out Of The Shadows (2017, Secret Records - SECDP157, CD)\06. The Song of the Gremlins.wav

Peak level 96.6 %
Extraction speed 6.7 X
Track quality 100.0 %
Test CRC 7695EB6B
Copy CRC 7695EB6B
Accurately ripped (confidence 2) [76ABB433] (AR v2)
Copy OK

Track 7

Filename F:\Losless\New Rips\Hawkwind - 2004 - Out Of The Shadows (2017, Secret Records - SECDP157, CD)\07. Time & Confusion.wav

Peak level 96.6 %
Extraction speed 7.5 X
Track quality 100.0 %
Test CRC CA787C26
Copy CRC CA787C26
Accurately ripped (confidence 2) [C01A11EF] (AR v2)
Copy OK

Track 8

Filename F:\Losless\New Rips\Hawkwind - 2004 - Out Of The Shadows (2017, Secret Records - SECDP157, CD)\08. Hurry on Sundown.wav

Peak level 96.6 %
Extraction speed 7.7 X
Track quality 100.0 %
Test CRC EB9D0763
Copy CRC EB9D0763
Accurately ripped (confidence 2) [0F0D1C5F] (AR v2)
Copy OK

Track 9

Filename F:\Losless\New Rips\Hawkwind - 2004 - Out Of The Shadows (2017, Secret Records - SECDP157, CD)\09. Lighthouse.wav

Peak level 96.6 %
Extraction speed 8.2 X
Track quality 100.0 %
Test CRC 57ED72FA
Copy CRC 57ED72FA
Accurately ripped (confidence 2) [0C4647E6] (AR v2)
Copy OK

Track 10

Filename F:\Losless\New Rips\Hawkwind - 2004 - Out Of The Shadows (2017, Secret Records - SECDP157, CD)\10. Watcher.wav

Peak level 96.5 %
Extraction speed 8.0 X
Track quality 100.0 %
Test CRC 1064DD43
Copy CRC 1064DD43
Accurately ripped (confidence 2) [D8ACFD70] (AR v2)
Copy OK

Track 11

Filename F:\Losless\New Rips\Hawkwind - 2004 - Out Of The Shadows (2017, Secret Records - SECDP157, CD)\11. Assassins of Allah.wav

Peak level 96.6 %
Extraction speed 8.4 X
Track quality 100.0 %
Test CRC 86341B06
Copy CRC 86341B06
Accurately ripped (confidence 2) [68799741] (AR v2)
Copy OK

Track 12

Filename F:\Losless\New Rips\Hawkwind - 2004 - Out Of The Shadows (2017, Secret Records - SECDP157, CD)\12. Earth Calling.wav

Pre-gap length 0:00:00.01

Peak level 96.6 %
Extraction speed 8.3 X
Track quality 100.0 %
Test CRC F1083C08
Copy CRC F1083C08
Accurately ripped (confidence 2) [C8C47070] (AR v2)
Copy OK

Track 13

Filename F:\Losless\New Rips\Hawkwind - 2004 - Out Of The Shadows (2017, Secret Records - SECDP157, CD)\13. Sonic Space Attack.wav

Peak level 96.6 %
Extraction speed 8.9 X
Track quality 100.0 %
Test CRC BA9A879D
Copy CRC BA9A879D
Accurately ripped (confidence 2) [EAC1EF39] (AR v2)
Copy OK

Track 14

Filename F:\Losless\New Rips\Hawkwind - 2004 - Out Of The Shadows (2017, Secret Records - SECDP157, CD)\14. Silver Machine.wav

Peak level 96.6 %
Extraction speed 7.9 X
Track quality 99.9 %
Test CRC 4AA93853
Copy CRC 4AA93853
Accurately ripped (confidence 2) [88F3328B] (AR v2)
Copy OK


All tracks accurately ripped

No errors occurred

End of status report

–– AcoustID Plugin V1.2.0

Total fingerprints: 14


–– CUETools DB Plugin V2.1.6

[CTDB TOCID: 660nh7Q_lY4E7gV5tQdstfnoOKs-] found
Submit result: 660nh7Q_lY4E7gV5tQdstfnoOKs- has been confirmed
Track | CTDB Status
1 | (13/14) Accurately ripped
2 | (14/14) Accurately ripped
3 | (13/14) Accurately ripped
4 | (14/14) Accurately ripped
5 | (14/14) Accurately ripped
6 | (14/14) Accurately ripped
7 | (14/14) Accurately ripped
8 | (14/14) Accurately ripped
9 | (14/14) Accurately ripped
10 | (14/14) Accurately ripped
11 | (14/14) Accurately ripped
12 | (14/14) Accurately ripped
13 | (14/14) Accurately ripped
14 | (14/14) Accurately ripped


==== Log checksum F38C166ABE407FDEA3E59148DB91022E83BAC44D91254B3F7A71507ED710C152 ====

Thanks to the Original ripper !