Subcategories

i-Ten - Taking A Cold Look (1983) [2008, Remastered & Reloaded Reissue]

Posted By: BlondStyle
i-Ten - Taking A Cold Look (1983) [2008, Remastered & Reloaded Reissue]

i-Ten - Taking A Cold Look (1983) [2008, Remastered & Reloaded Reissue]
Pop/Rock, Album Rock, Westcoast/AOR | EAC Rip | FLAC, Img+CUE+LOG+Scans (JPEG) | 38:20 | 286,25 Mb
Label: Rock Candy Records Ltd. (UK) | Cat.# CANDY046 | Released: 2008-12-22 (1983)

Originally released in 1983, this album was recorded in between the 2 Toto albums "IV" and "Isolation", and includes most of the Toto band members, plus almost all the best studioperformers of L.A. at the time (Tom Kelly, Billy Steinberg a.m.o). The songs are well written and powerfully recorded. The 2 best known songs are the title track "Taking A Cold Look" and "Alone". The last one was also released some years later by the band Heart, but I personally like this original version better. If you like the mid-80's AOR/Westcoast sound, this album is a MUST, and the sooner you buy it, the better - for you!
i-Ten - Taking A Cold Look (1983) [2008, Remastered & Reloaded Reissue]

i-Ten - Taking A Cold Look (1983) [2008, Remastered & Reloaded Reissue]




Release of this album: 1983 [LP Epic, Cat.# BFE 38602, USA]
Release of this CD: 2009, December, 22 [Rock Candy Records Ltd. (UK), Cat.# CANDY046 / UPC: 827565045822]
℗© 2009 Rock Candy Records Ltd.
Issued under license from Sony BMG Music Entertainment (UK) Ltd.
Made in the UK

Notes: Collector's Edition - Remastered & Reloaded.

Credits:

Backing Vocals – Richard Page
Bass – Dennis Belfield
Drums – Mike Baird
Guitar – Steve Lukather
Keyboards – Alan Pasqua, David Paich, Peggy Sandvig, Steve Porcaro
Mastered By – Greg Fulginiti
Percussion – Lenny Castro
Producer – Keith Olsen, Steve Lukather
Vocals, Guitar – Billy Steinberg
Vocals, Guitar, Keyboards – Tom Kelly


Tracklist:

01. Taking A Cold Look (03:55)
(Tom Kelly, Billy Steinberg)
02. Quicksand (03:58)
(Tom Kelly, Billy Steinberg)
03. Alone (03:58)
(Tom Kelly, Billy Steinberg)
04. Workin' For A Lovin' (03:19)
(Tom Kelly, Billy Steinberg)
05. Lonely In Each Other's Arms (04:57)
(Tom Kelly, Billy Steinberg)
06. I Don't Want To Lose You (03:15)
(Tom Kelly, Billy Steinberg)
07. Time To Say Goodbye (04:02)
(Tom Kelly, Billy Steinberg)
08. The Easy Way Out (03:30)
(Tom Kelly, Billy Steinberg)
09. I've Been Crying (03:43)
(Tom Kelly, Steve Lukather, Alan Pasqua, Billy Steinberg)
10. Pressing My Luck (03:39)
(Tom Kelly, Billy Steinberg)

Exact Audio Copy V0.99 prebeta 5 from 4. May 2009

Archivo Log de extracciones desde 29. Enero 2010, 18:41

i-TEN / taking a cold look

Usar unidad : PIONEER DVD-RW DVR-116D Adapter: 0 ID: 1

Modo de Lectura : Seguro
Utilizar Corriente Exacta : Sн
Descartar Audio cachй : Sн
Utilizar los punteros C2 : No

Correcciуn de Desplazamiento de Lectura : 96
Sobreleer tanto en Lead-In como en Lead-Out : No
Rellenar las muestras faltantes con silencios : Sн
Eliminar silencios inicial y final : No
Se han usado muestras nulas en los cбlculos CRC : Sн
Interfaz usada : Interfaz propio de Win32 para Windowns NT y 2000

Formato de Salida utilizado : Compresor sin pйrdida Monkey's Audio
Bitrate seleccionado : High Lossless Compression
Calidad : Alta
Aсadir Etiqueta ID3 : Sн
Compresor de linea de comandos : C:\Archivos de programa\Monkey's Audio\MAC.exe


TOC del CD extraido

Pista | Inicio | Duraciуn | Sector inicial | Sector final
––––––––––––––––––––––––––––––-
1 | 0:00.00 | 3:55.58 | 0 | 17682
2 | 3:55.58 | 3:58.48 | 17683 | 35580
3 | 7:54.31 | 3:58.08 | 35581 | 53438
4 | 11:52.39 | 3:19.54 | 53439 | 68417
5 | 15:12.18 | 4:57.40 | 68418 | 90732
6 | 20:09.58 | 3:15.06 | 90733 | 105363
7 | 23:24.64 | 4:02.03 | 105364 | 123516
8 | 27:26.67 | 3:30.28 | 123517 | 139294
9 | 30:57.20 | 3:43.41 | 139295 | 156060
10 | 34:40.61 | 3:39.57 | 156061 | 172542


Gama de estados y errores

Seleccionar gama

Nombre de Archivo E:\Downloading\i-TEN - taking a cold look.wav

Nivel Pico 99.6 %
Gama de Calidad 99.9 %
Copiar CRC 3AC8EC5D
Copia OK

Sin Errores


Resumen AccurateRip

Pista 1 extraido de modo preciso (nivel de confianza 1) [AE8C423E]
Pista 2 no se puede verificar como preciso (confianza 1) [721185A1], AccurateRip devuelto [3F59CE57]
Pista 3 extraido de modo preciso (nivel de confianza 1) [40D5AFAC]
Pista 4 extraido de modo preciso (nivel de confianza 1) [2B768A14]
Pista 5 extraido de modo preciso (nivel de confianza 1) [0E164AEB]
Pista 6 extraido de modo preciso (nivel de confianza 1) [EBE3E634]
Pista 7 extraido de modo preciso (nivel de confianza 1) [566EC514]
Pista 8 extraido de modo preciso (nivel de confianza 1) [4149DBED]
Pista 9 extraido de modo preciso (nivel de confianza 1) [71CE873F]
Pista 10 extraido de modo preciso (nivel de confianza 1) [F65798A3]

9 pista(s) extraidas de modo preciso
1 pista(s) no verificadas correctamente

Algunas de las pistas no se han podido verificar como precisas

Final del Informe

––––––––––––––––––––––––––––––––––––––––
Analyzed: i-TEN / taking a cold look
––––––––––––––––––––––––––––––––––––––––

DR Peak RMS Duration Track
––––––––––––––––––––––––––––––––––––––––
DR7 -0.03 dB -9.60 dB 3:56 01-Taking A Cold Look
DR7 -0.03 dB -9.34 dB 3:59 02-Quicksand
DR7 -0.03 dB -9.69 dB 3:58 03-Alone
DR7 -0.03 dB -9.15 dB 3:20 04-Workin' For A Lovin'
DR8 -0.03 dB -9.85 dB 4:58 05-Lonely In Each Otherґs Arms
DR7 -0.03 dB -8.23 dB 3:15 06-I Donґt Want To Lose You
DR7 -0.03 dB -10.35 dB 4:02 07-Time To Say Goodbye
DR8 -0.03 dB -9.15 dB 3:30 08-The Easy Way Out
DR7 -0.03 dB -9.06 dB 3:44 09-I`ve Been Crying
DR7 -0.03 dB -9.22 dB 3:40 10-Pressing My Luck
––––––––––––––––––––––––––––––––––––––––

Number of tracks: 10
Official DR value: DR7

Samplerate: 44100 Hz
Channels: 2
Bits per sample: 16
Bitrate: 960 kbps
Codec: FLAC
================================================================================

Thanks to original releaser

♫~Welcome To My Blog~♫

password: BlondStyle