Tags
Language
Tags

Jaga Jazzist - Pyramid (2020)

Posted By: delpotro
Jaga Jazzist - Pyramid (2020)

Jaga Jazzist - Pyramid (2020)
EAC Rip | FLAC (tracks+log+.cue) - 237 Mb | MP3 CBR 320 kbps - 92 Mb | 00:39:10
Contemporary Jazz, Jazz Rock, Electronic | Label: Brainfeeder

Jaga Jazzist return with their new album Pyramid, where the legendary Norwegian eight-piece takes a deep dive into post-rock, jazz and psychedelia influences. It’s their first album since 2015’s Starfire, their ninth album in a career now spanning four decades, but it marks the group’s debut on Brainfeeder, the LA-based imprint curated by Flying Lotus. On Pyramid, Jaga Jazzist have crafted a suitably cosmic sound to match their new label home, all the while nodding to forebears spanning from 80s jazz band Out To Lunch and Norwegian synth guru Ståle Storløkken, to contemporaries Tame Impala, Todd Terje and Jon Hopkins. Each of the album’s four longform entries evolves over carefully plotted movements, the tracks’ technicolour threads dreamily unspooling.
Tracklist:
1. Tomita (13:46)
2. Spiral Era (08:08)
3. The Shrine (09:06)
4. Apex (08:08)

Exact Audio Copy V1.3 from 2. September 2016

EAC extraction logfile from 19. August 2020, 14:06

Jaga Jazzist / Pyramid

Used drive : HL-DT-STBD-RE BH16NS55 Adapter: 1 ID: 1

Read mode : Secure
Utilize accurate stream : Yes
Defeat audio cache : Yes
Make use of C2 pointers : No

Read offset correction : 6
Overread into Lead-In and Lead-Out : No
Fill up missing offset samples with silence : Yes
Delete leading and trailing silent blocks : No
Null samples used in CRC calculations : Yes
Used interface : Native Win32 interface for Win NT & 2000
Gap handling : Appended to previous track

Used output format : User Defined Encoder
Selected bitrate : 128 kBit/s
Quality : High
Add ID3 tag : No
Command line compressor : C:\Program Files (x86)\Exact Audio Copy\Flac\flac.exe
Additional command line options : -8 -V -T "ARTIST=%artist%" -T "TITLE=%title%" -T "ALBUM=%albumtitle%" -T "DATE=%year%" -T "TRACKNUMBER=%tracknr%" -T "GENRE=%genre%" -T "PERFORMER=%albuminterpret%" -T "COMPOSER=%composer%" %haslyrics%–tag-from-file=LYRICS="%lyricsfile%"%haslyrics% -T "ALBUMARTIST=%albumartist%" -T "DISCNUMBER=%cdnumber%" -T "TOTALDISCS=%totalcds%" -T "TOTALTRACKS=%numtracks%" -T "COMMENT=%comment%" %source% -o %dest%


TOC of the extracted CD

Track | Start | Length | Start sector | End sector
––––––––––––––––––––––––––––-
1 | 0:00.00 | 13:46.55 | 0 | 62004
2 | 13:46.55 | 8:08.68 | 62005 | 98672
3 | 21:55.48 | 9:06.35 | 98673 | 139657
4 | 31:02.08 | 8:08.59 | 139658 | 176316


Track 1

Filename C:\rip\01 - Tomita.wav

Pre-gap length 0:00:02.00

Peak level 100.0 %
Extraction speed 5.5 X
Track quality 100.0 %
Test CRC 06AAD1B1
Copy CRC 06AAD1B1
Accurately ripped (confidence 1) [05CCE530] (AR v2)
Copy OK

Track 2

Filename C:\rip\02 - Spiral Era.wav

Peak level 97.8 %
Extraction speed 6.6 X
Track quality 100.0 %
Test CRC B8F74CEE
Copy CRC B8F74CEE
Accurately ripped (confidence 1) [67261D1E] (AR v2)
Copy OK

Track 3

Filename C:\rip\03 - The Shrine.wav

Peak level 100.0 %
Extraction speed 6.7 X
Track quality 99.9 %
Test CRC 65235340
Copy CRC 65235340
Cannot be verified as accurate (confidence 1) [B2E7AA96], AccurateRip returned [84EF1D1E] (AR v2)
Copy OK

Track 4

Filename C:\rip\04 - Apex.wav

Peak level 98.3 %
Extraction speed 8.0 X
Track quality 100.0 %
Test CRC B9E5A13B
Copy CRC B9E5A13B
Cannot be verified as accurate (confidence 1) [00BD0C27], AccurateRip returned [259E1F42] (AR v2)
Copy OK


2 track(s) accurately ripped
2 track(s) could not be verified as accurate

Some tracks could not be verified as accurate

No errors occurred

End of status report

–– CUETools DB Plugin V2.1.6

[CTDB TOCID: AIkRrlaPVcvDetMygpwWz9AFtQk-] found
Submit result: AIkRrlaPVcvDetMygpwWz9AFtQk- has been confirmed
Track | CTDB Status
1 | (7/7) Accurately ripped
2 | (7/7) Accurately ripped
3 | (6/7) Accurately ripped
4 | (6/7) Accurately ripped


==== Log checksum A060D6C280A60911512803A15D438170373D681854480E640D437E0F5C80B746 ====

Thanks to the Original ripper !