Tags
Language
Tags

James - All The Colours Of You (2021)

Posted By: delpotro
James - All The Colours Of You (2021)

James - All The Colours Of You (2021)
XLD Rip | FLAC (tracks+log+.cue) - 311 Mb | MP3 CBR 320 kbps - 131 Mb | 00:49:11
Indie Pop | Label: Virgin Music Label & Artist Services

James will release their 16th studio album All The Colours Of You via Missing Piece Records. The new full-length was produced by Grammy award-winning Jacknife Lee (Taylor Swift, U2, REM, Snow Patrol, The Killers), who brought a fresh approach to James' sound and captured the band in all their glory. All The Colours of You features the most arena-ready tracks of James' 38-year career, the sound of one of Britain’s best bands, deconstructed and reassembled by one of the world’s most renowned producers.
Tracklist:
1. ZERO (05:42)
2. All The Colours Of You (05:26)
3. Recover (03:44)
4. Beautiful Beaches (05:14)
5. Wherever It Takes Us (05:05)
6. Hush (04:23)
7. Miss America (04:02)
8. Getting Myself Into (03:27)
9. Magic Bus (03:01)
10. Isabella (04:23)
11. XYST (04:37)

X Lossless Decoder version 20210101 (153.1)

XLD extraction logfile from 2021-06-09 08:13:45 +0100

James / All The Colours Of You

Used drive : TSSTcorp BDDVDW SE-506AB (revision TS01)
Media type : Pressed CD

Ripper mode : XLD Secure Ripper
Disable audio cache : OK for the drive with a cache less than 1375KiB
Make use of C2 pointers : NO
Read offset correction : 6
Max retry count : 20
Gap status : Analyzed, Appended (except HTOA)

TOC of the extracted CD
Track | Start | Length | Start sector | End sector
––––––––––––––––––––––––––––-
1 | 00:00:00 | 05:43:32 | 0 | 25756
2 | 05:43:32 | 05:26:04 | 25757 | 50210
3 | 11:09:36 | 03:44:01 | 50211 | 67011
4 | 14:53:37 | 05:14:28 | 67012 | 90589
5 | 20:07:65 | 05:05:44 | 90590 | 113508
6 | 25:13:34 | 04:23:72 | 113509 | 133305
7 | 29:37:31 | 04:02:24 | 133306 | 151479
8 | 33:39:55 | 03:27:60 | 151480 | 167064
9 | 37:07:40 | 03:01:33 | 167065 | 180672
10 | 40:08:73 | 04:23:07 | 180673 | 200404
11 | 44:32:05 | 04:39:04 | 200405 | 221333

AccurateRip Summary (DiscID: 001561fe-00b5e258-900b870b)
Track 01 : OK (v2, confidence 1/1)
Track 02 : OK (v2, confidence 1/1)
Track 03 : OK (v2, confidence 1/1)
Track 04 : OK (v2, confidence 1/1)
Track 05 : OK (v2, confidence 1/1)
Track 06 : OK (v2, confidence 1/1)
Track 07 : OK (v2, confidence 1/1)
Track 08 : OK (v2, confidence 1/1)
Track 09 : OK (v2, confidence 1/1)
Track 10 : OK (v2, confidence 1/1)
Track 11 : OK (v2, confidence 1/1)
->All tracks accurately ripped.

All Tracks
Album gain : -9.72 dB
Peak : 0.989471
Statistics
Read error : 0
Jitter error (maybe fixed) : 0
Retry sector count : 0
Damaged sector count : 0

Track 01
Filename : /Volumes/T5/James - All The Colours Of You (2021) [FLAC]/01 ZERO.flac
Pre-gap length : 00:02:00

Track gain : -9.10 dB
Peak : 0.911102
CRC32 hash (test run) : 3CC2914E
CRC32 hash : 3CC2914E
CRC32 hash (skip zero) : 5EE8133D
AccurateRip v1 signature : 486AF71C
AccurateRip v2 signature : 3C9E738F
->Accurately ripped (v2, confidence 1/1)
Statistics
Read error : 0
Jitter error (maybe fixed) : 0
Retry sector count : 0
Damaged sector count : 0

Track 02
Filename : /Volumes/T5/James - All The Colours Of You (2021) [FLAC]/02 All The Colours Of You.flac

Track gain : -11.56 dB
Peak : 0.911133
CRC32 hash (test run) : 3DB53EDF
CRC32 hash : 3DB53EDF
CRC32 hash (skip zero) : 28EAC6FB
AccurateRip v1 signature : 417B3C96
AccurateRip v2 signature : 941B6F24
->Accurately ripped (v2, confidence 1/1)
Statistics
Read error : 0
Jitter error (maybe fixed) : 0
Retry sector count : 0
Damaged sector count : 0

Track 03
Filename : /Volumes/T5/James - All The Colours Of You (2021) [FLAC]/03 Recover.flac

Track gain : -7.70 dB
Peak : 0.911926
CRC32 hash (test run) : EC634547
CRC32 hash : EC634547
CRC32 hash (skip zero) : E096EAB1
AccurateRip v1 signature : A7771D24
AccurateRip v2 signature : 1453C26E
->Accurately ripped (v2, confidence 1/1)
Statistics
Read error : 0
Jitter error (maybe fixed) : 0
Retry sector count : 0
Damaged sector count : 0

Track 04
Filename : /Volumes/T5/James - All The Colours Of You (2021) [FLAC]/04 Beautiful Beaches.flac

Track gain : -9.81 dB
Peak : 0.910889
CRC32 hash (test run) : CACB7509
CRC32 hash : CACB7509
CRC32 hash (skip zero) : D7934EDA
AccurateRip v1 signature : 9B5E71BC
AccurateRip v2 signature : 9959DA06
->Accurately ripped (v2, confidence 1/1)
Statistics
Read error : 0
Jitter error (maybe fixed) : 0
Retry sector count : 0
Damaged sector count : 0

Track 05
Filename : /Volumes/T5/James - All The Colours Of You (2021) [FLAC]/05 Wherever It Takes .flac

Track gain : -10.16 dB
Peak : 0.910461
CRC32 hash (test run) : 9BE2E823
CRC32 hash : 9BE2E823
CRC32 hash (skip zero) : 3409E590
AccurateRip v1 signature : BC9D302E
AccurateRip v2 signature : B4C6A112
->Accurately ripped (v2, confidence 1/1)
Statistics
Read error : 0
Jitter error (maybe fixed) : 0
Retry sector count : 0
Damaged sector count : 0

Track 06
Filename : /Volumes/T5/James - All The Colours Of You (2021) [FLAC]/06 Hush.flac

Track gain : -7.34 dB
Peak : 0.910248
CRC32 hash (test run) : C0E1E3E1
CRC32 hash : C0E1E3E1
CRC32 hash (skip zero) : 1B0A6D23
AccurateRip v1 signature : 6866F2A3
AccurateRip v2 signature : 8C5C195A
->Accurately ripped (v2, confidence 1/1)
Statistics
Read error : 0
Jitter error (maybe fixed) : 0
Retry sector count : 0
Damaged sector count : 0

Track 07
Filename : /Volumes/T5/James - All The Colours Of You (2021) [FLAC]/07 Miss America.flac

Track gain : -5.79 dB
Peak : 0.910034
CRC32 hash (test run) : 63335139
CRC32 hash : 63335139
CRC32 hash (skip zero) : EBB70C40
AccurateRip v1 signature : D8A45BD5
AccurateRip v2 signature : D99D456D
->Accurately ripped (v2, confidence 1/1)
Statistics
Read error : 0
Jitter error (maybe fixed) : 0
Retry sector count : 0
Damaged sector count : 0

Track 08
Filename : /Volumes/T5/James - All The Colours Of You (2021) [FLAC]/08 Getting Myself Into.flac

Track gain : -9.38 dB
Peak : 0.910553
CRC32 hash (test run) : C63F91C1
CRC32 hash : C63F91C1
CRC32 hash (skip zero) : 74A2BCB0
AccurateRip v1 signature : 3B4EE12E
AccurateRip v2 signature : 6B7EE066
->Accurately ripped (v2, confidence 1/1)
Statistics
Read error : 0
Jitter error (maybe fixed) : 0
Retry sector count : 0
Damaged sector count : 0

Track 09
Filename : /Volumes/T5/James - All The Colours Of You (2021) [FLAC]/09 Magic Bus.flac

Track gain : -10.01 dB
Peak : 0.910431
CRC32 hash (test run) : 2E8BC542
CRC32 hash : 2E8BC542
CRC32 hash (skip zero) : F7B23EE5
AccurateRip v1 signature : F1DFD309
AccurateRip v2 signature : A750B505
->Accurately ripped (v2, confidence 1/1)
Statistics
Read error : 0
Jitter error (maybe fixed) : 0
Retry sector count : 0
Damaged sector count : 0

Track 10
Filename : /Volumes/T5/James - All The Colours Of You (2021) [FLAC]/10 Isabella.flac

Track gain : -11.28 dB
Peak : 0.989471
CRC32 hash (test run) : 108D0EC4
CRC32 hash : 108D0EC4
CRC32 hash (skip zero) : 8EFEF3D2
AccurateRip v1 signature : B2F66C46
AccurateRip v2 signature : 17B39A02
->Accurately ripped (v2, confidence 1/1)
Statistics
Read error : 0
Jitter error (maybe fixed) : 0
Retry sector count : 0
Damaged sector count : 0

Track 11
Filename : /Volumes/T5/James - All The Colours Of You (2021) [FLAC]/11 XYST.flac

Track gain : -9.59 dB
Peak : 0.911377
CRC32 hash (test run) : F6E47040
CRC32 hash : F6E47040
CRC32 hash (skip zero) : FCCDD4E6
AccurateRip v1 signature : DF93AF95
AccurateRip v2 signature : D4DB13DF
->Accurately ripped (v2, confidence 1/1)
Statistics
Read error : 0
Jitter error (maybe fixed) : 0
Retry sector count : 0
Damaged sector count : 0

No errors occurred

End of status report

––-BEGIN XLD SIGNATURE––-
cHs50KpB14.FDnRO.hqtj9lvFTXnzY11NwNas635IeGLK0osqazLyyxgQpnvigYmOANSVbwQvTJ67CKyymm03pX0c.tUTfgGRxAh_Iq
––-END XLD SIGNATURE––-

Thanks to the Original ripper !