Tags
Language
Tags

Jimi Hendrix Experience - Paris 67 (Record Store Day 2021 Vinyl) (2021)

Posted By: delpotro
Jimi Hendrix Experience - Paris 67 (Record Store Day 2021 Vinyl) (2021)

Jimi Hendrix Experience - Paris 67 (Record Store Day 2021 Vinyl) (2021)
Vinyl Rip | FLAC (tracks) - 292 Mb | MP3 CBR 320 kbps - 139 Mb | Artwork included | 00:46:46
Blues Rock, Acid Rock, Psychedelic Rock | Label: Dagger Records

Another amazing release from the official Jimi Hendrix “bootleg label” Dagger Records, this raw, direct to two-track, live recording from the Olympia Theatre in Paris was captured for French national radio and documents the Experience’s triumphant return to France almost one year from the date of their 1966 debut. Recorded on October 9, 1967, The Experience were in top form, roaring out of the gate with “Stone Free,” and following with vibrant renditions of “Hey Joe,” “Fire,” “The Wind Cries Mary” and “Catfish Blues.” “Rock Me Baby” and a compact “Red House” prefaced a grinding, muscular take of “Purple Haze,” followed by “Wild Thing,” replete with a rousing, tongue-in-cheek lead vocal that emphatically closed the show. Released for RSD Black Friday on red and blue mixed vinyl.
Tracklist:
A1 – Stone Free (03:40)
A2 – Hey Joe (04:22)
A3 – Fire (03:29)
A4 – Catfish Blues (05:26)
A5 – The Wind Cries Mary (04:11)
B1 – Rock Me Baby (05:03)
B2 – Red House (07:49)
B3 – Purple Haze (07:26)
B4 – Wild Thing (05:56)

–––––––––––-

DON'T MODIFY THIS FILE

–––––––––––-

PERFORMER: auCDtect Task Manager, ver. 1.6.0 RC1 build 1.6.0.1
Copyright © 2008-2010 y-soft. All rights reserved

ANALYZER: auCDtect: CD records authenticity detector, version 0.8.2
Copyright © 2004 Oleg Berngardt. All rights reserved.
Copyright © 2004 Alexander Djourik. All rights reserved.


FILE: 09 - Jimi Hendrix Experience - Wild Thing.flac
Size: 35215555 Hash: 3075E323166C4C6C3843E60F38C00E0F Accuracy: -m8
Conclusion: CDDA 100%
Signature: ACB59CE24DECCC1EFCDFA3127F9EEA8E06F23F06
FILE: 08 - Jimi Hendrix Experience - Purple Haze.flac
Size: 37655672 Hash: DB0305A77E1E38FF178659214CF261D7 Accuracy: -m8
Conclusion: CDDA 100%
Signature: FA741BF59F6017C0FC00893B2DD959CFA57AA68C
FILE: 07 - Jimi Hendrix Experience - Red House.flac
Size: 43894924 Hash: C830C3D4E957C2779474C66CD35E4E87 Accuracy: -m8
Conclusion: CDDA 100%
Signature: FCBFA3D4C6B24C19CFABB5B893BA9C4CF10864C4
FILE: 06 - Jimi Hendrix Experience - Rock Me Baby.flac
Size: 28743489 Hash: 08D7EE6DFFD04D589B2171DC8E27BB61 Accuracy: -m8
Conclusion: CDDA 100%
Signature: 7CB2C0A2082A9781B4D9C02067133ADDEAD108B7
FILE: 05 - Jimi Hendrix Experience - The Wind Cries Mary.flac
Size: 18327088 Hash: BCDEC82C09DDFC61BAA1A8079EF3FCE2 Accuracy: -m8
Conclusion: CDDA 100%
Signature: ECBDF32630B6DFE7C6DCAB7DCDA6D0C9724553FA
FILE: 04 - Jimi Hendrix Experience - Catfish Blues.flac
Size: 35747888 Hash: AFE54D78EBFA18F2BF22C0BA6C829A0E Accuracy: -m8
Conclusion: CDDA 100%
Signature: E37F50144FF4B420983F64495F844B7B624FF5BA
FILE: 03 - Jimi Hendrix Experience - Fire.flac
Size: 21356749 Hash: 89AFDA56D0256E0A6D9DC92E92EB095E Accuracy: -m8
Conclusion: CDDA 100%
Signature: EF173E2704CC198DE21595E77C2C465956678CA3
FILE: 02 - Jimi Hendrix Experience - Hey Joe.flac
Size: 28395250 Hash: 88694ED3CC799090DF679606F1E9F09E Accuracy: -m8
Conclusion: CDDA 100%
Signature: 54FD4F3A8864188315EBEB9A8A499C64A111C310
FILE: 01 - Jimi Hendrix Experience - Stone Free.flac
Size: 23046367 Hash: E16F1F083C449E4BB764429CF722F50E Accuracy: -m8
Conclusion: CDDA 100%
Signature: 0E240AC3092023BCD84DE020713D54DE180E5464

foobar2000 1.4.1 / Dynamic Range Meter 1.1.1
log date: 2022-01-17 17:56:15

––––––––––––––––––––––––––––––––––––––––
Analyzed: Jimi Hendrix Experience / Paris 67
––––––––––––––––––––––––––––––––––––––––

DR Peak RMS Duration Track
––––––––––––––––––––––––––––––––––––––––
DR11 -3.28 dB -15.68 dB 3:36 01-Stone Free
DR10 -4.09 dB -16.10 dB 4:33 02-Hey Joe
DR11 -3.73 dB -16.58 dB 3:21 03-Fire
DR10 -2.04 dB -15.24 dB 5:34 04-Catfish Blues
DR10 -4.00 dB -16.42 dB 3:23 05-The Wind Cries Mary
DR10 -4.39 dB -17.09 dB 5:04 06-Rock Me Baby
DR11 -4.01 dB -17.53 dB 7:51 07-Red House
DR11 -4.96 dB -19.33 dB 7:26 08-Purple Haze
DR10 -5.34 dB -17.74 dB 5:59 09-Wild Thing
––––––––––––––––––––––––––––––––––––––––

Number of tracks: 9
Official DR value: DR11

Samplerate: 44100 Hz
Channels: 2
Bits per sample: 16
Bitrate: 785 kbps
Codec: FLAC
================================================================================


LINEAGE: 2021 Dagger Records / Legacy vinyl; Pro-Ject RM-5SE with Audio Tecnica Signet TK7E cartridge; Speedbox power supply; Creek Audio OBH-15; Audioquest Black Mamba and Pangea Premier interconnect cables; RME Babyface Pro interface ; Adobe Audition at 32-bit float 192khz; clicks and pops removed manually with Adobe Audition 3.0; resampled and dithered using iZotope RX Advanced. Converted to FLAC in either Trader's Little Helper or dBPoweramp. Tags done with Foobar 2000 and Tag and Rename.

Thanks to the Original ripper !