Subcategories

Joni Mitchell - A Woman in the East (The 1983 Tokyo Broadcast) (2015)

Posted By: delpotro
Joni Mitchell - A Woman in the East (The 1983 Tokyo Broadcast) (2015)

Joni Mitchell - A Woman in the East (The 1983 Tokyo Broadcast) (2015)
XLD Rip | FLAC (tracks+log+.cue) - 504 Mb | MP3 CBR 320 kbps - 187 Mb | 01:21:38
Soft Rock, Folk Rock, Jazz Rock, Female Vocal | Label: All Access | Bootleg

Recorded for live FM broadcast at the Nippon Budokan, Tokyo on 7th March 1983.

Released in October 1982, Joni Mitchell's 11th studio album, 'Wild Things Run Free' was, for some fans, a return to form. What this often meant in reality was that many such Mitchell enthusiasts had been somewhat perplexed by this remarkable composer and performer's output since 1975, when she introduced jazz and classical influences into her work, and even when such tendencies were included on such towering albums as 'Hissing of the Summer Lawns' and 'Hejira', a certain quarter longed still for the days of Big Yellow Taxi, The Circle Game and Woodstock. Nothing wrong, of course, with such majestic and beautiful songs, but to dismiss such a challenging and forward thinking artist's moves does appear to be a little stilted. But, when Joni hit the road in early 1983 on one of her longest and widest reaching tours - taking in Europe, Asia and Australia in addition to dates in North America - it seems she was out to please all her fans: the sticklers, the modernists and the-somewhere-in-betweens. In fact so diverse and eclectic were the set-lists on this remarkable tour, they not only took in cuts from her 'classic years' and her brace of mid-1970s challengers , she would often give numbers from her most reviled work (amongst the traditionalists), 'Mingus', a whirl. But she would always appease those disgruntled by a rendition of God Must Be a Boogie Man with a splendid A Case of You, a well placed Both Sides Now or an encore of Carey. This superb FM radio broadcast, transmitted live from Joni's show at Tokyo's famous Nippon Budokan, is a fine example of such a show, mixing as it does the old, the new, the borrowed and - while the title track from her 1971 meisterwork is inconveniently absent - cuts from 'Hissing', 'Hejira' and 'Mingus' are all in evidence. Hopefully, therefore, a fine time was had by all those in attendance. For anyone listening today, a fine time is hereby guaranteed.
Tracklist:
1. Free Man In Paris (03:38)
2. Edith And The Kingpin (03:43)
3. You Dream Flat Tires (03:00)
4. Refuge Of The Roads (06:56)
5. You're So Square (04:15)
6. For Free (05:27)
7. Big Yellow Taxi (03:04)
8. A Case Of You (04:46)
9. God Must Be A Boogie Man (04:07)
10. Wild Things Run Fast (03:57)
11. Don't Interrupt The Sorrow (03:48)
12. Solid Love (03:12)
13. Chinese Cafe / Unchained Melody (06:01)
14. Help Me (04:12)
15. You Turn Me On I'm A Radio (03:14)
16. Love (04:26)
17. Both Sides Now (04:15)
18. Underneath The Streetlight (02:41)
19. Woodstock (05:12)
20. Carey (01:43)

X Lossless Decoder version 20181019 (151.1)

XLD extraction logfile from 2019-10-11 13:38:23 -0500

Joni Mitchell / A Woman in the East

Used drive : Apple SuperDrive (revision 2.03)
Media type : Pressed CD

Ripper mode : XLD Secure Ripper
Disable audio cache : OK for the drive with a cache less than 1375KiB
Make use of C2 pointers : NO
Read offset correction : 6
Max retry count : 100
Gap status : Analyzed, Appended (except HTOA)

TOC of the extracted CD
Track | Start | Length | Start sector | End sector
––––––––––––––––––––––––––––-
1 | 00:00:00 | 03:39:12 | 0 | 16436
2 | 03:39:12 | 03:43:05 | 16437 | 33166
3 | 07:22:17 | 02:59:66 | 33167 | 46657
4 | 10:22:08 | 06:56:18 | 46658 | 77875
5 | 17:18:26 | 04:14:54 | 77876 | 96979
6 | 21:33:05 | 05:27:19 | 96980 | 121523
7 | 27:00:24 | 03:04:00 | 121524 | 135323
8 | 30:04:24 | 04:45:44 | 135324 | 156742
9 | 34:49:68 | 04:06:58 | 156743 | 175250
10 | 38:56:51 | 03:56:56 | 175251 | 193006
11 | 42:53:32 | 03:47:50 | 193007 | 210081
12 | 46:41:07 | 03:12:01 | 210082 | 224482
13 | 49:53:08 | 06:01:31 | 224483 | 251588
14 | 55:54:39 | 04:12:13 | 251589 | 270501
15 | 60:06:52 | 03:13:54 | 270502 | 285030
16 | 63:20:31 | 04:25:47 | 285031 | 304952
17 | 67:46:03 | 04:15:19 | 304953 | 324096
18 | 72:01:22 | 02:40:65 | 324097 | 336161
19 | 74:42:12 | 05:12:23 | 336162 | 359584
20 | 79:54:35 | 01:43:40 | 359585 | 367349

AccurateRip Summary (DiscID: 003cd571-037b1e9c-20132214)
Track 01 : OK (v2, confidence 12/12)
Track 02 : OK (v2, confidence 12/12)
Track 03 : OK (v2, confidence 12/12)
Track 04 : OK (v2, confidence 12/12)
Track 05 : OK (v2, confidence 12/12)
Track 06 : OK (v2, confidence 12/12)
Track 07 : OK (v2, confidence 12/12)
Track 08 : OK (v2, confidence 12/12)
Track 09 : OK (v2, confidence 12/12)
Track 10 : OK (v2, confidence 12/12)
Track 11 : OK (v2, confidence 12/12)
Track 12 : OK (v2, confidence 12/12)
Track 13 : OK (v2, confidence 12/12)
Track 14 : OK (v2, confidence 12/12)
Track 15 : OK (v2, confidence 12/12)
Track 16 : OK (v2, confidence 11/11)
Track 17 : OK (v2, confidence 12/12)
Track 18 : OK (v2, confidence 12/12)
Track 19 : OK (v2, confidence 11/11)
Track 20 : OK (v2, confidence 11/11)
->All tracks accurately ripped.

All Tracks
Album gain : -3.42 dB
Peak : 0.999969
Statistics
Read error : 0
Jitter error (maybe fixed) : 0
Retry sector count : 0
Damaged sector count : 0

Track 01
Filename : /Users/Shared/XLD/Joni Mitchell - A Woman in the East/01 - Free Man In Paris.flac
Pre-gap length : 00:02:00

Track gain : -5.22 dB
Peak : 0.999969
CRC32 hash (test run) : 2100C7A5
CRC32 hash : 2100C7A5
CRC32 hash (skip zero) : A9899BD7
AccurateRip v1 signature : 3873C0FE
AccurateRip v2 signature : 51BA795A
->Accurately ripped (v2, confidence 12/12)
Statistics
Read error : 0
Jitter error (maybe fixed) : 0
Retry sector count : 0
Damaged sector count : 0

Track 02
Filename : /Users/Shared/XLD/Joni Mitchell - A Woman in the East/02 - Edith And The Kingpin.flac

Track gain : -0.92 dB
Peak : 0.999969
CRC32 hash (test run) : 9C84C2E5
CRC32 hash : 9C84C2E5
CRC32 hash (skip zero) : 97B63720
AccurateRip v1 signature : EDD69DCD
AccurateRip v2 signature : CB9920D2
->Accurately ripped (v2, confidence 12/12)
Statistics
Read error : 0
Jitter error (maybe fixed) : 0
Retry sector count : 0
Damaged sector count : 0

Track 03
Filename : /Users/Shared/XLD/Joni Mitchell - A Woman in the East/03 - You Dream Flat Tyres.flac

Track gain : -5.25 dB
Peak : 0.999969
CRC32 hash (test run) : 3F724F94
CRC32 hash : 3F724F94
CRC32 hash (skip zero) : 7C45D1A4
AccurateRip v1 signature : 08A6109E
AccurateRip v2 signature : F6E52171
->Accurately ripped (v2, confidence 12/12)
Statistics
Read error : 0
Jitter error (maybe fixed) : 0
Retry sector count : 0
Damaged sector count : 0

Track 04
Filename : /Users/Shared/XLD/Joni Mitchell - A Woman in the East/04 - Refuge Of The Roads.flac

Track gain : -2.08 dB
Peak : 0.999969
CRC32 hash (test run) : 76A502D5
CRC32 hash : 76A502D5
CRC32 hash (skip zero) : C1D9F113
AccurateRip v1 signature : 35D29431
AccurateRip v2 signature : DD122FC9
->Accurately ripped (v2, confidence 12/12)
Statistics
Read error : 0
Jitter error (maybe fixed) : 0
Retry sector count : 0
Damaged sector count : 0

Track 05
Filename : /Users/Shared/XLD/Joni Mitchell - A Woman in the East/05 - You're So Square.flac

Track gain : -6.01 dB
Peak : 0.999969
CRC32 hash (test run) : CB49973B
CRC32 hash : CB49973B
CRC32 hash (skip zero) : F6C1FEC7
AccurateRip v1 signature : B13CBB83
AccurateRip v2 signature : C03C8E2F
->Accurately ripped (v2, confidence 12/12)
Statistics
Read error : 0
Jitter error (maybe fixed) : 0
Retry sector count : 0
Damaged sector count : 0

Track 06
Filename : /Users/Shared/XLD/Joni Mitchell - A Woman in the East/06 - For Free.flac

Track gain : 2.91 dB
Peak : 0.780792
CRC32 hash (test run) : 3A080698
CRC32 hash : 3A080698
CRC32 hash (skip zero) : 87915307
AccurateRip v1 signature : 9A65B428
AccurateRip v2 signature : 72FC4DBC
->Accurately ripped (v2, confidence 12/12)
Statistics
Read error : 0
Jitter error (maybe fixed) : 0
Retry sector count : 0
Damaged sector count : 0

Track 07
Filename : /Users/Shared/XLD/Joni Mitchell - A Woman in the East/07 - Big Yellow Taxi.flac

Track gain : -1.28 dB
Peak : 0.876282
CRC32 hash (test run) : 2C1F702C
CRC32 hash : 2C1F702C
CRC32 hash (skip zero) : 9DEDD67F
AccurateRip v1 signature : CDE846AE
AccurateRip v2 signature : 7DA808CC
->Accurately ripped (v2, confidence 12/12)
Statistics
Read error : 0
Jitter error (maybe fixed) : 0
Retry sector count : 0
Damaged sector count : 0

Track 08
Filename : /Users/Shared/XLD/Joni Mitchell - A Woman in the East/08 - A Case Of You.flac

Track gain : -0.55 dB
Peak : 0.882507
CRC32 hash (test run) : F05D23BC
CRC32 hash : F05D23BC
CRC32 hash (skip zero) : 16D858DB
AccurateRip v1 signature : 2A0433B0
AccurateRip v2 signature : 88199FB4
->Accurately ripped (v2, confidence 12/12)
Statistics
Read error : 0
Jitter error (maybe fixed) : 0
Retry sector count : 0
Damaged sector count : 0

Track 09
Filename : /Users/Shared/XLD/Joni Mitchell - A Woman in the East/09 - God Must Be A Boogie Man.flac

Track gain : -0.78 dB
Peak : 0.998718
CRC32 hash (test run) : 0825ABC5
CRC32 hash : 0825ABC5
CRC32 hash (skip zero) : 46DD28AA
AccurateRip v1 signature : C4D6055D
AccurateRip v2 signature : B884E0B7
->Accurately ripped (v2, confidence 12/12)
Statistics
Read error : 0
Jitter error (maybe fixed) : 0
Retry sector count : 0
Damaged sector count : 0

Track 10
Filename : /Users/Shared/XLD/Joni Mitchell - A Woman in the East/10 - Wild Things Run Fast.flac

Track gain : -5.06 dB
Peak : 0.999969
CRC32 hash (test run) : 2D5C451C
CRC32 hash : 2D5C451C
CRC32 hash (skip zero) : 7DC08DED
AccurateRip v1 signature : 82AE30D2
AccurateRip v2 signature : 1AF50A8F
->Accurately ripped (v2, confidence 12/12)
Statistics
Read error : 0
Jitter error (maybe fixed) : 0
Retry sector count : 0
Damaged sector count : 0

Track 11
Filename : /Users/Shared/XLD/Joni Mitchell - A Woman in the East/11 - Don't Interrupt The Sorrow.flac

Track gain : -3.36 dB
Peak : 0.999969
CRC32 hash (test run) : 9A4E6B34
CRC32 hash : 9A4E6B34
CRC32 hash (skip zero) : F9DB07A0
AccurateRip v1 signature : 1D212E73
AccurateRip v2 signature : CF9DED39
->Accurately ripped (v2, confidence 12/12)
Statistics
Read error : 0
Jitter error (maybe fixed) : 0
Retry sector count : 0
Damaged sector count : 0

Track 12
Filename : /Users/Shared/XLD/Joni Mitchell - A Woman in the East/12 - Solid Love.flac

Track gain : -4.44 dB
Peak : 0.999969
CRC32 hash (test run) : 3B36A7D9
CRC32 hash : 3B36A7D9
CRC32 hash (skip zero) : 78E115C9
AccurateRip v1 signature : 0D2ECD49
AccurateRip v2 signature : AC92FA7D
->Accurately ripped (v2, confidence 12/12)
Statistics
Read error : 0
Jitter error (maybe fixed) : 0
Retry sector count : 0
Damaged sector count : 0

Track 13
Filename : /Users/Shared/XLD/Joni Mitchell - A Woman in the East/13 - Unchained Melody.flac

Track gain : -0.80 dB
Peak : 0.999969
CRC32 hash (test run) : 340135F9
CRC32 hash : 340135F9
CRC32 hash (skip zero) : 7BA62CB4
AccurateRip v1 signature : 575A3B9E
AccurateRip v2 signature : E56E654B
->Accurately ripped (v2, confidence 12/12)
Statistics
Read error : 0
Jitter error (maybe fixed) : 0
Retry sector count : 0
Damaged sector count : 0

Track 14
Filename : /Users/Shared/XLD/Joni Mitchell - A Woman in the East/14 - Help Me.flac

Track gain : -5.12 dB
Peak : 0.999969
CRC32 hash (test run) : 60D770F0
CRC32 hash : 60D770F0
CRC32 hash (skip zero) : 2FD4FE76
AccurateRip v1 signature : D04F1A12
AccurateRip v2 signature : BB8DB1D9
->Accurately ripped (v2, confidence 12/12)
Statistics
Read error : 0
Jitter error (maybe fixed) : 0
Retry sector count : 0
Damaged sector count : 0

Track 15
Filename : /Users/Shared/XLD/Joni Mitchell - A Woman in the East/15 - You Turn Me On I'm A Radio.flac

Track gain : -4.13 dB
Peak : 0.999969
CRC32 hash (test run) : 86C36BD6
CRC32 hash : 86C36BD6
CRC32 hash (skip zero) : 76332A5C
AccurateRip v1 signature : E35B34F7
AccurateRip v2 signature : 92A00B36
->Accurately ripped (v2, confidence 12/12)
Statistics
Read error : 0
Jitter error (maybe fixed) : 0
Retry sector count : 0
Damaged sector count : 0

Track 16
Filename : /Users/Shared/XLD/Joni Mitchell - A Woman in the East/16 - Love.flac

Track gain : 0.08 dB
Peak : 0.999969
CRC32 hash (test run) : C448FB80
CRC32 hash : C448FB80
CRC32 hash (skip zero) : 8F48729F
AccurateRip v1 signature : 6829C578
AccurateRip v2 signature : 942B80E2
->Accurately ripped (v2, confidence 11/11)
Statistics
Read error : 0
Jitter error (maybe fixed) : 0
Retry sector count : 0
Damaged sector count : 0

Track 17
Filename : /Users/Shared/XLD/Joni Mitchell - A Woman in the East/17 - Both Sides Now.flac

Track gain : 3.43 dB
Peak : 0.715424
CRC32 hash (test run) : 9815449D
CRC32 hash : 9815449D
CRC32 hash (skip zero) : E073F129
AccurateRip v1 signature : 99F75A04
AccurateRip v2 signature : 87DF1949
->Accurately ripped (v2, confidence 12/12)
Statistics
Read error : 0
Jitter error (maybe fixed) : 0
Retry sector count : 0
Damaged sector count : 0

Track 18
Filename : /Users/Shared/XLD/Joni Mitchell - A Woman in the East/18 - Underneath The Streetlight.flac

Track gain : -5.72 dB
Peak : 0.999969
CRC32 hash (test run) : 4ACCEA07
CRC32 hash : 4ACCEA07
CRC32 hash (skip zero) : 924460A2
AccurateRip v1 signature : A2FA29AB
AccurateRip v2 signature : C04E7BCE
->Accurately ripped (v2, confidence 12/12)
Statistics
Read error : 0
Jitter error (maybe fixed) : 0
Retry sector count : 0
Damaged sector count : 0

Track 19
Filename : /Users/Shared/XLD/Joni Mitchell - A Woman in the East/19 - Woodstock.flac

Track gain : 0.31 dB
Peak : 0.783264
CRC32 hash (test run) : C9CC5716
CRC32 hash : C9CC5716
CRC32 hash (skip zero) : F27906BA
AccurateRip v1 signature : BC7E8FE5
AccurateRip v2 signature : 95273586
->Accurately ripped (v2, confidence 11/11)
Statistics
Read error : 0
Jitter error (maybe fixed) : 0
Retry sector count : 0
Damaged sector count : 0

Track 20
Filename : /Users/Shared/XLD/Joni Mitchell - A Woman in the East/20 - Carey.flac

Track gain : -6.77 dB
Peak : 0.999969
CRC32 hash (test run) : 279D468D
CRC32 hash : 279D468D
CRC32 hash (skip zero) : 7CF73864
AccurateRip v1 signature : A9AA6EC1
AccurateRip v2 signature : 0F88024D
->Accurately ripped (v2, confidence 11/11)
Statistics
Read error : 0
Jitter error (maybe fixed) : 0
Retry sector count : 0
Damaged sector count : 0

No errors occurred

End of status report

––-BEGIN XLD SIGNATURE––-
OjobjyMNIsSO6bqtKTU2KJK44Po82AI7oPpXtkhFMbi2_ttbmB7FE3tsapwBaSXOJe3QXc4H5h2u.MXKcdVXCRz0eYBRIkuKlTfUbl8
––-END XLD SIGNATURE––-

Thanks to the Original ripper !