Subcategories
Tags
Language
Tags

Khruangbin - Late Night Tales (2020)

Posted By: delpotro
Khruangbin - Late Night Tales (2020)

Khruangbin - Late Night Tales (2020)
EAC Rip | FLAC (tracks+log+.cue) - 384 Mb | MP3 CBR 320 kbps - 189 Mb | Covers included | 01:07:46
Psychedelic, World, Funk | Label: Night Time Stories

Late Night Tales: Khruangbin is a DJ mix album curated by American psychedelia band Khruangbin for Late Night Tales series, set to be released by Night Time Stories on 4 December 2020. It will include Khruangbin's cover of Kool & the Gang's instrumental tune "Summer Madness". The compilation includes a mixture of various global artists outside of the mainstream music, including South Korean rock band Sanulrim, Belarus band Pesniary, Nigerian musician Maxwell Udoh, and Ethiopian band Roha Band, among others.

Hot on the heels of ‘Mordechai’, the critically acclaimed third album from US psych-rockers Khruangbin, the Texas trio are set to become the latest act to present their own LateNightTales in the popular, long-running musician-curated album series.

Having first come to prominence in 2013 when producer and D.J. Bonobo included Khruangbin’s ‘A Calf Born in Winter’ in his own collection of songs for the series, the little known Houston trio had yet to release an album, but have since gone on to become international superstars forming their own exotic, individual sound. “The LateNightTales series is such a special thing to be a part of because we wouldn’t have made it if it wasn’t for Bonobo’s LateNightTales, because that’s how we got into the LNT family – and got a break.”

With a mind-blowing selection of tracks that cross borders and cultures, Khruangbin’s deep love of global grooves – from Asian pop to Nigerian reggae – Japanese mellow groove to Latina flavas – are steeped in eclecticism; Nazia Hassan’s Hindi-disco ‘Khushi’, produced by British-Indian legend Biddu, South Korean rock band Sanullim who contribute ‘Don’t Go’, a pair of African bangers from Nigerian Maxwell Udoh and Roha Band, from Ethiopia; a diversion to Belarus for Песняры and thence to Madrid for the strident vocal performance of Paloma San Basilio with ‘Contigo’ before hightailing back to Texas.

Elsewhere, the Lone Star state reps proudly, with David Marez and Kelly Doyle plus, in the LateNightTales tradition, the band deliver an exclusive, horizontally brilliant version of Kool & The Gang’s ‘Summer Madness’, while the mix concludes with a spoken word piece by Tierney Malone, accompanied by fellow Houstonian Geoffrey Muller’s atmospheric banjo rendering of Erik Satie’s ‘Gnossienne’.

“It’s cool to think about what you would listen to late at night, as a band together, lighting a spliff, kinda vibe. We definitely wanted to cover as much global territory as possible; so it was the globe and then home. We wanted to show the treasures from our hometown, or people from our hometown that the rest of the world probably doesn’t know. That’s what makes Khruangbin Khruangbin. The stubbornness about being so hometown-centric but what makes Houston is this this constant international influence. That’s that gulf stream, bringing it right into Houston. So I guess that’s kind of the theme.”

The LateNightTales series was established back in 2001 with Fila Brazilia taking to the controls and mixing up the first of what would continue to be the first choice of music connoisseurs worldwide. Since then, the series has seen releases from the likes of The Flaming Lips, Hot Chip, Floating Points, David Holmes, Bonobo, Jon Hopkins, Röyksopp and many more.
Tracklist:
1. Carlos Santana - Illuminations (04:23)
2. Brilliantes Del Vuelo - I Know That (05:20)
3. Nazia Hassan - Khushi (04:23)
4. Kelly Doyle - DRM (02:16)
5. Sanulim - Dont Go (04:10)
6. Maxwell Udoh - I Like It (06:30)
7. David Marez - Enseñame (03:39)
8. Gerald Lee - Can You Feel The Love (03:06)
9. Justine & The Victorian Punks - Still You (07:45)
10. George Yanagi -「祭ばやしが聞こえる」のテ ーマ (04:03)
11. Песняры - Зачарованная моя (05:54)
12. Khruangbin - Summer Madness (Exclusive Track) (03:22)
13. Paloma San Basilio - Contigo (04:04)
14. Roha Band - Yetikimt Abeba (05:20)
15. Tierney Malone & Geoffrey Muller - Trans- mission for Jehn: Gnossienne No 1 (Exclusive Spoken Word Track) (05:00)

Exact Audio Copy V1.3 from 2. September 2016

EAC extraction logfile from 12. December 2020, 19:15

Khruangbin / Late Night Tales

Used drive : ATAPI DVD A DH16AASH Adapter: 1 ID: 0

Read mode : Secure
Utilize accurate stream : Yes
Defeat audio cache : Yes
Make use of C2 pointers : No

Read offset correction : 6
Overread into Lead-In and Lead-Out : No
Fill up missing offset samples with silence : Yes
Delete leading and trailing silent blocks : No
Null samples used in CRC calculations : Yes
Used interface : Native Win32 interface for Win NT & 2000
Gap handling : Appended to previous track

Used output format : User Defined Encoder
Selected bitrate : 1024 kBit/s
Quality : High
Add ID3 tag : No
Command line compressor : C:\Program Files (x86)\Exact Audio Copy\Flac\flac.exe
Additional command line options : -8 -e -V -T "ARTIST=%artist%" -T "TITLE=%title%" -T "ALBUM=%albumtitle%" -T "DATE=%year%" -T "TRACKNUMBER=%tracknr%" -T "GENRE=%genre%" -T "PERFORMER=%albuminterpret%" -T "COMPOSER=%composer%" %haslyrics%–tag-from-file=LYRICS="%lyricsfile%"%haslyrics% -T "ALBUMARTIST=%albumartist%" -T "DISCNUMBER=%cdnumber%" -T "TOTALDISCS=%totalcds%" -T "TOTALTRACKS=%numtracks%" -T "COMMENT=%comment%" %source% -o %dest%


TOC of the extracted CD

Track | Start | Length | Start sector | End sector
––––––––––––––––––––––––––––-
1 | 0:00.00 | 4:14.60 | 0 | 19109
2 | 4:14.60 | 5:14.35 | 19110 | 42694
3 | 9:29.20 | 4:20.55 | 42695 | 62249
4 | 13:50.00 | 2:16.07 | 62250 | 72456
5 | 16:06.07 | 4:03.71 | 72457 | 90752
6 | 20:10.03 | 6:23.18 | 90753 | 119495
7 | 26:33.21 | 3:34.08 | 119496 | 135553
8 | 30:07.29 | 2:57.24 | 135554 | 148852
9 | 33:04.53 | 7:30.26 | 148853 | 182628
10 | 40:35.04 | 3:59.39 | 182629 | 200592
11 | 44:34.43 | 5:44.36 | 200593 | 226428
12 | 50:19.04 | 3:10.62 | 226429 | 240740
13 | 53:29.66 | 3:57.12 | 240741 | 258527
14 | 57:27.03 | 5:10.64 | 258528 | 281841
15 | 62:37.67 | 5:08.09 | 281842 | 304950


Track 1

Filename X:\K\Khruangbin\2020 LateNightTales\01. Devadip Carlos Santana and Turiya Alice Coltrane - Illuminations.wav

Pre-gap length 0:00:02.00

Peak level 70.6 %
Extraction speed 3.3 X
Track quality 100.0 %
Test CRC BF1D6B96
Copy CRC BF1D6B96
Track not present in AccurateRip database
Copy OK

Track 2

Filename X:\K\Khruangbin\2020 LateNightTales\02. Brilliantes Del Vuelo - I Know That (When The Spring Time Comes).wav

Peak level 84.0 %
Extraction speed 3.9 X
Track quality 100.0 %
Test CRC 82D31C91
Copy CRC 82D31C91
Track not present in AccurateRip database
Copy OK

Track 3

Filename X:\K\Khruangbin\2020 LateNightTales\03. Nazia Hassan - Khushi.wav

Peak level 88.2 %
Extraction speed 4.1 X
Track quality 100.0 %
Test CRC 68BD033A
Copy CRC 68BD033A
Track not present in AccurateRip database
Copy OK

Track 4

Filename X:\K\Khruangbin\2020 LateNightTales\04. Kelly Doyle - DRM.wav

Peak level 84.5 %
Extraction speed 2.8 X
Track quality 99.9 %
Test CRC 58D309B4
Copy CRC 58D309B4
Track not present in AccurateRip database
Copy OK

Track 5

Filename X:\K\Khruangbin\2020 LateNightTales\05. Sanullim - Don’t Go.wav

Peak level 68.9 %
Extraction speed 4.6 X
Track quality 100.0 %
Test CRC 20B21446
Copy CRC 20B21446
Track not present in AccurateRip database
Copy OK

Track 6

Filename X:\K\Khruangbin\2020 LateNightTales\06. Maxwell Udoh - I Like It (Don't Stop).wav

Peak level 85.0 %
Extraction speed 5.2 X
Track quality 100.0 %
Test CRC 47313DE6
Copy CRC 47313DE6
Track not present in AccurateRip database
Copy OK

Track 7

Filename X:\K\Khruangbin\2020 LateNightTales\07. David Marez - Enséñame.wav

Peak level 84.4 %
Extraction speed 4.0 X
Track quality 99.9 %
Test CRC 78D6AE89
Copy CRC 78D6AE89
Track not present in AccurateRip database
Copy OK

Track 8

Filename X:\K\Khruangbin\2020 LateNightTales\08. Gerald Lee - Can You Feel The Love (Reprise).wav

Peak level 68.3 %
Extraction speed 5.1 X
Track quality 100.0 %
Test CRC CA29AA61
Copy CRC CA29AA61
Track not present in AccurateRip database
Copy OK

Track 9

Filename X:\K\Khruangbin\2020 LateNightTales\09. Justine & The Victorian Punks - Still You.wav

Peak level 84.3 %
Extraction speed 6.1 X
Track quality 100.0 %
Test CRC 8C28B456
Copy CRC 8C28B456
Track not present in AccurateRip database
Copy OK

Track 10

Filename X:\K\Khruangbin\2020 LateNightTales\10. George Yanagi + Nadja Band - 「祭ばやしが聞こえる」のテーマ.wav

Peak level 77.4 %
Extraction speed 5.9 X
Track quality 100.0 %
Test CRC 83F6B24E
Copy CRC 83F6B24E
Track not present in AccurateRip database
Copy OK

Track 11

Filename X:\K\Khruangbin\2020 LateNightTales\11. Песняры - Зачарованная моя.wav

Peak level 84.0 %
Extraction speed 6.5 X
Track quality 100.0 %
Test CRC E3D01BA5
Copy CRC E3D01BA5
Track not present in AccurateRip database
Copy OK

Track 12

Filename X:\K\Khruangbin\2020 LateNightTales\12. Khruangbin - Summer Madness (Exclusive Cover Version).wav

Peak level 84.2 %
Extraction speed 6.2 X
Track quality 100.0 %
Test CRC C0219DDE
Copy CRC C0219DDE
Track not present in AccurateRip database
Copy OK

Track 13

Filename X:\K\Khruangbin\2020 LateNightTales\13. Paloma San Basilio - Contigo.wav

Peak level 84.5 %
Extraction speed 6.6 X
Track quality 100.0 %
Test CRC 8EBABF70
Copy CRC 8EBABF70
Track not present in AccurateRip database
Copy OK

Track 14

Filename X:\K\Khruangbin\2020 LateNightTales\14. Roha Band - Yetikimt Abeba.wav

Peak level 78.8 %
Extraction speed 7.0 X
Track quality 100.0 %
Test CRC 930AF0E3
Copy CRC 930AF0E3
Track not present in AccurateRip database
Copy OK

Track 15

Filename X:\K\Khruangbin\2020 LateNightTales\15. Tierney Malone ∕ Geoffrey Muller - Transmission For Jehn꞉ Gnossienne No 1 (Exclusive Spoken Word Piece).wav

Peak level 78.9 %
Extraction speed 5.9 X
Track quality 99.9 %
Test CRC 51830925
Copy CRC 51830925
Track not present in AccurateRip database
Copy OK


None of the tracks are present in the AccurateRip database

No errors occurred

End of status report

–– CUETools DB Plugin V2.1.6

[CTDB TOCID: ECUUXX8McUSPfsOFAMDWKGslEi8-] found
Submit result: ECUUXX8McUSPfsOFAMDWKGslEi8- has been confirmed
Track | CTDB Status
1 | (3/3) Accurately ripped
2 | (3/3) Accurately ripped
3 | (3/3) Accurately ripped
4 | (3/3) Accurately ripped
5 | (3/3) Accurately ripped
6 | (3/3) Accurately ripped
7 | (3/3) Accurately ripped
8 | (3/3) Accurately ripped
9 | (3/3) Accurately ripped
10 | (3/3) Accurately ripped
11 | (3/3) Accurately ripped
12 | (3/3) Accurately ripped
13 | (3/3) Accurately ripped
14 | (3/3) Accurately ripped
15 | (3/3) Accurately ripped


==== Log checksum 1661A31E077E5476D7E14D4EFB0A9088CAB73A4F35607765F23318CF2C370EA3 ====

Thanks to the Original ripper !