Subcategories
Tags
Language
Tags

La Monte Young - Draw a Straight Line and Follow It (2012) {7CD Set, Otherside Recordings Japan rec 1960-1987}

Posted By: ruskaval
La Monte Young - Draw a Straight Line and Follow It (2012) {7CD Set, Otherside Recordings Japan rec 1960-1987}

La Monte Young - Draw a Straight Line and Follow It (2012) {7CD Set, Otherside Recordings Japan rec 1960-1987}
EAC rip (secure mode) | FLAC (tracks)+CUE+LOG -> 2.17 Gb | MP3 @320 -> 934 Mb | Artwork | 5% repair rar
© 1960-87, 2012 La Monte Young, Marian Zazeela / Otherside Recordings Japan | [none]
Classical / Modern Classical / Modern Composition / Experimental / Microtonal

La Monte Young, generally regarded as the father of musical minimalism, is one of America’s most important contemporary composers–and one of the most elusive. Early on Young eschewed the conventional musical institutions of publishers, record labels, and venues, in order to create compositions completely unfettered by commercial concerns. At the same time, however, he exercised profound influence on such varied figures as Terry Riley, Cornelius Cardew, Andy Warhol, Yoko Ono, Velvet Underground, Brian Eno and entire branches of pop music. For half a century he and his partner and collaborator, Marian Zazeela, have worked in near-seclusion in their Tribeca loft, creating works that explore the furthest extremes of conceptual audacity, technical sophistication, acoustical complexity, and overt spirituality.
La Monte Young - Draw a Straight Line and Follow It (2012) {7CD Set, Otherside Recordings Japan rec 1960-1987}


Works on This Recording

Disc 1

1. Composition 1960 #7
2. The Lower Map Of The Eleven’s Division In The Romantic Symmetry
3. Piano Piece For David Tudor #3
4. The Fire Is A Mirror

Disc 2
1. For Brass
2. Arabic Numeral (Any Integer) To H.F.
3. 2 Sounds

Disc 3
1. Poem For Chairs, Tables, Benches, Etc.
2. Day Of The Antler (The Obsidian Ocelot)
3. Drift Study
4. Map Of 49's Dream The Two Systems Of Eleven Sets Of Galactic Intervals Ornamental Lightyears Tracery

Disc 4
1. Bb Dorian Blues
2. Early Tuesday Morning Blues
3. The Tortoise Droning Selected Pitches From The Holy Numbers For The Two Black Tigers, The Green Tiger And The Hermit

Disc 5
1. Raga Bhairava
2. The Tamburas Of Pandit Pran Nath

Disc 6
1. Trio For Strings

Disc 7
1. The Well-Tuned Piano (Excerpt)

Exact Audio Copy V1.3 from 2. September 2016

EAC extraction logfile from 8. May 2018, 9:29

La Monte Young / Draw A Straight Line and Follow It

Used drive : HL-DT-STDVDRAM GSA-T50N Adapter: 1 ID: 0

Read mode : Secure
Utilize accurate stream : Yes
Defeat audio cache : Yes
Make use of C2 pointers : No

Read offset correction : 667
Overread into Lead-In and Lead-Out : No
Fill up missing offset samples with silence : Yes
Delete leading and trailing silent blocks : No
Null samples used in CRC calculations : Yes
Used interface : Native Win32 interface for Win NT & 2000
Gap handling : Appended to previous track

Used output format : User Defined Encoder
Selected bitrate : 1024 kBit/s
Quality : High
Add ID3 tag : No
Command line compressor : C:\Program Files (x86)\Exact Audio Copy\Flac\flac.exe
Additional command line options : -8 -e -p -V -T "ARTIST=%artist%" -T "TITLE=%title%" -T "ALBUM=%albumtitle%" -T "DATE=%year%" -T "TRACKNUMBER=%tracknr%" -T "GENRE=%genre%" -T "PERFORMER=%albuminterpret%" -T "COMPOSER=%composer%" %haslyrics%–tag-from-file=LYRICS="%lyricsfile%"%haslyrics% -T "ALBUMARTIST=%albumartist%" -T "DISCNUMBER=%cdnumber%" -T "TOTALDISCS=%totalcds%" -T "TOTALTRACKS=%numtracks%" -T "COMMENT=%comment%" %source% -o %dest%


TOC of the extracted CD

Track | Start | Length | Start sector | End sector
––––––––––––––––––––––––––––-
1 | 0:00.00 | 4:38.01 | 0 | 20850
2 | 4:38.01 | 24:57.01 | 20851 | 133126
3 | 29:35.02 | 7:36.01 | 133127 | 167327
4 | 37:11.03 | 14:56.01 | 167328 | 234528


Track 1

Filename C:\EAC Rips\La Monte Young - Draw A Straight Line and Follow It\Disc 1\01 Track01.wav

Pre-gap length 0:00:02.00

Peak level 100.0 %
Extraction speed 2.0 X
Track quality 100.0 %
Test CRC 63B0813E
Copy CRC 63B0813E
Track not present in AccurateRip database
Copy OK

Track 2

Filename C:\EAC Rips\La Monte Young - Draw A Straight Line and Follow It\Disc 1\02 Track02.wav

Pre-gap length 0:00:02.00

Peak level 100.0 %
Extraction speed 2.9 X
Track quality 100.0 %
Test CRC 10AC7CBF
Copy CRC 10AC7CBF
Track not present in AccurateRip database
Copy OK

Track 3

Filename C:\EAC Rips\La Monte Young - Draw A Straight Line and Follow It\Disc 1\03 Track03.wav

Pre-gap length 0:00:03.00

Peak level 100.0 %
Extraction speed 3.3 X
Track quality 100.0 %
Test CRC FEDB29BF
Copy CRC FEDB29BF
Track not present in AccurateRip database
Copy OK

Track 4

Filename C:\EAC Rips\La Monte Young - Draw A Straight Line and Follow It\Disc 1\04 Track04.wav

Pre-gap length 0:00:02.00

Peak level 100.0 %
Extraction speed 3.8 X
Track quality 100.0 %
Test CRC 65968C21
Copy CRC 65968C21
Track not present in AccurateRip database
Copy OK


None of the tracks are present in the AccurateRip database

No errors occurred

End of status report

–– CUETools DB Plugin V2.1.6

[CTDB TOCID: EqZvYoFEzhdanjS8D4kZ.0ZKWWw-] found
Submit result: already submitted
Track | CTDB Status
1 | (1/1) Accurately ripped
2 | (1/1) Accurately ripped
3 | (1/1) Accurately ripped
4 | (1/1) Accurately ripped


==== Log checksum 06978D51C1F51207A4DCB278C2D1BE16948613E6B9486A680F26CB112B82E928 ====
Exact Audio Copy V1.3 from 2. September 2016

EAC extraction logfile from 8. May 2018, 17:17

La Monte Young / Draw A Straight Line and Follow It

Used drive : HL-DT-STDVDRAM GSA-T50N Adapter: 1 ID: 0

Read mode : Secure
Utilize accurate stream : Yes
Defeat audio cache : Yes
Make use of C2 pointers : No

Read offset correction : 667
Overread into Lead-In and Lead-Out : No
Fill up missing offset samples with silence : Yes
Delete leading and trailing silent blocks : No
Null samples used in CRC calculations : Yes
Used interface : Native Win32 interface for Win NT & 2000
Gap handling : Appended to previous track

Used output format : User Defined Encoder
Selected bitrate : 1024 kBit/s
Quality : High
Add ID3 tag : No
Command line compressor : C:\Program Files (x86)\Exact Audio Copy\Flac\flac.exe
Additional command line options : -8 -e -p -V -T "ARTIST=%artist%" -T "TITLE=%title%" -T "ALBUM=%albumtitle%" -T "DATE=%year%" -T "TRACKNUMBER=%tracknr%" -T "GENRE=%genre%" -T "PERFORMER=%albuminterpret%" -T "COMPOSER=%composer%" %haslyrics%–tag-from-file=LYRICS="%lyricsfile%"%haslyrics% -T "ALBUMARTIST=%albumartist%" -T "DISCNUMBER=%cdnumber%" -T "TOTALDISCS=%totalcds%" -T "TOTALTRACKS=%numtracks%" -T "COMMENT=%comment%" %source% -o %dest%


TOC of the extracted CD

Track | Start | Length | Start sector | End sector
––––––––––––––––––––––––––––-
1 | 0:00.00 | 66:08.01 | 0 | 297600


Track 1

Filename C:\EAC Rips\La Monte Young - Draw A Straight Line and Follow It\Disc 7\01 Track01.wav

Pre-gap length 0:00:02.00

Peak level 100.0 %
Extraction speed 1.9 X
Track quality 99.9 %
Test CRC 15EC6D34
Copy CRC 15EC6D34
Track not present in AccurateRip database
Copy OK


None of the tracks are present in the AccurateRip database

No errors occurred

End of status report

–– CUETools DB Plugin V2.1.6

[CTDB TOCID: P4DKP.BkviRkgMUmsdpkbDV8Jq0-] disk not present in database
Submit result: P4DKP.BkviRkgMUmsdpkbDV8Jq0- has been uploaded


==== Log checksum BE810FB1F04869E897FE311BCB752AEB6C65F1AF4887B2DBB4B892B8D8E4F832 ====


La Monte Young - Draw a Straight Line and Follow It (2012) {7CD Set, Otherside Recordings Japan rec 1960-1987}

La Monte Young - Draw a Straight Line and Follow It (2012) {7CD Set, Otherside Recordings Japan rec 1960-1987}


see more La Monte Young…


===