Tags
Language
Tags

Lou Gramm - Questions And Answers: The Atlantic Anthology 1987-1989 (2021)

Posted By: delpotro
Lou Gramm - Questions And Answers: The Atlantic Anthology 1987-1989 (2021)

Lou Gramm - Questions And Answers: The Atlantic Anthology 1987-1989 (2021)
EAC Rip | FLAC (tracks+log+.cue) - 959 Mb | MP3 CBR 320 kbps - 374 Mb | 02:30:17
Melodic Hard Rock, Soft Rock | Label: HNE Recordings, Cherry Red Records

Lou Gramm had been recording with Rochester, New York based band, Black Sheep, since the early 1970s. Releasing two LPs for Capitol, Lou Gramm met his future bandmate and songwriting partner Mick Jones in 1975 when Black Sheep opened for Spooky Tooth in Rochester. Mick Jones was looking for a singer for his new band in 1976, and Black Sheep having split at the end of 1975, Lou was free to audition for Mick’s new group, Foreigner. Releasing their self-titled album on Atlantic Records in 1977, and featuring solid gold rock classics as ‘Cold As Ice’ and ‘Feels Like The First Time’, Foreigner were an instant worldwide smash. Going from strength to strength, the band hit a commercial peak in 1984 with the “Agent Provocateur” album and the chart topping power ballad, ‘I Want To Know What Love Is’.

Perhaps choosing to return to a simpler rock format, Lou Gramm released his debut solo album, “Ready Or Not”, in 1987. Produced by Pat Moran with Lou Gramm, it featured the hits ‘Midnight Blue’ and ‘Ready Or Not’ among a collection of songs that wouldn’t have sounded out of place on a Foreigner record. Having come from a very musical family, “Ready Or Not” is very much a family affair, featuring contributions from Lou’s brother Ben Jr. on drums and his father Ben Sr. on trumpet. The core of the band was Lou’s former Black Sheep bassist Ben Turgon, who make a significant songwriting contribution to the album, plus guitar hero Nils Logfren. Lou also found time in 1987 to record a track for the soundtrack of teen horror flick, “The Lost Boys”.

Returning to Foreigner for 1987’s “Inside Information”, Lou released his second solo album “Long Hard Look” in 1989. Capitalising on the success of his debut, it was produced by Peter Wolf (famed for his production and arrangement work for Frank Zappa, Heart & Kenny Loggins), “Long Hard Look” built on the foundations set by Lou’s debut. ‘Just Between You And Me’ was another huge smash, making No.6 in the U.S. Hot 100, followed by the single ‘True Blue Love’. The album concludes with a cover of the Small Faces’ ‘Tin Soldier’.”

Although only recording two solo albums for Atlantic, a third disc gathers together some of his Atlantic-era rarities, including two versions of ‘Lost In The Shadows (The Lost Boys)’ from the aforementioned soundtrack. ‘Ready Or Not’ is represented by a “Rock Remix”, an “Extended Dance Remix” and an “Instrumental Remix”. Hit single ‘Midnight Blue’ was issued in various formats, including a very collectible transparent blue 12 inch single, which featured an “Extended Remix” of the track. A single edit of ‘True Blue Love’ has been selected from “Long Hard Look”. To promote Lou’s 1987 debut, Atlantic Records released the very rare and highly collectible LP, “Questions And Answers”, a promotional album distributed to radio stations featuring Lou interviewed by Dan Neer as he discusses the genesis of the “Ready Or Not” record, and his career to date, in 1987.
Tracklist:
Disc 1 (40:04)
1. Ready Or Not (03:27)
2. Heartache (04:22)
3. Midnight Blue (03:56)
4. Time (03:21)
5. If I Don't Have You (04:37)
6. She's Got To Know (03:59)
7. Arrow Thru Your Heart (03:44)
8. Until I Make You Mine (03:26)
9. Chain Of Love (03:58)
10. Lover Come Back (05:14)

Disc 2 (45:13)
1. Angel With A Dirty Face (05:14)
2. Just Between You And Me (04:56)
3. Broken Dreams (05:54)
4. True Blue Love (04:58)
5. I'll Come Running (04:06)
6. Hangin' On My Hip (03:38)
7. Warmest Rising Sun (05:11)
8. Day One (03:17)
9. I'll Know When It's Over (04:35)
10. Tin Soldier (03:24)

Disc 3 (01:04:13)
1. Lost In The Shadows (The Lost Boys) (Vocal Edit) (04:46)
2. Lost In The Shadows (The Lost Boys) (Vocal LP Version) (06:36)
3. Ready Or Not (Rock Remix) (05:12)
4. Ready Or Not (Extended Dance Mix) (07:02)
5. Ready Or Not (Instrumental Remix) (06:23)
6. Midnight Blue (Extended Remix) (05:19)
7. True Blue Love (Edit) (04:19)
8. Questions And Answers (Unbanded - Promo Interview-Album) (24:36)

Exact Audio Copy V1.3 from 2. September 2016

EAC extraction logfile from 5. August 2021, 8:42

Lou Gramm / Ready Or Not

Used drive : HL-DT-STBD-RE BH16NS55 Adapter: 1 ID: 0

Read mode : Secure
Utilize accurate stream : Yes
Defeat audio cache : Yes
Make use of C2 pointers : No

Read offset correction : 6
Overread into Lead-In and Lead-Out : No
Fill up missing offset samples with silence : Yes
Delete leading and trailing silent blocks : No
Null samples used in CRC calculations : Yes
Used interface : Native Win32 interface for Win NT & 2000
Gap handling : Appended to previous track

Used output format : User Defined Encoder
Selected bitrate : 1024 kBit/s
Quality : High
Add ID3 tag : No
Command line compressor : C:\Program Files (x86)\Exact Audio Copy\Flac\flac.exe
Additional command line options : -8 -V -T "ARTIST=%artist%" -T "TITLE=%title%" -T "ALBUM=%albumtitle%" -T "DATE=%year%" -T "TRACKNUMBER=%tracknr%" -T "GENRE=%genre%" -T "PERFORMER=%albuminterpret%" -T "COMPOSER=%composer%" %haslyrics%–tag-from-file=LYRICS="%lyricsfile%"%haslyrics% -T "ALBUMARTIST=%albumartist%" -T "DISCNUMBER=%cdnumber%" -T "TOTALDISCS=%totalcds%" -T "TOTALTRACKS=%numtracks%" -T "COMMENT=%comment%" %source% -o %dest%


TOC of the extracted CD

Track | Start | Length | Start sector | End sector
––––––––––––––––––––––––––––-
1 | 0:00.00 | 3:30.12 | 0 | 15761
2 | 3:30.12 | 4:28.72 | 15762 | 35933
3 | 7:59.09 | 3:56.74 | 35934 | 53707
4 | 11:56.08 | 3:22.69 | 53708 | 68926
5 | 15:19.02 | 4:39.27 | 68927 | 89878
6 | 19:58.29 | 4:02.01 | 89879 | 108029
7 | 24:00.30 | 3:47.01 | 108030 | 125055
8 | 27:47.31 | 3:30.44 | 125056 | 140849
9 | 31:18.00 | 4:01.55 | 140850 | 158979
10 | 35:19.55 | 5:21.16 | 158980 | 183070


Track 1

Filename D:\#cdr\#wav+flac\#Add\Lou Gramm - Questions And Answers\cd 1\01. Lou Gramm - Ready Or Not.wav

Pre-gap length 0:00:02.00

Peak level 97.0 %
Extraction speed 1.0 X
Track quality 99.9 %
Test CRC 77084616
Copy CRC 77084616
Track not present in AccurateRip database
Copy OK

Track 2

Filename D:\#cdr\#wav+flac\#Add\Lou Gramm - Questions And Answers\cd 1\02. Lou Gramm - Heartache.wav

Pre-gap length 0:00:02.00

Peak level 97.0 %
Extraction speed 1.1 X
Track quality 100.0 %
Test CRC F33D67D4
Copy CRC F33D67D4
Track not present in AccurateRip database
Copy OK

Track 3

Filename D:\#cdr\#wav+flac\#Add\Lou Gramm - Questions And Answers\cd 1\03. Lou Gramm - Midnight Blue.wav

Pre-gap length 0:00:02.01

Peak level 97.0 %
Extraction speed 1.2 X
Track quality 100.0 %
Test CRC 59E1A9FD
Copy CRC 59E1A9FD
Track not present in AccurateRip database
Copy OK

Track 4

Filename D:\#cdr\#wav+flac\#Add\Lou Gramm - Questions And Answers\cd 1\04. Lou Gramm - Time.wav

Pre-gap length 0:00:02.29

Peak level 97.0 %
Extraction speed 1.3 X
Track quality 100.0 %
Test CRC 6BD937FB
Copy CRC 6BD937FB
Track not present in AccurateRip database
Copy OK

Track 5

Filename D:\#cdr\#wav+flac\#Add\Lou Gramm - Questions And Answers\cd 1\05. Lou Gramm - If I Don't Have You.wav

Peak level 97.0 %
Extraction speed 1.4 X
Track quality 100.0 %
Test CRC DAB4A88D
Copy CRC DAB4A88D
Track not present in AccurateRip database
Copy OK

Track 6

Filename D:\#cdr\#wav+flac\#Add\Lou Gramm - Questions And Answers\cd 1\06. Lou Gramm - She's Got To Know.wav

Pre-gap length 0:00:01.05

Peak level 97.0 %
Extraction speed 1.4 X
Track quality 99.9 %
Test CRC 3289C534
Copy CRC 3289C534
Track not present in AccurateRip database
Copy OK

Track 7

Filename D:\#cdr\#wav+flac\#Add\Lou Gramm - Questions And Answers\cd 1\07. Lou Gramm - Arrow Thru Your Heart.wav

Pre-gap length 0:00:01.77

Peak level 97.0 %
Extraction speed 1.6 X
Track quality 100.0 %
Test CRC 605C0C30
Copy CRC 605C0C30
Track not present in AccurateRip database
Copy OK

Track 8

Filename D:\#cdr\#wav+flac\#Add\Lou Gramm - Questions And Answers\cd 1\08. Lou Gramm - Until I Make You Mine.wav

Pre-gap length 0:00:01.44

Peak level 97.0 %
Extraction speed 1.6 X
Track quality 100.0 %
Test CRC 4D8326BB
Copy CRC 4D8326BB
Track not present in AccurateRip database
Copy OK

Track 9

Filename D:\#cdr\#wav+flac\#Add\Lou Gramm - Questions And Answers\cd 1\09. Lou Gramm - Chain Of Love.wav

Pre-gap length 0:00:01.78

Peak level 97.0 %
Extraction speed 1.7 X
Track quality 100.0 %
Test CRC 8C92D9F5
Copy CRC 8C92D9F5
Track not present in AccurateRip database
Copy OK

Track 10

Filename D:\#cdr\#wav+flac\#Add\Lou Gramm - Questions And Answers\cd 1\10. Lou Gramm - Lover Come Back.wav

Pre-gap length 0:00:02.22

Peak level 97.0 %
Extraction speed 1.9 X
Track quality 100.0 %
Test CRC 81319576
Copy CRC 81319576
Track not present in AccurateRip database
Copy OK


None of the tracks are present in the AccurateRip database

No errors occurred

End of status report

–– CUETools DB Plugin V2.1.6

[CTDB TOCID: uNQU9nXWJsp08bJLSXUF.Wreu.k-] found
Submit result: uNQU9nXWJsp08bJLSXUF.Wreu.k- has been confirmed
Track | CTDB Status
1 | (9/9) Accurately ripped
2 | (9/9) Accurately ripped
3 | (9/9) Accurately ripped
4 | (9/9) Accurately ripped
5 | (9/9) Accurately ripped
6 | (9/9) Accurately ripped
7 | (9/9) Accurately ripped
8 | (9/9) Accurately ripped
9 | (9/9) Accurately ripped
10 | (9/9) Accurately ripped


==== Log checksum 59B27736BA5C32616AA680ABF5258A8EFC4DE5EE9A13E7574B9C332449C4A5AF ====

––––––––––––––––––––––––––––––

Exact Audio Copy V1.3 from 2. September 2016

EAC extraction logfile from 5. August 2021, 8:42

Lou Gramm / Ready Or Not

Used drive : HL-DT-STBD-RE BH16NS55 Adapter: 1 ID: 0

Read mode : Secure
Utilize accurate stream : Yes
Defeat audio cache : Yes
Make use of C2 pointers : No

Read offset correction : 6
Overread into Lead-In and Lead-Out : No
Fill up missing offset samples with silence : Yes
Delete leading and trailing silent blocks : No
Null samples used in CRC calculations : Yes
Used interface : Native Win32 interface for Win NT & 2000
Gap handling : Appended to previous track

Used output format : User Defined Encoder
Selected bitrate : 1024 kBit/s
Quality : High
Add ID3 tag : No
Command line compressor : C:\Program Files (x86)\Exact Audio Copy\Flac\flac.exe
Additional command line options : -8 -V -T "ARTIST=%artist%" -T "TITLE=%title%" -T "ALBUM=%albumtitle%" -T "DATE=%year%" -T "TRACKNUMBER=%tracknr%" -T "GENRE=%genre%" -T "PERFORMER=%albuminterpret%" -T "COMPOSER=%composer%" %haslyrics%–tag-from-file=LYRICS="%lyricsfile%"%haslyrics% -T "ALBUMARTIST=%albumartist%" -T "DISCNUMBER=%cdnumber%" -T "TOTALDISCS=%totalcds%" -T "TOTALTRACKS=%numtracks%" -T "COMMENT=%comment%" %source% -o %dest%


TOC of the extracted CD

Track | Start | Length | Start sector | End sector
––––––––––––––––––––––––––––-
1 | 0:00.00 | 3:30.12 | 0 | 15761
2 | 3:30.12 | 4:28.72 | 15762 | 35933
3 | 7:59.09 | 3:56.74 | 35934 | 53707
4 | 11:56.08 | 3:22.69 | 53708 | 68926
5 | 15:19.02 | 4:39.27 | 68927 | 89878
6 | 19:58.29 | 4:02.01 | 89879 | 108029
7 | 24:00.30 | 3:47.01 | 108030 | 125055
8 | 27:47.31 | 3:30.44 | 125056 | 140849
9 | 31:18.00 | 4:01.55 | 140850 | 158979
10 | 35:19.55 | 5:21.16 | 158980 | 183070


Track 1

Filename D:\#cdr\#wav+flac\#Add\Lou Gramm - Questions And Answers\cd 1\01. Lou Gramm - Ready Or Not.wav

Pre-gap length 0:00:02.00

Peak level 97.0 %
Extraction speed 1.0 X
Track quality 99.9 %
Test CRC 77084616
Copy CRC 77084616
Track not present in AccurateRip database
Copy OK

Track 2

Filename D:\#cdr\#wav+flac\#Add\Lou Gramm - Questions And Answers\cd 1\02. Lou Gramm - Heartache.wav

Pre-gap length 0:00:02.00

Peak level 97.0 %
Extraction speed 1.1 X
Track quality 100.0 %
Test CRC F33D67D4
Copy CRC F33D67D4
Track not present in AccurateRip database
Copy OK

Track 3

Filename D:\#cdr\#wav+flac\#Add\Lou Gramm - Questions And Answers\cd 1\03. Lou Gramm - Midnight Blue.wav

Pre-gap length 0:00:02.01

Peak level 97.0 %
Extraction speed 1.2 X
Track quality 100.0 %
Test CRC 59E1A9FD
Copy CRC 59E1A9FD
Track not present in AccurateRip database
Copy OK

Track 4

Filename D:\#cdr\#wav+flac\#Add\Lou Gramm - Questions And Answers\cd 1\04. Lou Gramm - Time.wav

Pre-gap length 0:00:02.29

Peak level 97.0 %
Extraction speed 1.3 X
Track quality 100.0 %
Test CRC 6BD937FB
Copy CRC 6BD937FB
Track not present in AccurateRip database
Copy OK

Track 5

Filename D:\#cdr\#wav+flac\#Add\Lou Gramm - Questions And Answers\cd 1\05. Lou Gramm - If I Don't Have You.wav

Peak level 97.0 %
Extraction speed 1.4 X
Track quality 100.0 %
Test CRC DAB4A88D
Copy CRC DAB4A88D
Track not present in AccurateRip database
Copy OK

Track 6

Filename D:\#cdr\#wav+flac\#Add\Lou Gramm - Questions And Answers\cd 1\06. Lou Gramm - She's Got To Know.wav

Pre-gap length 0:00:01.05

Peak level 97.0 %
Extraction speed 1.4 X
Track quality 99.9 %
Test CRC 3289C534
Copy CRC 3289C534
Track not present in AccurateRip database
Copy OK

Track 7

Filename D:\#cdr\#wav+flac\#Add\Lou Gramm - Questions And Answers\cd 1\07. Lou Gramm - Arrow Thru Your Heart.wav

Pre-gap length 0:00:01.77

Peak level 97.0 %
Extraction speed 1.6 X
Track quality 100.0 %
Test CRC 605C0C30
Copy CRC 605C0C30
Track not present in AccurateRip database
Copy OK

Track 8

Filename D:\#cdr\#wav+flac\#Add\Lou Gramm - Questions And Answers\cd 1\08. Lou Gramm - Until I Make You Mine.wav

Pre-gap length 0:00:01.44

Peak level 97.0 %
Extraction speed 1.6 X
Track quality 100.0 %
Test CRC 4D8326BB
Copy CRC 4D8326BB
Track not present in AccurateRip database
Copy OK

Track 9

Filename D:\#cdr\#wav+flac\#Add\Lou Gramm - Questions And Answers\cd 1\09. Lou Gramm - Chain Of Love.wav

Pre-gap length 0:00:01.78

Peak level 97.0 %
Extraction speed 1.7 X
Track quality 100.0 %
Test CRC 8C92D9F5
Copy CRC 8C92D9F5
Track not present in AccurateRip database
Copy OK

Track 10

Filename D:\#cdr\#wav+flac\#Add\Lou Gramm - Questions And Answers\cd 1\10. Lou Gramm - Lover Come Back.wav

Pre-gap length 0:00:02.22

Peak level 97.0 %
Extraction speed 1.9 X
Track quality 100.0 %
Test CRC 81319576
Copy CRC 81319576
Track not present in AccurateRip database
Copy OK


None of the tracks are present in the AccurateRip database

No errors occurred

End of status report

–– CUETools DB Plugin V2.1.6

[CTDB TOCID: uNQU9nXWJsp08bJLSXUF.Wreu.k-] found
Submit result: uNQU9nXWJsp08bJLSXUF.Wreu.k- has been confirmed
Track | CTDB Status
1 | (9/9) Accurately ripped
2 | (9/9) Accurately ripped
3 | (9/9) Accurately ripped
4 | (9/9) Accurately ripped
5 | (9/9) Accurately ripped
6 | (9/9) Accurately ripped
7 | (9/9) Accurately ripped
8 | (9/9) Accurately ripped
9 | (9/9) Accurately ripped
10 | (9/9) Accurately ripped


==== Log checksum 59B27736BA5C32616AA680ABF5258A8EFC4DE5EE9A13E7574B9C332449C4A5AF ====
Exact Audio Copy V1.3 from 2. September 2016

EAC extraction logfile from 5. August 2021, 11:02

Lou Gramm / Long Hard Look

Used drive : HL-DT-STBD-RE BH16NS55 Adapter: 1 ID: 0

Read mode : Secure
Utilize accurate stream : Yes
Defeat audio cache : Yes
Make use of C2 pointers : No

Read offset correction : 6
Overread into Lead-In and Lead-Out : No
Fill up missing offset samples with silence : Yes
Delete leading and trailing silent blocks : No
Null samples used in CRC calculations : Yes
Used interface : Native Win32 interface for Win NT & 2000
Gap handling : Appended to previous track

Used output format : User Defined Encoder
Selected bitrate : 1024 kBit/s
Quality : High
Add ID3 tag : No
Command line compressor : C:\Program Files (x86)\Exact Audio Copy\Flac\flac.exe
Additional command line options : -8 -V -T "ARTIST=%artist%" -T "TITLE=%title%" -T "ALBUM=%albumtitle%" -T "DATE=%year%" -T "TRACKNUMBER=%tracknr%" -T "GENRE=%genre%" -T "PERFORMER=%albuminterpret%" -T "COMPOSER=%composer%" %haslyrics%–tag-from-file=LYRICS="%lyricsfile%"%haslyrics% -T "ALBUMARTIST=%albumartist%" -T "DISCNUMBER=%cdnumber%" -T "TOTALDISCS=%totalcds%" -T "TOTALTRACKS=%numtracks%" -T "COMMENT=%comment%" %source% -o %dest%


TOC of the extracted CD

Track | Start | Length | Start sector | End sector
––––––––––––––––––––––––––––-
1 | 0:00.00 | 5:13.70 | 0 | 23544
2 | 5:13.70 | 4:56.03 | 23545 | 45747
3 | 10:09.73 | 5:54.13 | 45748 | 72310
4 | 16:04.11 | 4:57.14 | 72311 | 94599
5 | 21:01.25 | 4:06.22 | 94600 | 113071
6 | 25:07.47 | 3:38.08 | 113072 | 129429
7 | 28:45.55 | 5:11.16 | 129430 | 152770
8 | 33:56.71 | 3:17.46 | 152771 | 167591
9 | 37:14.42 | 4:33.59 | 167592 | 188125
10 | 41:48.26 | 3:25.38 | 188126 | 203538


Track 1

Filename D:\#cdr\#wav+flac\#Add\Lou Gramm - Questions And Answers\cd 2\01. Lou Gramm - Angel With a Dirty Face.wav

Pre-gap length 0:00:02.00

Peak level 97.0 %
Extraction speed 1.1 X
Track quality 100.0 %
Test CRC 6C39791C
Copy CRC 6C39791C
Track not present in AccurateRip database
Copy OK

Track 2

Filename D:\#cdr\#wav+flac\#Add\Lou Gramm - Questions And Answers\cd 2\02. Lou Gramm - Just Between You and Me.wav

Pre-gap length 0:00:01.64

Peak level 97.0 %
Extraction speed 1.2 X
Track quality 100.0 %
Test CRC 60A475F3
Copy CRC 60A475F3
Track not present in AccurateRip database
Copy OK

Track 3

Filename D:\#cdr\#wav+flac\#Add\Lou Gramm - Questions And Answers\cd 2\03. Lou Gramm - Broken Dreams.wav

Pre-gap length 0:00:01.68

Peak level 97.0 %
Extraction speed 1.4 X
Track quality 100.0 %
Test CRC 7E8C5A29
Copy CRC 7E8C5A29
Track not present in AccurateRip database
Copy OK

Track 4

Filename D:\#cdr\#wav+flac\#Add\Lou Gramm - Questions And Answers\cd 2\04. Lou Gramm - True Blue Love.wav

Pre-gap length 0:00:01.57

Peak level 97.0 %
Extraction speed 1.5 X
Track quality 100.0 %
Test CRC 723F9A1C
Copy CRC 723F9A1C
Track not present in AccurateRip database
Copy OK

Track 5

Filename D:\#cdr\#wav+flac\#Add\Lou Gramm - Questions And Answers\cd 2\05. Lou Gramm - I'll Come Running.wav

Pre-gap length 0:00:00.69

Peak level 97.0 %
Extraction speed 1.5 X
Track quality 99.9 %
Test CRC 35A04440
Copy CRC 35A04440
Track not present in AccurateRip database
Copy OK

Track 6

Filename D:\#cdr\#wav+flac\#Add\Lou Gramm - Questions And Answers\cd 2\06. Lou Gramm - Hangin' On My Hip.wav

Pre-gap length 0:00:01.49

Peak level 97.0 %
Extraction speed 1.5 X
Track quality 99.9 %
Test CRC A46F60A0
Copy CRC A46F60A0
Track not present in AccurateRip database
Copy OK

Track 7

Filename D:\#cdr\#wav+flac\#Add\Lou Gramm - Questions And Answers\cd 2\07. Lou Gramm - Warmest Rising Sun.wav

Pre-gap length 0:00:01.13

Peak level 97.0 %
Extraction speed 1.8 X
Track quality 100.0 %
Test CRC 145C5BDD
Copy CRC 145C5BDD
Track not present in AccurateRip database
Copy OK

Track 8

Filename D:\#cdr\#wav+flac\#Add\Lou Gramm - Questions And Answers\cd 2\08. Lou Gramm - Day One.wav

Pre-gap length 0:00:01.26

Peak level 97.0 %
Extraction speed 1.7 X
Track quality 100.0 %
Test CRC 1732AA8F
Copy CRC 1732AA8F
Track not present in AccurateRip database
Copy OK

Track 9

Filename D:\#cdr\#wav+flac\#Add\Lou Gramm - Questions And Answers\cd 2\09. Lou Gramm - I'll Know When It's Over.wav

Pre-gap length 0:00:00.14

Peak level 97.0 %
Extraction speed 1.9 X
Track quality 100.0 %
Test CRC 3D193477
Copy CRC 3D193477
Track not present in AccurateRip database
Copy OK

Track 10

Filename D:\#cdr\#wav+flac\#Add\Lou Gramm - Questions And Answers\cd 2\10. Lou Gramm - Tin Soldier.wav

Pre-gap length 0:00:02.81

Peak level 97.0 %
Extraction speed 1.7 X
Track quality 99.9 %
Test CRC 5375540D
Copy CRC 5375540D
Track not present in AccurateRip database
Copy OK


None of the tracks are present in the AccurateRip database

No errors occurred

End of status report

–– CUETools DB Plugin V2.1.6

[CTDB TOCID: l2aGN4OG2xBiNuFTfRcGz97NlRg-] found
Submit result: l2aGN4OG2xBiNuFTfRcGz97NlRg- has been confirmed
Track | CTDB Status
1 | (9/9) Accurately ripped
2 | (9/9) Accurately ripped
3 | (9/9) Accurately ripped
4 | (9/9) Accurately ripped
5 | (9/9) Accurately ripped
6 | (9/9) Accurately ripped
7 | (9/9) Accurately ripped
8 | (9/9) Accurately ripped
9 | (9/9) Accurately ripped
10 | (9/9) Accurately ripped


==== Log checksum DD3FCF7673A23EA73FCFF175243BF6B62928B500F95145642249C16CA624E775 ====

––––––––––––––––––––––––––––––

Exact Audio Copy V1.3 from 2. September 2016

EAC extraction logfile from 5. August 2021, 11:02

Lou Gramm / Long Hard Look

Used drive : HL-DT-STBD-RE BH16NS55 Adapter: 1 ID: 0

Read mode : Secure
Utilize accurate stream : Yes
Defeat audio cache : Yes
Make use of C2 pointers : No

Read offset correction : 6
Overread into Lead-In and Lead-Out : No
Fill up missing offset samples with silence : Yes
Delete leading and trailing silent blocks : No
Null samples used in CRC calculations : Yes
Used interface : Native Win32 interface for Win NT & 2000
Gap handling : Appended to previous track

Used output format : User Defined Encoder
Selected bitrate : 1024 kBit/s
Quality : High
Add ID3 tag : No
Command line compressor : C:\Program Files (x86)\Exact Audio Copy\Flac\flac.exe
Additional command line options : -8 -V -T "ARTIST=%artist%" -T "TITLE=%title%" -T "ALBUM=%albumtitle%" -T "DATE=%year%" -T "TRACKNUMBER=%tracknr%" -T "GENRE=%genre%" -T "PERFORMER=%albuminterpret%" -T "COMPOSER=%composer%" %haslyrics%–tag-from-file=LYRICS="%lyricsfile%"%haslyrics% -T "ALBUMARTIST=%albumartist%" -T "DISCNUMBER=%cdnumber%" -T "TOTALDISCS=%totalcds%" -T "TOTALTRACKS=%numtracks%" -T "COMMENT=%comment%" %source% -o %dest%


TOC of the extracted CD

Track | Start | Length | Start sector | End sector
––––––––––––––––––––––––––––-
1 | 0:00.00 | 5:13.70 | 0 | 23544
2 | 5:13.70 | 4:56.03 | 23545 | 45747
3 | 10:09.73 | 5:54.13 | 45748 | 72310
4 | 16:04.11 | 4:57.14 | 72311 | 94599
5 | 21:01.25 | 4:06.22 | 94600 | 113071
6 | 25:07.47 | 3:38.08 | 113072 | 129429
7 | 28:45.55 | 5:11.16 | 129430 | 152770
8 | 33:56.71 | 3:17.46 | 152771 | 167591
9 | 37:14.42 | 4:33.59 | 167592 | 188125
10 | 41:48.26 | 3:25.38 | 188126 | 203538


Track 1

Filename D:\#cdr\#wav+flac\#Add\Lou Gramm - Questions And Answers\cd 2\01. Lou Gramm - Angel With a Dirty Face.wav

Pre-gap length 0:00:02.00

Peak level 97.0 %
Extraction speed 1.1 X
Track quality 100.0 %
Test CRC 6C39791C
Copy CRC 6C39791C
Track not present in AccurateRip database
Copy OK

Track 2

Filename D:\#cdr\#wav+flac\#Add\Lou Gramm - Questions And Answers\cd 2\02. Lou Gramm - Just Between You and Me.wav

Pre-gap length 0:00:01.64

Peak level 97.0 %
Extraction speed 1.2 X
Track quality 100.0 %
Test CRC 60A475F3
Copy CRC 60A475F3
Track not present in AccurateRip database
Copy OK

Track 3

Filename D:\#cdr\#wav+flac\#Add\Lou Gramm - Questions And Answers\cd 2\03. Lou Gramm - Broken Dreams.wav

Pre-gap length 0:00:01.68

Peak level 97.0 %
Extraction speed 1.4 X
Track quality 100.0 %
Test CRC 7E8C5A29
Copy CRC 7E8C5A29
Track not present in AccurateRip database
Copy OK

Track 4

Filename D:\#cdr\#wav+flac\#Add\Lou Gramm - Questions And Answers\cd 2\04. Lou Gramm - True Blue Love.wav

Pre-gap length 0:00:01.57

Peak level 97.0 %
Extraction speed 1.5 X
Track quality 100.0 %
Test CRC 723F9A1C
Copy CRC 723F9A1C
Track not present in AccurateRip database
Copy OK

Track 5

Filename D:\#cdr\#wav+flac\#Add\Lou Gramm - Questions And Answers\cd 2\05. Lou Gramm - I'll Come Running.wav

Pre-gap length 0:00:00.69

Peak level 97.0 %
Extraction speed 1.5 X
Track quality 99.9 %
Test CRC 35A04440
Copy CRC 35A04440
Track not present in AccurateRip database
Copy OK

Track 6

Filename D:\#cdr\#wav+flac\#Add\Lou Gramm - Questions And Answers\cd 2\06. Lou Gramm - Hangin' On My Hip.wav

Pre-gap length 0:00:01.49

Peak level 97.0 %
Extraction speed 1.5 X
Track quality 99.9 %
Test CRC A46F60A0
Copy CRC A46F60A0
Track not present in AccurateRip database
Copy OK

Track 7

Filename D:\#cdr\#wav+flac\#Add\Lou Gramm - Questions And Answers\cd 2\07. Lou Gramm - Warmest Rising Sun.wav

Pre-gap length 0:00:01.13

Peak level 97.0 %
Extraction speed 1.8 X
Track quality 100.0 %
Test CRC 145C5BDD
Copy CRC 145C5BDD
Track not present in AccurateRip database
Copy OK

Track 8

Filename D:\#cdr\#wav+flac\#Add\Lou Gramm - Questions And Answers\cd 2\08. Lou Gramm - Day One.wav

Pre-gap length 0:00:01.26

Peak level 97.0 %
Extraction speed 1.7 X
Track quality 100.0 %
Test CRC 1732AA8F
Copy CRC 1732AA8F
Track not present in AccurateRip database
Copy OK

Track 9

Filename D:\#cdr\#wav+flac\#Add\Lou Gramm - Questions And Answers\cd 2\09. Lou Gramm - I'll Know When It's Over.wav

Pre-gap length 0:00:00.14

Peak level 97.0 %
Extraction speed 1.9 X
Track quality 100.0 %
Test CRC 3D193477
Copy CRC 3D193477
Track not present in AccurateRip database
Copy OK

Track 10

Filename D:\#cdr\#wav+flac\#Add\Lou Gramm - Questions And Answers\cd 2\10. Lou Gramm - Tin Soldier.wav

Pre-gap length 0:00:02.81

Peak level 97.0 %
Extraction speed 1.7 X
Track quality 99.9 %
Test CRC 5375540D
Copy CRC 5375540D
Track not present in AccurateRip database
Copy OK


None of the tracks are present in the AccurateRip database

No errors occurred

End of status report

–– CUETools DB Plugin V2.1.6

[CTDB TOCID: l2aGN4OG2xBiNuFTfRcGz97NlRg-] found
Submit result: l2aGN4OG2xBiNuFTfRcGz97NlRg- has been confirmed
Track | CTDB Status
1 | (9/9) Accurately ripped
2 | (9/9) Accurately ripped
3 | (9/9) Accurately ripped
4 | (9/9) Accurately ripped
5 | (9/9) Accurately ripped
6 | (9/9) Accurately ripped
7 | (9/9) Accurately ripped
8 | (9/9) Accurately ripped
9 | (9/9) Accurately ripped
10 | (9/9) Accurately ripped


==== Log checksum DD3FCF7673A23EA73FCFF175243BF6B62928B500F95145642249C16CA624E775 ====
Exact Audio Copy V1.3 from 2. September 2016

EAC extraction logfile from 5. August 2021, 9:59

Lou Gramm / Questions And Answers

Used drive : HL-DT-STBD-RE BH16NS55 Adapter: 1 ID: 0

Read mode : Secure
Utilize accurate stream : Yes
Defeat audio cache : Yes
Make use of C2 pointers : No

Read offset correction : 6
Overread into Lead-In and Lead-Out : No
Fill up missing offset samples with silence : Yes
Delete leading and trailing silent blocks : No
Null samples used in CRC calculations : Yes
Used interface : Native Win32 interface for Win NT & 2000
Gap handling : Appended to previous track

Used output format : User Defined Encoder
Selected bitrate : 1024 kBit/s
Quality : High
Add ID3 tag : No
Command line compressor : C:\Program Files (x86)\Exact Audio Copy\Flac\flac.exe
Additional command line options : -8 -V -T "ARTIST=%artist%" -T "TITLE=%title%" -T "ALBUM=%albumtitle%" -T "DATE=%year%" -T "TRACKNUMBER=%tracknr%" -T "GENRE=%genre%" -T "PERFORMER=%albuminterpret%" -T "COMPOSER=%composer%" %haslyrics%–tag-from-file=LYRICS="%lyricsfile%"%haslyrics% -T "ALBUMARTIST=%albumartist%" -T "DISCNUMBER=%cdnumber%" -T "TOTALDISCS=%totalcds%" -T "TOTALTRACKS=%numtracks%" -T "COMMENT=%comment%" %source% -o %dest%


TOC of the extracted CD

Track | Start | Length | Start sector | End sector
––––––––––––––––––––––––––––-
1 | 0:00.00 | 4:47.50 | 0 | 21574
2 | 4:47.50 | 6:34.65 | 21575 | 51189
3 | 11:22.40 | 5:13.15 | 51190 | 74679
4 | 16:35.55 | 7:03.51 | 74680 | 106455
5 | 23:39.31 | 6:24.50 | 106456 | 135305
6 | 30:04.06 | 5:20.37 | 135306 | 159342
7 | 35:24.43 | 4:21.57 | 159343 | 178974
8 | 39:46.25 | 24:36.41 | 178975 | 289715


Track 1

Filename D:\#cdr\#wav+flac\#Add\Lou Gramm - Questions And Answers\cd 3\01. Lou Gramm - Lost In The Shadows (Lost Boys) [Vocal Edit].wav

Pre-gap length 0:00:02.00

Peak level 97.0 %
Extraction speed 1.1 X
Track quality 100.0 %
Test CRC 62DA41A7
Copy CRC 62DA41A7
Track not present in AccurateRip database
Copy OK

Track 2

Filename D:\#cdr\#wav+flac\#Add\Lou Gramm - Questions And Answers\cd 3\02. Lou Gramm - Lost in the Shadows (The Lost Boys).wav

Pre-gap length 0:00:01.05

Peak level 97.0 %
Extraction speed 1.3 X
Track quality 100.0 %
Test CRC 3607AEB3
Copy CRC 3607AEB3
Track not present in AccurateRip database
Copy OK

Track 3

Filename D:\#cdr\#wav+flac\#Add\Lou Gramm - Questions And Answers\cd 3\03. Lou Gramm - Ready Or Not (Rock Remix).wav

Pre-gap length 0:00:01.13

Peak level 96.3 %
Extraction speed 1.4 X
Track quality 100.0 %
Test CRC FAACE52A
Copy CRC FAACE52A
Track not present in AccurateRip database
Copy OK

Track 4

Filename D:\#cdr\#wav+flac\#Add\Lou Gramm - Questions And Answers\cd 3\04. Lou Gramm - Ready Or Not (Extended Dance Mix).wav

Pre-gap length 0:00:00.73

Peak level 95.2 %
Extraction speed 1.6 X
Track quality 100.0 %
Test CRC 1BA6FF4A
Copy CRC 1BA6FF4A
Track not present in AccurateRip database
Copy OK

Track 5

Filename D:\#cdr\#wav+flac\#Add\Lou Gramm - Questions And Answers\cd 3\05. Lou Gramm - Ready Or Not (Instrumental Remix).wav

Pre-gap length 0:00:01.73

Peak level 95.2 %
Extraction speed 1.7 X
Track quality 100.0 %
Test CRC 3EF7553A
Copy CRC 3EF7553A
Track not present in AccurateRip database
Copy OK

Track 6

Filename D:\#cdr\#wav+flac\#Add\Lou Gramm - Questions And Answers\cd 3\06. Lou Gramm - Midnight Blue (Extended Mix).wav

Pre-gap length 0:00:01.13

Peak level 91.9 %
Extraction speed 1.8 X
Track quality 100.0 %
Test CRC 8F898C6D
Copy CRC 8F898C6D
Track not present in AccurateRip database
Copy OK

Track 7

Filename D:\#cdr\#wav+flac\#Add\Lou Gramm - Questions And Answers\cd 3\07. Lou Gramm - True Blue Love (Edit).wav

Pre-gap length 0:00:01.05

Peak level 89.9 %
Extraction speed 1.8 X
Track quality 100.0 %
Test CRC F078A019
Copy CRC F078A019
Track not present in AccurateRip database
Copy OK

Track 8

Filename D:\#cdr\#wav+flac\#Add\Lou Gramm - Questions And Answers\cd 3\08. Lou Gramm - Questions and Answers (Promo Interview).wav

Pre-gap length 0:00:02.42

Peak level 97.0 %
Extraction speed 2.3 X
Track quality 100.0 %
Test CRC 1C5A11E0
Copy CRC 1C5A11E0
Track not present in AccurateRip database
Copy OK


None of the tracks are present in the AccurateRip database

No errors occurred

End of status report

–– CUETools DB Plugin V2.1.6

[CTDB TOCID: U15viBeJov.Yp_oO0ZtTydIbMcg-] found
Submit result: U15viBeJov.Yp_oO0ZtTydIbMcg- has been confirmed
Track | CTDB Status
1 | (8/8) Accurately ripped
2 | (8/8) Accurately ripped
3 | (8/8) Accurately ripped
4 | (8/8) Accurately ripped
5 | (8/8) Accurately ripped
6 | (8/8) Accurately ripped
7 | (8/8) Accurately ripped
8 | (6/8) Accurately ripped


==== Log checksum 14B59C9A8B31FB98C5DC8B61556DA5CE8DC22DC22530764BBF19244709AA11A6 ====

––––––––––––––––––––––––––––––

Exact Audio Copy V1.3 from 2. September 2016

EAC extraction logfile from 5. August 2021, 9:59

Lou Gramm / Questions And Answers

Used drive : HL-DT-STBD-RE BH16NS55 Adapter: 1 ID: 0

Read mode : Secure
Utilize accurate stream : Yes
Defeat audio cache : Yes
Make use of C2 pointers : No

Read offset correction : 6
Overread into Lead-In and Lead-Out : No
Fill up missing offset samples with silence : Yes
Delete leading and trailing silent blocks : No
Null samples used in CRC calculations : Yes
Used interface : Native Win32 interface for Win NT & 2000
Gap handling : Appended to previous track

Used output format : User Defined Encoder
Selected bitrate : 1024 kBit/s
Quality : High
Add ID3 tag : No
Command line compressor : C:\Program Files (x86)\Exact Audio Copy\Flac\flac.exe
Additional command line options : -8 -V -T "ARTIST=%artist%" -T "TITLE=%title%" -T "ALBUM=%albumtitle%" -T "DATE=%year%" -T "TRACKNUMBER=%tracknr%" -T "GENRE=%genre%" -T "PERFORMER=%albuminterpret%" -T "COMPOSER=%composer%" %haslyrics%–tag-from-file=LYRICS="%lyricsfile%"%haslyrics% -T "ALBUMARTIST=%albumartist%" -T "DISCNUMBER=%cdnumber%" -T "TOTALDISCS=%totalcds%" -T "TOTALTRACKS=%numtracks%" -T "COMMENT=%comment%" %source% -o %dest%


TOC of the extracted CD

Track | Start | Length | Start sector | End sector
––––––––––––––––––––––––––––-
1 | 0:00.00 | 4:47.50 | 0 | 21574
2 | 4:47.50 | 6:34.65 | 21575 | 51189
3 | 11:22.40 | 5:13.15 | 51190 | 74679
4 | 16:35.55 | 7:03.51 | 74680 | 106455
5 | 23:39.31 | 6:24.50 | 106456 | 135305
6 | 30:04.06 | 5:20.37 | 135306 | 159342
7 | 35:24.43 | 4:21.57 | 159343 | 178974
8 | 39:46.25 | 24:36.41 | 178975 | 289715


Track 1

Filename D:\#cdr\#wav+flac\#Add\Lou Gramm - Questions And Answers\cd 3\01. Lou Gramm - Lost In The Shadows (Lost Boys) [Vocal Edit].wav

Pre-gap length 0:00:02.00

Peak level 97.0 %
Extraction speed 1.1 X
Track quality 100.0 %
Test CRC 62DA41A7
Copy CRC 62DA41A7
Track not present in AccurateRip database
Copy OK

Track 2

Filename D:\#cdr\#wav+flac\#Add\Lou Gramm - Questions And Answers\cd 3\02. Lou Gramm - Lost in the Shadows (The Lost Boys).wav

Pre-gap length 0:00:01.05

Peak level 97.0 %
Extraction speed 1.3 X
Track quality 100.0 %
Test CRC 3607AEB3
Copy CRC 3607AEB3
Track not present in AccurateRip database
Copy OK

Track 3

Filename D:\#cdr\#wav+flac\#Add\Lou Gramm - Questions And Answers\cd 3\03. Lou Gramm - Ready Or Not (Rock Remix).wav

Pre-gap length 0:00:01.13

Peak level 96.3 %
Extraction speed 1.4 X
Track quality 100.0 %
Test CRC FAACE52A
Copy CRC FAACE52A
Track not present in AccurateRip database
Copy OK

Track 4

Filename D:\#cdr\#wav+flac\#Add\Lou Gramm - Questions And Answers\cd 3\04. Lou Gramm - Ready Or Not (Extended Dance Mix).wav

Pre-gap length 0:00:00.73

Peak level 95.2 %
Extraction speed 1.6 X
Track quality 100.0 %
Test CRC 1BA6FF4A
Copy CRC 1BA6FF4A
Track not present in AccurateRip database
Copy OK

Track 5

Filename D:\#cdr\#wav+flac\#Add\Lou Gramm - Questions And Answers\cd 3\05. Lou Gramm - Ready Or Not (Instrumental Remix).wav

Pre-gap length 0:00:01.73

Peak level 95.2 %
Extraction speed 1.7 X
Track quality 100.0 %
Test CRC 3EF7553A
Copy CRC 3EF7553A
Track not present in AccurateRip database
Copy OK

Track 6

Filename D:\#cdr\#wav+flac\#Add\Lou Gramm - Questions And Answers\cd 3\06. Lou Gramm - Midnight Blue (Extended Mix).wav

Pre-gap length 0:00:01.13

Peak level 91.9 %
Extraction speed 1.8 X
Track quality 100.0 %
Test CRC 8F898C6D
Copy CRC 8F898C6D
Track not present in AccurateRip database
Copy OK

Track 7

Filename D:\#cdr\#wav+flac\#Add\Lou Gramm - Questions And Answers\cd 3\07. Lou Gramm - True Blue Love (Edit).wav

Pre-gap length 0:00:01.05

Peak level 89.9 %
Extraction speed 1.8 X
Track quality 100.0 %
Test CRC F078A019
Copy CRC F078A019
Track not present in AccurateRip database
Copy OK

Track 8

Filename D:\#cdr\#wav+flac\#Add\Lou Gramm - Questions And Answers\cd 3\08. Lou Gramm - Questions and Answers (Promo Interview).wav

Pre-gap length 0:00:02.42

Peak level 97.0 %
Extraction speed 2.3 X
Track quality 100.0 %
Test CRC 1C5A11E0
Copy CRC 1C5A11E0
Track not present in AccurateRip database
Copy OK


None of the tracks are present in the AccurateRip database

No errors occurred

End of status report

–– CUETools DB Plugin V2.1.6

[CTDB TOCID: U15viBeJov.Yp_oO0ZtTydIbMcg-] found
Submit result: U15viBeJov.Yp_oO0ZtTydIbMcg- has been confirmed
Track | CTDB Status
1 | (8/8) Accurately ripped
2 | (8/8) Accurately ripped
3 | (8/8) Accurately ripped
4 | (8/8) Accurately ripped
5 | (8/8) Accurately ripped
6 | (8/8) Accurately ripped
7 | (8/8) Accurately ripped
8 | (6/8) Accurately ripped


==== Log checksum 14B59C9A8B31FB98C5DC8B61556DA5CE8DC22DC22530764BBF19244709AA11A6 ====

Thanks to the Original ripper !