Tags
Language
Tags

Ludovico Einaudi - Cinema (2021)

Posted By: delpotro
Ludovico Einaudi - Cinema (2021)

Ludovico Einaudi - Cinema (2021)
EAC Rip | FLAC (tracks+log+.cue) - 559 Mb | MP3 CBR 320 kbps - 323 Mb | 02:20:53
Modern Classical, Soundtrack | Label: Decca Records

Cinema celebrates Ludovico Einaudi's greatest music from the world of film and television in one collection. The composer behind the soundtracks for Nomadland and The Father, Einaudi—the “classical superstar” (The Guardian) and “the most syncable modern composer” (SynchTank)—is one the most streamed classical composers of all time. Cinema features “Experience,” “Nuvole Bianche,” “Fly,” “Una Mattina,” and more.
Tracklist:
1. Ludovico Einaudi, Daniel Hope & I Virtuosi Italiani – Experience (05:16)
2. Ludovico Einaudi, Federico Mecozzi & Redi Hasa – Seven Days Walking / Day 1: Golden Butterflies (05:51)
3. Ludovico Einaudi – Berlin Song (04:23)
4. Ludovico Einaudi & Czech National Symphony Orchestra – Love Is A Mystery (03:04)
5. Ludovico Einaudi – Main Theme (From “The Third Murder” / Remastered 2020) (04:16)
6. Ludovico Einaudi – My Journey (Film Version for "The Father" / David Menke Remix) (03:55)
7. Ludovico Einaudi – The Water Diviner (From "The Water Diviner") (06:45)
8. Ludovico Einaudi & Daniel Hope – Petricor (06:35)
9. Ludovico Einaudi – Fly (04:40)
10. Ludovico Einaudi – Time Lapse (05:32)
11. Ludovico Einaudi – Walk (03:28)
12. Ludovico Einaudi, Federico Mecozzi & Redi Hasa – Seven Days Walking / Day 1: Cold Wind Var. 1 (04:02)
13. Ludovico Einaudi – Ascolta (04:51)
14. Ludovico Einaudi & Czech National Symphony Orchestra – Histoire Sans Nom (From "Sotto Falso Nome") (03:57)
15. Ludovico Einaudi & Marco Decimo – Due Tramonti (04:55)
16. Ludovico Einaudi & I Virtuosi Italiani – Run (05:29)
17. Ludovico Einaudi – Le Onde (05:35)
18. Ludovico Einaudi – L'Origine Nascosta (03:13)
19. Ludovico Einaudi & Czech National Symphony Orchestra – White Night (03:13)
20. Ludovico Einaudi – The Earth Prelude (05:01)
21. Ludovico Einaudi – Oltremare (11:02)
22. Ludovico Einaudi & Marco Decimo – Fairytale (04:01)
23. Ludovico Einaudi, Franco Feruglio, Mauro Loguercio, Gabriele Baffero, Antonello Leofreddi & Marco Decimo – Fuori Dal Mondo (05:02)
24. Ludovico Einaudi – Una Mattina (03:25)
25. Ludovico Einaudi – Nuvole Bianche (06:00)
26. Ludovico Einaudi & PMCE Parco Della Musica Contempornea Ensemble – Newton's Cradle (07:49)
27. Ludovico Einaudi – Dietro Casa (03:51)
28. Ludovico Einaudi, Federico Mecozzi & Redi Hasa – Seven Days Walking / Day 1: Low Mist (05:27)

Exact Audio Copy V1.6 from 23. October 2020

EAC extraction logfile from 3. October 2021, 13:13

Ludovico Einaudi / Cinema

Used drive : ASUS DRW-2014L1T Adapter: 1 ID: 0

Read mode : Secure
Utilize accurate stream : Yes
Defeat audio cache : Yes
Make use of C2 pointers : No

Read offset correction : 6
Overread into Lead-In and Lead-Out : No
Fill up missing offset samples with silence : Yes
Delete leading and trailing silent blocks : No
Null samples used in CRC calculations : Yes
Used interface : Native Win32 interface for Win NT & 2000
Gap handling : Appended to previous track

Used output format : User Defined Encoder
Selected bitrate : 1024 kBit/s
Quality : High
Add ID3 tag : No
Command line compressor : C:\Program Files (x86)\Exact Audio Copy\FLAC\FLAC.EXE
Additional command line options : -6 -V -T "ARTIST=%artist%" -T "TITLE=%title%" -T "ALBUM=%albumtitle%" -T "DATE=%year%" -T "TRACKNUMBER=%tracknr%" -T "GENRE=%genre%" -T "COMMENT=%comment%" -T "BAND=%albuminterpret%" -T "ALBUMARTIST=%albuminterpret%" -T "COMPOSER=%composer%" %haslyrics%–tag-from-file=LYRICS="%lyricsfile%"%haslyrics% -T "DISCNUMBER=%cdnumber%" -T "TOTALDISCS=%totalcds%" -T "TOTALTRACKS=%numtracks%" %hascover%–picture="%coverfile%"%hascover% %source% -o %dest%


TOC of the extracted CD

Track | Start | Length | Start sector | End sector
––––––––––––––––––––––––––––-
1 | 0:00.00 | 5:17.73 | 0 | 23847
2 | 5:17.73 | 5:51.66 | 23848 | 50238
3 | 11:09.64 | 4:23.07 | 50239 | 69970
4 | 15:32.71 | 3:02.67 | 69971 | 83687
5 | 18:35.63 | 4:16.68 | 83688 | 102955
6 | 22:52.56 | 3:55.65 | 102956 | 120645
7 | 26:48.46 | 6:45.33 | 120646 | 151053
8 | 33:34.04 | 6:35.69 | 151054 | 180747
9 | 40:09.73 | 4:40.74 | 180748 | 201821
10 | 44:50.72 | 5:32.33 | 201822 | 226754
11 | 50:23.30 | 3:28.02 | 226755 | 242356
12 | 53:51.32 | 4:02.08 | 242357 | 260514
13 | 57:53.40 | 4:51.51 | 260515 | 282390
14 | 62:45.16 | 3:57.23 | 282391 | 300188


Track 1

Filename C:\Users\JMMY\Desktop\Ludovico Einaudi - Cinema (2021) [FLAC](Decca 485 5912)\01 Experience.wav

Pre-gap length 0:00:02.00

Peak level 57.6 %
Extraction speed 5.4 X
Track quality 100.0 %
Test CRC 3B51EF5B
Copy CRC 3B51EF5B
Accurately ripped (confidence 3) [5B551B00] (AR v2)
Copy OK

Track 2

Filename C:\Users\JMMY\Desktop\Ludovico Einaudi - Cinema (2021) [FLAC](Decca 485 5912)\02 Golden Butterflies - Day 1.wav

Peak level 96.6 %
Extraction speed 6.2 X
Track quality 100.0 %
Test CRC FE40F303
Copy CRC FE40F303
Accurately ripped (confidence 3) [A463D2DA] (AR v2)
Copy OK

Track 3

Filename C:\Users\JMMY\Desktop\Ludovico Einaudi - Cinema (2021) [FLAC](Decca 485 5912)\03 Berlin Song.wav

Peak level 88.9 %
Extraction speed 6.6 X
Track quality 100.0 %
Test CRC 9CFE5735
Copy CRC 9CFE5735
Accurately ripped (confidence 3) [E1104B22] (AR v2)
Copy OK

Track 4

Filename C:\Users\JMMY\Desktop\Ludovico Einaudi - Cinema (2021) [FLAC](Decca 485 5912)\04 Love Is a Mystery.wav

Peak level 92.5 %
Extraction speed 4.7 X
Track quality 99.9 %
Test CRC DFDD59E2
Copy CRC DFDD59E2
Accurately ripped (confidence 3) [62BB877B] (AR v2)
Copy OK

Track 5

Filename C:\Users\JMMY\Desktop\Ludovico Einaudi - Cinema (2021) [FLAC](Decca 485 5912)\05 Main Theme from The Third Murder.wav

Peak level 87.4 %
Extraction speed 6.1 X
Track quality 100.0 %
Test CRC 8A612D02
Copy CRC 8A612D02
Accurately ripped (confidence 3) [9FDABA82] (AR v2)
Copy OK

Track 6

Filename C:\Users\JMMY\Desktop\Ludovico Einaudi - Cinema (2021) [FLAC](Decca 485 5912)\06 My Journey.wav

Peak level 45.8 %
Extraction speed 7.1 X
Track quality 100.0 %
Test CRC DEEE0259
Copy CRC DEEE0259
Accurately ripped (confidence 3) [CBECFDC5] (AR v2)
Copy OK

Track 7

Filename C:\Users\JMMY\Desktop\Ludovico Einaudi - Cinema (2021) [FLAC](Decca 485 5912)\07 The Water Diviner.wav

Peak level 89.0 %
Extraction speed 8.5 X
Track quality 100.0 %
Test CRC 5E29FDCA
Copy CRC 5E29FDCA
Accurately ripped (confidence 3) [ECABC5FB] (AR v2)
Copy OK

Track 8

Filename C:\Users\JMMY\Desktop\Ludovico Einaudi - Cinema (2021) [FLAC](Decca 485 5912)\08 Petricor.wav

Peak level 75.0 %
Extraction speed 9.0 X
Track quality 100.0 %
Test CRC E9C1C35D
Copy CRC E9C1C35D
Accurately ripped (confidence 3) [59827ADF] (AR v2)
Copy OK

Track 9

Filename C:\Users\JMMY\Desktop\Ludovico Einaudi - Cinema (2021) [FLAC](Decca 485 5912)\09 Fly.wav

Peak level 88.9 %
Extraction speed 8.8 X
Track quality 100.0 %
Test CRC F779FDCA
Copy CRC F779FDCA
Accurately ripped (confidence 3) [9335FAB8] (AR v2)
Copy OK

Track 10

Filename C:\Users\JMMY\Desktop\Ludovico Einaudi - Cinema (2021) [FLAC](Decca 485 5912)\10 Time Lapse.wav

Peak level 97.7 %
Extraction speed 9.2 X
Track quality 100.0 %
Test CRC 4F0C3646
Copy CRC 4F0C3646
Accurately ripped (confidence 3) [E638AE39] (AR v2)
Copy OK

Track 11

Filename C:\Users\JMMY\Desktop\Ludovico Einaudi - Cinema (2021) [FLAC](Decca 485 5912)\11 Walk.wav

Peak level 97.7 %
Extraction speed 5.7 X
Track quality 100.0 %
Test CRC 3EC311E1
Copy CRC 3EC311E1
Accurately ripped (confidence 3) [F02DAB00] (AR v2)
Copy OK

Track 12

Filename C:\Users\JMMY\Desktop\Ludovico Einaudi - Cinema (2021) [FLAC](Decca 485 5912)\12 Cold Wind Var 1 - Day 1.wav

Peak level 97.6 %
Extraction speed 7.8 X
Track quality 100.0 %
Test CRC B97564F8
Copy CRC B97564F8
Accurately ripped (confidence 3) [6BAC3BC2] (AR v2)
Copy OK

Track 13

Filename C:\Users\JMMY\Desktop\Ludovico Einaudi - Cinema (2021) [FLAC](Decca 485 5912)\13 Ascolta.wav

Peak level 88.5 %
Extraction speed 6.4 X
Track quality 100.0 %
Test CRC D8F6E1E1
Copy CRC D8F6E1E1
Accurately ripped (confidence 3) [5FFB4F16] (AR v2)
Copy OK

Track 14

Filename C:\Users\JMMY\Desktop\Ludovico Einaudi - Cinema (2021) [FLAC](Decca 485 5912)\14 Historie sans Nom.wav

Peak level 77.3 %
Extraction speed 6.7 X
Track quality 100.0 %
Test CRC 4ECC819B
Copy CRC 4ECC819B
Accurately ripped (confidence 3) [46B09C10] (AR v2)
Copy OK


All tracks accurately ripped

No errors occurred

End of status report

–– CUETools DB Plugin V2.1.6

[CTDB TOCID: 3Lxuy4JK9EW5uegS99D09JSKr60-] found
Submit result: 3Lxuy4JK9EW5uegS99D09JSKr60- has been confirmed
Track | CTDB Status
1 | (43/43) Accurately ripped
2 | (43/43) Accurately ripped
3 | (43/43) Accurately ripped
4 | (43/43) Accurately ripped
5 | (43/43) Accurately ripped
6 | (43/43) Accurately ripped
7 | (43/43) Accurately ripped
8 | (43/43) Accurately ripped
9 | (43/43) Accurately ripped
10 | (43/43) Accurately ripped
11 | (43/43) Accurately ripped
12 | (43/43) Accurately ripped
13 | (43/43) Accurately ripped
14 | (43/43) Accurately ripped


==== Log checksum 7386753D700D12025A17B15293F5370DB7F3D5E1C053056D85B65C0435C2E142 ====
Exact Audio Copy V1.6 from 23. October 2020

EAC extraction logfile from 3. October 2021, 13:36

Ludovico Einaudi / Cinema

Used drive : ASUS DRW-2014L1T Adapter: 1 ID: 0

Read mode : Secure
Utilize accurate stream : Yes
Defeat audio cache : Yes
Make use of C2 pointers : No

Read offset correction : 6
Overread into Lead-In and Lead-Out : No
Fill up missing offset samples with silence : Yes
Delete leading and trailing silent blocks : No
Null samples used in CRC calculations : Yes
Used interface : Native Win32 interface for Win NT & 2000
Gap handling : Appended to previous track

Used output format : User Defined Encoder
Selected bitrate : 1024 kBit/s
Quality : High
Add ID3 tag : No
Command line compressor : C:\Program Files (x86)\Exact Audio Copy\FLAC\FLAC.EXE
Additional command line options : -6 -V -T "ARTIST=%artist%" -T "TITLE=%title%" -T "ALBUM=%albumtitle%" -T "DATE=%year%" -T "TRACKNUMBER=%tracknr%" -T "GENRE=%genre%" -T "COMMENT=%comment%" -T "BAND=%albuminterpret%" -T "ALBUMARTIST=%albuminterpret%" -T "COMPOSER=%composer%" %haslyrics%–tag-from-file=LYRICS="%lyricsfile%"%haslyrics% -T "DISCNUMBER=%cdnumber%" -T "TOTALDISCS=%totalcds%" -T "TOTALTRACKS=%numtracks%" %hascover%–picture="%coverfile%"%hascover% %source% -o %dest%


TOC of the extracted CD

Track | Start | Length | Start sector | End sector
––––––––––––––––––––––––––––-
1 | 0:00.00 | 4:56.19 | 0 | 22218
2 | 4:56.19 | 5:29.32 | 22219 | 46925
3 | 10:25.51 | 5:35.70 | 46926 | 72120
4 | 16:01.46 | 3:13.36 | 72121 | 86631
5 | 19:15.07 | 3:13.46 | 86632 | 101152
6 | 22:28.53 | 5:01.48 | 101153 | 123775
7 | 27:30.26 | 11:02.36 | 123776 | 173461
8 | 38:32.62 | 4:01.58 | 173462 | 191594
9 | 42:34.45 | 5:02.04 | 191595 | 214248
10 | 47:36.49 | 3:25.04 | 214249 | 229627
11 | 51:01.53 | 6:00.71 | 229628 | 256698
12 | 57:02.49 | 7:49.08 | 256699 | 291881
13 | 64:51.57 | 3:51.58 | 291882 | 309264
14 | 68:43.40 | 5:27.45 | 309265 | 333834


Track 1

Filename C:\Users\JMMY\Desktop\Ludovico Einaudi - Cinema (2021) [FLAC](Decca 485 5912)\01 Due Tramonti.wav

Pre-gap length 0:00:02.00

Peak level 84.3 %
Extraction speed 5.7 X
Track quality 100.0 %
Test CRC 3407B1F7
Copy CRC 3407B1F7
Accurately ripped (confidence 3) [C05DF1D2] (AR v2)
Copy OK

Track 2

Filename C:\Users\JMMY\Desktop\Ludovico Einaudi - Cinema (2021) [FLAC](Decca 485 5912)\02 Run.wav

Peak level 70.0 %
Extraction speed 6.5 X
Track quality 100.0 %
Test CRC A9C3E34E
Copy CRC A9C3E34E
Accurately ripped (confidence 3) [F0A7B4EB] (AR v2)
Copy OK

Track 3

Filename C:\Users\JMMY\Desktop\Ludovico Einaudi - Cinema (2021) [FLAC](Decca 485 5912)\03 Le Onde.wav

Peak level 97.1 %
Extraction speed 7.1 X
Track quality 100.0 %
Test CRC EEB92AD3
Copy CRC EEB92AD3
Accurately ripped (confidence 3) [8468624E] (AR v2)
Copy OK

Track 4

Filename C:\Users\JMMY\Desktop\Ludovico Einaudi - Cinema (2021) [FLAC](Decca 485 5912)\04 L´Origine Nascosta.wav

Peak level 64.5 %
Extraction speed 7.0 X
Track quality 100.0 %
Test CRC 5CDAD138
Copy CRC 5CDAD138
Accurately ripped (confidence 3) [91CD2484] (AR v2)
Copy OK

Track 5

Filename C:\Users\JMMY\Desktop\Ludovico Einaudi - Cinema (2021) [FLAC](Decca 485 5912)\05 White Night.wav

Peak level 80.5 %
Extraction speed 7.2 X
Track quality 100.0 %
Test CRC B7949764
Copy CRC B7949764
Accurately ripped (confidence 3) [8C8000A2] (AR v2)
Copy OK

Track 6

Filename C:\Users\JMMY\Desktop\Ludovico Einaudi - Cinema (2021) [FLAC](Decca 485 5912)\06 The Earth Prelude.wav

Peak level 86.7 %
Extraction speed 8.1 X
Track quality 100.0 %
Test CRC 727F2772
Copy CRC 727F2772
Accurately ripped (confidence 3) [1D3C3345] (AR v2)
Copy OK

Track 7

Filename C:\Users\JMMY\Desktop\Ludovico Einaudi - Cinema (2021) [FLAC](Decca 485 5912)\07 Oltremare.wav

Peak level 83.0 %
Extraction speed 9.4 X
Track quality 100.0 %
Test CRC 88F0BDCF
Copy CRC 88F0BDCF
Accurately ripped (confidence 3) [00C25533] (AR v2)
Copy OK

Track 8

Filename C:\Users\JMMY\Desktop\Ludovico Einaudi - Cinema (2021) [FLAC](Decca 485 5912)\08 Fairytale.wav

Peak level 87.2 %
Extraction speed 9.2 X
Track quality 100.0 %
Test CRC B605BC9E
Copy CRC B605BC9E
Accurately ripped (confidence 3) [DD902277] (AR v2)
Copy OK

Track 9

Filename C:\Users\JMMY\Desktop\Ludovico Einaudi - Cinema (2021) [FLAC](Decca 485 5912)\09 Fuori dal Mondo.wav

Peak level 86.1 %
Extraction speed 9.4 X
Track quality 100.0 %
Test CRC 78D34173
Copy CRC 78D34173
Accurately ripped (confidence 3) [BD33E556] (AR v2)
Copy OK

Track 10

Filename C:\Users\JMMY\Desktop\Ludovico Einaudi - Cinema (2021) [FLAC](Decca 485 5912)\10 Una Mattina.wav

Peak level 75.1 %
Extraction speed 9.6 X
Track quality 100.0 %
Test CRC 5870706C
Copy CRC 5870706C
Accurately ripped (confidence 3) [19EF2DA0] (AR v2)
Copy OK

Track 11

Filename C:\Users\JMMY\Desktop\Ludovico Einaudi - Cinema (2021) [FLAC](Decca 485 5912)\11 Nuvole Bianche.wav

Peak level 95.4 %
Extraction speed 10.4 X
Track quality 100.0 %
Test CRC C1514EFA
Copy CRC C1514EFA
Accurately ripped (confidence 3) [3E94B6B1] (AR v2)
Copy OK

Track 12

Filename C:\Users\JMMY\Desktop\Ludovico Einaudi - Cinema (2021) [FLAC](Decca 485 5912)\12 Newton´s Cradle.wav

Peak level 82.8 %
Extraction speed 7.1 X
Track quality 99.9 %
Test CRC C2B4B0A5
Copy CRC C2B4B0A5
Accurately ripped (confidence 3) [1EF8B6D6] (AR v2)
Copy OK

Track 13

Filename C:\Users\JMMY\Desktop\Ludovico Einaudi - Cinema (2021) [FLAC](Decca 485 5912)\13 Dietro Casa.wav

Peak level 97.7 %
Extraction speed 8.8 X
Track quality 100.0 %
Test CRC DB42C679
Copy CRC DB42C679
Accurately ripped (confidence 3) [07D6A859] (AR v2)
Copy OK

Track 14

Filename C:\Users\JMMY\Desktop\Ludovico Einaudi - Cinema (2021) [FLAC](Decca 485 5912)\14 Love Mist - Day 1.wav

Peak level 97.7 %
Extraction speed 7.7 X
Track quality 100.0 %
Test CRC BAA88452
Copy CRC BAA88452
Accurately ripped (confidence 3) [C46BB45B] (AR v2)
Copy OK


All tracks accurately ripped

No errors occurred

End of status report

–– CUETools DB Plugin V2.1.6

[CTDB TOCID: tI0EoLWlEW9zkakDLESEED.5z4s-] found
Submit result: tI0EoLWlEW9zkakDLESEED.5z4s- has been confirmed
Track | CTDB Status
1 | (43/43) Accurately ripped
2 | (43/43) Accurately ripped
3 | (43/43) Accurately ripped
4 | (43/43) Accurately ripped
5 | (43/43) Accurately ripped
6 | (42/43) Accurately ripped
7 | (43/43) Accurately ripped
8 | (43/43) Accurately ripped
9 | (43/43) Accurately ripped
10 | (43/43) Accurately ripped
11 | (43/43) Accurately ripped
12 | (43/43) Accurately ripped
13 | (43/43) Accurately ripped
14 | (43/43) Accurately ripped


==== Log checksum 5244CD395D947AD8D5B993B5D58C9AF873B0F5B47267FFAAC2DEAE5D7A2356FE ====

Thanks to the Original ripper !