Subcategories
Tags
Language
Tags

Moby - Reprise (2021)

Posted By: delpotro
Moby - Reprise (2021)

Moby - Reprise (2021)
EAC Rip | FLAC (tracks+log+.cue) - 409 Mb | MP3 CBR 320 kbps - 162 Mb | 01:10:40
Electronic, Classical | Label: Deutsche Grammophon

Musical pioneer Moby releases his new album Reprise, on Deutsche Grammophon. Reprise sees Moby revisiting and reimagining musical highlights from his 30-year career. Together with the Budapest Art Orchestra, he has re-envisioned some of his most recognizable rave classics and anthems with new arrangements for orchestra and acoustic instruments. He’s also joined by a stellar line-up of guest artists from across the musical spectrum, including Alice Skye, Amythyst Kiah, Apollo Jane, Darlingside, Gregory Porter, Jim James, Kris Kristofferson, Luna Li, Mark Lanegan, Mindy Jones, Nataly Dawn, Skylar Grey and Vikingur Ólafsson.
Tracklist:
1. Everloving (Reprise Version) (03:19)
2. Natural Blues (feat. Gregory Porter & Amythyst Kiah) [Reprise Version] (04:30)
3. Go (Reprise Version) (03:42)
4. Porcelain (feat. Jim James) [Reprise Version] (05:53)
5. Extreme Ways (Reprise Version) (04:58)
6. Heroes (feat. Mindy Jones) [Reprise Version] (05:17)
7. God Moving Over The Face Of The Waters (feat. Víkingur Ólafsson) [Reprise Version] (07:41)
8. Why Does My Heart Feel So Bad (feat. Apollo Jane & Deitrick Haddon) [Reprise Version] (04:38)
9. The Lonely Night (feat. Mark Lanegan & Kris Kristofferson) [Reprise Version] (05:42)
10. We Are All Made Of Stars (Reprise Version) (06:00)
11. Lift Me Up (Reprise Version) (05:22)
12. The Great Escape (feat. Nataly Dawn, Alice Skye & Luna Li) [Reprise Version] (02:51)
13. Almost Home (feat. Novo Amor, Mindy Jones & Darlingside) [Reprise Version] (05:27)
14. The Last Day (feat. Skylar Grey & Darlingside) [Reprise Version] (05:12)

Exact Audio Copy V1.6 from 23. October 2020

EAC extraction logfile from 16. June 2021, 12:34

Moby / Reprise

Used drive : TSSTcorpDVD+-RW TS-H653A Adapter: 1 ID: 1

Read mode : Secure
Utilize accurate stream : Yes
Defeat audio cache : Yes
Make use of C2 pointers : No

Read offset correction : 6
Overread into Lead-In and Lead-Out : No
Fill up missing offset samples with silence : Yes
Delete leading and trailing silent blocks : No
Null samples used in CRC calculations : Yes
Used interface : Native Win32 interface for Win NT & 2000
Gap handling : Appended to previous track

Used output format : User Defined Encoder
Selected bitrate : 1024 kBit/s
Quality : High
Add ID3 tag : No
Command line compressor : C:\Tools\flac-1.3.2-win\win64\flac.exe
Additional command line options : -8 -V -T "ARTIST=%artist%" -T "TITLE=%title%" -T "ALBUM=%albumtitle%" -T "DATE=%year%" -T "TRACKNUMBER=%tracknr%" -T "GENRE=%genre%" -T "PERFORMER=%albuminterpret%" -T "COMPOSER=%composer%" %haslyrics%–tag-from-file=LYRICS="%lyricsfile%"%haslyrics% -T "ALBUMARTIST=%albumartist%" -T "DISCNUMBER=%cdnumber%" -T "TOTALDISCS=%totalcds%" -T "TOTALTRACKS=%numtracks%" -T "COMMENT=%comment%" %source% -o %dest%


TOC of the extracted CD

Track | Start | Length | Start sector | End sector
––––––––––––––––––––––––––––-
1 | 0:00.00 | 3:19.05 | 0 | 14929
2 | 3:19.05 | 4:30.02 | 14930 | 35181
3 | 7:49.07 | 3:42.70 | 35182 | 51901
4 | 11:32.02 | 5:53.66 | 51902 | 78442
5 | 17:25.68 | 4:58.44 | 78443 | 100836
6 | 22:24.37 | 5:17.50 | 100837 | 124661
7 | 27:42.12 | 7:41.60 | 124662 | 159296
8 | 35:23.72 | 4:38.27 | 159297 | 180173
9 | 40:02.24 | 5:42.64 | 180174 | 205887
10 | 45:45.13 | 6:00.55 | 205888 | 232942
11 | 51:45.68 | 5:22.27 | 232943 | 257119
12 | 57:08.20 | 2:51.20 | 257120 | 269964
13 | 59:59.40 | 5:27.51 | 269965 | 294540
14 | 65:27.16 | 5:13.02 | 294541 | 318017


Track 1

Filename S:\EAC\Moby - Reprise (2021) [CD FLAC] {4839865}\01 - Everloving.wav

Pre-gap length 0:00:02.00

Peak level 94.0 %
Extraction speed 4.4 X
Track quality 100.0 %
Test CRC 954CC3A1
Copy CRC 954CC3A1
Accurately ripped (confidence 6) [7CEE23FC] (AR v2)
Copy OK

Track 2

Filename S:\EAC\Moby - Reprise (2021) [CD FLAC] {4839865}\02 - Natural Blues.wav

Peak level 92.8 %
Extraction speed 5.0 X
Track quality 100.0 %
Test CRC 0932172E
Copy CRC 0932172E
Accurately ripped (confidence 6) [D97D2968] (AR v2)
Copy OK

Track 3

Filename S:\EAC\Moby - Reprise (2021) [CD FLAC] {4839865}\03 - Go.wav

Peak level 94.3 %
Extraction speed 5.3 X
Track quality 100.0 %
Test CRC 781C186F
Copy CRC 781C186F
Accurately ripped (confidence 6) [15768ED6] (AR v2)
Copy OK

Track 4

Filename S:\EAC\Moby - Reprise (2021) [CD FLAC] {4839865}\04 - Porcelain.wav

Peak level 96.1 %
Extraction speed 5.5 X
Track quality 99.9 %
Test CRC AC196487
Copy CRC AC196487
Accurately ripped (confidence 6) [242399C2] (AR v2)
Copy OK

Track 5

Filename S:\EAC\Moby - Reprise (2021) [CD FLAC] {4839865}\05 - Extreme Ways.wav

Peak level 94.5 %
Extraction speed 6.4 X
Track quality 100.0 %
Test CRC 14168C9E
Copy CRC 14168C9E
Accurately ripped (confidence 6) [4C73FF50] (AR v2)
Copy OK

Track 6

Filename S:\EAC\Moby - Reprise (2021) [CD FLAC] {4839865}\06 - Heroes.wav

Peak level 94.2 %
Extraction speed 6.9 X
Track quality 100.0 %
Test CRC CB69A452
Copy CRC CB69A452
Accurately ripped (confidence 6) [A55224D7] (AR v2)
Copy OK

Track 7

Filename S:\EAC\Moby - Reprise (2021) [CD FLAC] {4839865}\07 - God Moving Over the Face of the Waters.wav

Peak level 94.8 %
Extraction speed 7.1 X
Track quality 99.9 %
Test CRC E9BC7EF1
Copy CRC E9BC7EF1
Accurately ripped (confidence 6) [AEA1D1FC] (AR v2)
Copy OK

Track 8

Filename S:\EAC\Moby - Reprise (2021) [CD FLAC] {4839865}\08 - Why Does My Heart Feel So Bad.wav

Peak level 94.0 %
Extraction speed 7.7 X
Track quality 100.0 %
Test CRC 1C264A8A
Copy CRC 1C264A8A
Accurately ripped (confidence 6) [BA34E417] (AR v2)
Copy OK

Track 9

Filename S:\EAC\Moby - Reprise (2021) [CD FLAC] {4839865}\09 - The Lonely Night.wav

Peak level 92.5 %
Extraction speed 8.2 X
Track quality 100.0 %
Test CRC 071B8A38
Copy CRC 071B8A38
Accurately ripped (confidence 6) [73BE3CB0] (AR v2)
Copy OK

Track 10

Filename S:\EAC\Moby - Reprise (2021) [CD FLAC] {4839865}\10 - We Are All Made of Stars.wav

Peak level 95.1 %
Extraction speed 8.6 X
Track quality 100.0 %
Test CRC 99E265C0
Copy CRC 99E265C0
Accurately ripped (confidence 6) [94D02710] (AR v2)
Copy OK

Track 11

Filename S:\EAC\Moby - Reprise (2021) [CD FLAC] {4839865}\11 - Lift Me Up.wav

Peak level 92.8 %
Extraction speed 8.0 X
Track quality 99.9 %
Test CRC B52EDED1
Copy CRC B52EDED1
Accurately ripped (confidence 6) [197538CA] (AR v2)
Copy OK

Track 12

Filename S:\EAC\Moby - Reprise (2021) [CD FLAC] {4839865}\12 - The Great Escape.wav

Peak level 92.1 %
Extraction speed 8.2 X
Track quality 100.0 %
Test CRC A6154F71
Copy CRC A6154F71
Accurately ripped (confidence 6) [13EC0C32] (AR v2)
Copy OK

Track 13

Filename S:\EAC\Moby - Reprise (2021) [CD FLAC] {4839865}\13 - Almost Home.wav

Peak level 100.0 %
Extraction speed 8.4 X
Track quality 99.9 %
Test CRC 0522CC7E
Copy CRC 0522CC7E
Accurately ripped (confidence 6) [06A76556] (AR v2)
Copy OK

Track 14

Filename S:\EAC\Moby - Reprise (2021) [CD FLAC] {4839865}\14 - The Last Day.wav

Peak level 95.0 %
Extraction speed 3.7 X
Track quality 99.6 %
Test CRC EE197A3A
Copy CRC EE197A3A
Accurately ripped (confidence 6) [9A6A0D84] (AR v2)
Copy OK


All tracks accurately ripped

No errors occurred

End of status report

–– CUETools DB Plugin V2.1.6

[CTDB TOCID: iUYsYzGAD1juz.rG8Z4RtLFo1H4-] found
Submit result: iUYsYzGAD1juz.rG8Z4RtLFo1H4- has been confirmed
Track | CTDB Status
1 | (89/90) Accurately ripped
2 | (89/90) Accurately ripped
3 | (89/90) Accurately ripped
4 | (89/90) Accurately ripped
5 | (89/90) Accurately ripped
6 | (89/90) Accurately ripped
7 | (89/90) Accurately ripped
8 | (89/90) Accurately ripped
9 | (88/90) Accurately ripped
10 | (88/90) Accurately ripped
11 | (88/90) Accurately ripped
12 | (88/90) Accurately ripped
13 | (86/90) Accurately ripped
14 | (88/90) Accurately ripped


==== Log checksum AA1E9039BF43C2ACFB470BAAF0E23C73C01E16C78603D41FF665EA4F010C46DD ====

Thanks to the Original ripper !