Subcategories

İncesaz - 9 Peşindeyim (2018)

Posted By: aasana
İncesaz - 9 Peşindeyim (2018)

İncesaz - 9 Peşindeyim (2018)
EAC Rip | FLAC (tracks+.cue+.log) | 37:52 min | 215 MB
Folk, World, Ottoman Classical | Label: Kalan Müzik

Alaturka müziğinin soundu ile batı soundunu soft bir yorumla dinlemek isteyenler için ideal bir albüm “Peşindeyim”. Alaturka müziğine farklı bir tat sunan İncesaz 9 topluluğu tambur, kemençe ve gitar gibi klasik alaturka müziğinde aynı anda fazla rastlanmayan enstrümanlara yer vermiş. Albümde çok soft bir sound var. Ayrıca bir sound bütünlüğü var. On bir şarkının yer aldığı albümde ilk şarkı ile son şarkı arasında nerdeyse hiç farkı yok, düzenlemelerde bütünlük var. Soft bir sound içeren albümde Cengiz Onural bestelerinin yanı sıra bir tane de Haris Alexiou şarkısı var.


İncesaz daha önce “Ekmek Teknesi” – “Süper Baba” - “ İkinci Bahar” gibi dizilerde ki müzikleri ile dikkatleri çekmiş ve müzik dünyasında farklılaşmıştı. Bu albümde de bu farklarını hissettiriyorlar. Albümün mixi çok başarılı, enstrümanları tek tek dinleyebiliyorsunuz, Oya – Bora İkilisinin Bora’sı Bora Ebeoğlu ‘nun ve Ezgi Köker’in vokali ile şarkılara güzel bir ruh katılmış.

Şunu söylemek isterim ki “Peşindeyim” albümünü tarif etmek çok zor, ama şöyle diyebilirim: Alaturka müziği ile batı müziğinin başarılı bir sentezinden oluşan batı normlarında kurgulanmış ve muaazzam mixlenmiş şarkılardan oluşan, dinlerken dinlendiren kalite kokan ve popüler kültüren çok uzakta bir albüm.

Alternatif ve gürültüsüz müzik dinlemek isteyenler için özel kurgulanmış bir albüm diyebilirim. Alaturka albümlerin sayısının azaldığı nerdeyse hiç üretilmediği bir dönemde bu albümde çölde su gibi. Mutlaka dinleyin derim.

Albümde Yer Alan Şarkılar:

01 - İnce Ayar
02 - Fotoroman
03 - Geçmesen
04 - Akdeniz
05 - Susmak
06 - Masal
07 - Şairin Adı Yok
08 - Peşindeyim
09 - Şaka
10 - Tahta Bavul
11 - Dua

Exact Audio Copy V1.1 from 23. June 2015

EAC extraction logfile from 25. November 2018, 18:22

İncesaz / 9 Peşindeyim

Used drive : ASUS DRW-24F1ST a Adapter: 1 ID: 0

Read mode : Secure
Utilize accurate stream : Yes
Defeat audio cache : Yes
Make use of C2 pointers : No

Read offset correction : 6
Overread into Lead-In and Lead-Out : No
Fill up missing offset samples with silence : Yes
Delete leading and trailing silent blocks : No
Null samples used in CRC calculations : Yes
Used interface : Native Win32 interface for Win NT & 2000
Gap handling : Appended to previous track

Used output format : User Defined Encoder
Selected bitrate : 1024 kBit/s
Quality : High
Add ID3 tag : No
Command line compressor : C:\Program Files (x86)\Exact Audio Copy\Flac\flac.exe
Additional command line options : -8 -e -V -T "ARTIST=%artist%" -T "TITLE=%title%" -T "ALBUM=%albumtitle%" -T "DATE=%year%" -T "TRACKNUMBER=%tracknr%" -T "GENRE=%genre%" -T "PERFORMER=%albuminterpret%" -T "COMPOSER=%composer%" %haslyrics%–tag-from-file=LYRICS="%lyricsfile%"%haslyrics% -T "ALBUMARTIST=%albumartist%" -T "DISCNUMBER=%cdnumber%" -T "TOTALDISCS=%totalcds%" -T "TOTALTRACKS=%numtracks%" -T "COMMENT=%comment%" %source% -o %dest%


TOC of the extracted CD

Track | Start | Length | Start sector | End sector
––––––––––––––––––––––––––––-
1 | 0:00.00 | 4:02.27 | 0 | 18176
2 | 4:02.27 | 3:32.72 | 18177 | 34148
3 | 7:35.24 | 3:00.25 | 34149 | 47673
4 | 10:35.49 | 3:29.41 | 47674 | 63389
5 | 14:05.15 | 4:38.63 | 63390 | 84302
6 | 18:44.03 | 2:51.19 | 84303 | 97146
7 | 21:35.22 | 3:50.63 | 97147 | 114459
8 | 25:26.10 | 3:05.49 | 114460 | 128383
9 | 28:31.59 | 1:55.16 | 128384 | 137024
10 | 30:27.00 | 3:25.43 | 137025 | 152442
11 | 33:52.43 | 4:00.14 | 152443 | 170456


Track 1

Filename P:\EAC20_i7\İncesaz _ 9 Peşindeyim (2018)[FLAC]\01_İnce Ayar.wav

Pre-gap length 0:00:02.00

Peak level 95.4 %
Extraction speed 1.5 X
Track quality 99.9 %
Test CRC 201229FB
Copy CRC 201229FB
Accurately ripped (confidence 2) [7F4D0DFE] (AR v2)
Copy OK

Track 2

Filename P:\EAC20_i7\İncesaz _ 9 Peşindeyim (2018)[FLAC]\02_Fotoroman.wav

Pre-gap length 0:00:01.98

Peak level 95.1 %
Extraction speed 1.8 X
Track quality 100.0 %
Test CRC 4312B4A6
Copy CRC 4312B4A6
Accurately ripped (confidence 2) [3770FD08] (AR v2)
Copy OK

Track 3

Filename P:\EAC20_i7\İncesaz _ 9 Peşindeyim (2018)[FLAC]\03_Geçmesen.wav

Pre-gap length 0:00:01.98

Peak level 94.9 %
Extraction speed 2.0 X
Track quality 100.0 %
Test CRC 7AF6D5F2
Copy CRC 7AF6D5F2
Accurately ripped (confidence 2) [2DD66DEC] (AR v2)
Copy OK

Track 4

Filename P:\EAC20_i7\İncesaz _ 9 Peşindeyim (2018)[FLAC]\04_Akdeniz.wav

Pre-gap length 0:00:01.98

Peak level 94.4 %
Extraction speed 2.1 X
Track quality 100.0 %
Test CRC 27D82AE3
Copy CRC 27D82AE3
Accurately ripped (confidence 2) [208664A5] (AR v2)
Copy OK

Track 5

Filename P:\EAC20_i7\İncesaz _ 9 Peşindeyim (2018)[FLAC]\05_Susmak.wav

Pre-gap length 0:00:01.98

Peak level 94.9 %
Extraction speed 2.4 X
Track quality 100.0 %
Test CRC 305C6D8C
Copy CRC 305C6D8C
Accurately ripped (confidence 2) [5A70C2E9] (AR v2)
Copy OK

Track 6

Filename P:\EAC20_i7\İncesaz _ 9 Peşindeyim (2018)[FLAC]\06_Masal.wav

Pre-gap length 0:00:01.98

Peak level 94.9 %
Extraction speed 2.3 X
Track quality 100.0 %
Test CRC 95374981
Copy CRC 95374981
Accurately ripped (confidence 2) [6DD574DE] (AR v2)
Copy OK

Track 7

Filename P:\EAC20_i7\İncesaz _ 9 Peşindeyim (2018)[FLAC]\07_Şairin Adı Yok.wav

Pre-gap length 0:00:01.98

Peak level 95.1 %
Extraction speed 2.6 X
Track quality 100.0 %
Test CRC A0240D74
Copy CRC A0240D74
Accurately ripped (confidence 2) [FD9459B3] (AR v2)
Copy OK

Track 8

Filename P:\EAC20_i7\İncesaz _ 9 Peşindeyim (2018)[FLAC]\08_Peşindeyim.wav

Pre-gap length 0:00:01.98

Peak level 94.9 %
Extraction speed 2.6 X
Track quality 100.0 %
Test CRC 783E7F4E
Copy CRC 783E7F4E
Accurately ripped (confidence 2) [6873E142] (AR v2)
Copy OK

Track 9

Filename P:\EAC20_i7\İncesaz _ 9 Peşindeyim (2018)[FLAC]\09_Şaka.wav

Pre-gap length 0:00:01.98

Peak level 94.9 %
Extraction speed 1.6 X
Track quality 99.9 %
Test CRC C367F6DC
Copy CRC C367F6DC
Accurately ripped (confidence 2) [CBE03BE9] (AR v2)
Copy OK

Track 10

Filename P:\EAC20_i7\İncesaz _ 9 Peşindeyim (2018)[FLAC]\10_Tahta Bavul.wav

Pre-gap length 0:00:01.98

Peak level 95.0 %
Extraction speed 2.8 X
Track quality 100.0 %
Test CRC A7F72CBB
Copy CRC A7F72CBB
Accurately ripped (confidence 2) [14EA179E] (AR v2)
Copy OK

Track 11

Filename P:\EAC20_i7\İncesaz _ 9 Peşindeyim (2018)[FLAC]\11_Dua.wav

Pre-gap length 0:00:01.98

Peak level 94.6 %
Extraction speed 2.9 X
Track quality 100.0 %
Test CRC ACF31387
Copy CRC ACF31387
Accurately ripped (confidence 2) [1DA83B62] (AR v2)
Copy OK


All tracks accurately ripped

No errors occurred

End of status report

–– CUETools DB Plugin V2.1.6

[CTDB TOCID: PYSkId0J7HYmGzW7q_CMux5H770-] found
Submit result: PYSkId0J7HYmGzW7q_CMux5H770- has been confirmed
Track | CTDB Status
1 | (6/6) Accurately ripped
2 | (6/6) Accurately ripped
3 | (6/6) Accurately ripped
4 | (6/6) Accurately ripped
5 | (6/6) Accurately ripped
6 | (6/6) Accurately ripped
7 | (6/6) Accurately ripped
8 | (6/6) Accurately ripped
9 | (6/6) Accurately ripped
10 | (6/6) Accurately ripped
11 | (6/6) Accurately ripped


==== Log checksum 993283B94410F059674C4E1451C7A16DBA403C4E2CAD3FA14E6A061D67FB2985 ====