Tags
Language
Tags

Nicola Conte & Spiritual Galaxy - Let Your Light Shine On (2018)

Posted By: delpotro
Nicola Conte & Spiritual Galaxy - Let Your Light Shine On (2018)

Nicola Conte & Spiritual Galaxy - Let Your Light Shine On (2018)
EAC Rip | FLAC (tracks+log+.cue) - 392 Mb | MP3 CBR 320 kbps - 153 Mb | 01:02:53
Jazz, Vocal Jazz | Label: MPS Records

The Italian guitarist and bandleader Nicola Conte has recorded his first album for the legendary, recently re-established MPS records. Conte has brought with him his cosmic-cosmopolitan ensemble of stars which includes trumpeter Theo Croker, saxophonists Logan Richardson and Magnus Lindgren, and singer Zara McFarlane. For the most part recorded in Bari, Italy and Johannesburg, South Africa, it is a sensitive work of art that crosses the border between soul and spiritual Afro-jazz.Nicola Conte has cast his vision of cosmic jazz into a seamless tonal design – without restricting his players' freedom, leaving them open to the influences of the diverse cultures. "Everyone should be able to express themselves freely," Conte says; "this album is much more open than my last one. Everything was recorded live and with a minimum of overdubs."

The foundation of "Let Your Light Shine On" is Conte's live band, Spiritual Galaxy. Conte plays guitar and is accompanied by such top international stars as trombonist Gianluca Petrella, who has been awarded "Best Emerging Artist" by the prestigious DownBeat jazz magazine, Swedish tenor saxophonist Magnus Lindgren, and Finnish drummer Teppo Mäkynen. They meet up with pianist Petro Lusso, bassist Luca Alemanno, and singer Bridgette Amofah. The band also includes two up-and-coming stars of the younger generation of jazz musicians from the USA, players who don't shy away from Hip Hop, R&B, and electronic music – alto saxophonist Logan Richardson and trumpeter Theo Croker.
Tracklist:
1. Uhuru Na Umoja (04:46)
2. Ogun (05:26)
3. Cosmic Peace (04:51)
4. Universal Rhythm (05:11)
5. Mystic Revelation of the Gods (06:10)
6. Let Your Light Shine On (04:57)
7. Space Dimensions (06:54)
8. Tribes from the Unknown (02:06)
9. Me Do Wo (07:20)
10. Essence of the Sun (04:47)
11. Love Power (04:44)
12. Afro Black (05:21)

Exact Audio Copy V1.3 from 2. September 2016

EAC extraction logfile from 24. July 2020, 16:27

Nicola Conte & Spiritual Galaxy / Let Your Light Shine On

Used drive : PLEXTOR PX-891SAF Adapter: 1 ID: 0

Read mode : Secure
Utilize accurate stream : Yes
Defeat audio cache : Yes
Make use of C2 pointers : No

Read offset correction : 6
Overread into Lead-In and Lead-Out : No
Fill up missing offset samples with silence : Yes
Delete leading and trailing silent blocks : No
Null samples used in CRC calculations : Yes
Used interface : Native Win32 interface for Win NT & 2000
Gap handling : Appended to previous track

Used output format : User Defined Encoder
Selected bitrate : 1024 kBit/s
Quality : High
Add ID3 tag : No
Command line compressor : C:\Program Files (x86)\Exact Audio Copy\Flac\flac.exe
Additional command line options : -8 -V -T "ARTIST=%artist%" -T "TITLE=%title%" -T "ALBUM=%albumtitle%" -T "DATE=%year%" -T "TRACKNUMBER=%tracknr%" -T "GENRE=%genre%" -T "PERFORMER=%albuminterpret%" -T "COMPOSER=%composer%" %haslyrics%–tag-from-file=LYRICS="%lyricsfile%"%haslyrics% -T "ALBUMARTIST=%albumartist%" -T "DISCNUMBER=%cdnumber%" -T "TOTALDISCS=%totalcds%" -T "TOTALTRACKS=%numtracks%" -T "COMMENT=%comment%" %source% -o %dest%


TOC of the extracted CD

Track | Start | Length | Start sector | End sector
––––––––––––––––––––––––––––-
1 | 0:00.00 | 4:47.38 | 0 | 21562
2 | 4:47.38 | 5:28.12 | 21563 | 46174
3 | 10:15.50 | 4:53.10 | 46175 | 68159
4 | 15:08.60 | 5:12.48 | 68160 | 91607
5 | 20:21.33 | 6:12.14 | 91608 | 119521
6 | 26:33.47 | 4:59.02 | 119522 | 141948
7 | 31:32.49 | 6:55.29 | 141949 | 173102
8 | 38:28.03 | 2:07.49 | 173103 | 182676
9 | 40:35.52 | 7:21.61 | 182677 | 215812
10 | 47:57.38 | 4:48.20 | 215813 | 237432
11 | 52:45.58 | 4:46.07 | 237433 | 258889
12 | 57:31.65 | 5:21.17 | 258890 | 282981


Track 1

Filename D:\#EAC new\#wav+flac\#add\Nicola Conte & Spiritual Galaxy - Let Your Light Shine On\01. Nicola Conte & Spiritual Galaxy - Uhuru Na Umoja.wav

Pre-gap length 0:00:02.00

Peak level 100.0 %
Extraction speed 4.4 X
Track quality 99.9 %
Test CRC 4B1100DF
Copy CRC 4B1100DF
Accurately ripped (confidence 6) [7955A2E9] (AR v2)
Copy OK

Track 2

Filename D:\#EAC new\#wav+flac\#add\Nicola Conte & Spiritual Galaxy - Let Your Light Shine On\02. Nicola Conte & Spiritual Galaxy - Ogun.wav

Pre-gap length 0:00:01.20

Peak level 92.7 %
Extraction speed 5.8 X
Track quality 100.0 %
Test CRC 421BC1BC
Copy CRC 421BC1BC
Accurately ripped (confidence 6) [68ED916B] (AR v2)
Copy OK

Track 3

Filename D:\#EAC new\#wav+flac\#add\Nicola Conte & Spiritual Galaxy - Let Your Light Shine On\03. Nicola Conte & Spiritual Galaxy - Cosmic Peace.wav

Pre-gap length 0:00:01.20

Peak level 97.9 %
Extraction speed 5.5 X
Track quality 99.9 %
Test CRC 9CEEB2DF
Copy CRC 9CEEB2DF
Accurately ripped (confidence 6) [D56C4817] (AR v2)
Copy OK

Track 4

Filename D:\#EAC new\#wav+flac\#add\Nicola Conte & Spiritual Galaxy - Let Your Light Shine On\04. Nicola Conte & Spiritual Galaxy - Universal Rhythm.wav

Pre-gap length 0:00:01.20

Peak level 95.7 %
Extraction speed 6.8 X
Track quality 100.0 %
Test CRC 2E413651
Copy CRC 2E413651
Accurately ripped (confidence 6) [D3374483] (AR v2)
Copy OK

Track 5

Filename D:\#EAC new\#wav+flac\#add\Nicola Conte & Spiritual Galaxy - Let Your Light Shine On\05. Nicola Conte & Spiritual Galaxy - Mystic Revelation of the Gods.wav

Pre-gap length 0:00:01.20

Peak level 95.9 %
Extraction speed 6.6 X
Track quality 99.9 %
Test CRC AF152951
Copy CRC AF152951
Accurately ripped (confidence 6) [C2E9A65D] (AR v2)
Copy OK

Track 6

Filename D:\#EAC new\#wav+flac\#add\Nicola Conte & Spiritual Galaxy - Let Your Light Shine On\06. Nicola Conte & Spiritual Galaxy - Let Your Light Shine On.wav

Pre-gap length 0:00:01.20

Peak level 94.2 %
Extraction speed 7.9 X
Track quality 100.0 %
Test CRC 31D5FEB6
Copy CRC 31D5FEB6
Accurately ripped (confidence 6) [D6272342] (AR v2)
Copy OK

Track 7

Filename D:\#EAC new\#wav+flac\#add\Nicola Conte & Spiritual Galaxy - Let Your Light Shine On\07. Nicola Conte & Spiritual Galaxy - Space Dimensions.wav

Pre-gap length 0:00:01.20

Peak level 93.8 %
Extraction speed 8.5 X
Track quality 100.0 %
Test CRC 7D1D7526
Copy CRC 7D1D7526
Accurately ripped (confidence 6) [4FB0F060] (AR v2)
Copy OK

Track 8

Filename D:\#EAC new\#wav+flac\#add\Nicola Conte & Spiritual Galaxy - Let Your Light Shine On\08. Nicola Conte & Spiritual Galaxy - Tribes from the Unknown.wav

Pre-gap length 0:00:01.20

Peak level 96.2 %
Extraction speed 7.5 X
Track quality 100.0 %
Test CRC 7571339D
Copy CRC 7571339D
Accurately ripped (confidence 6) [EDDCF0B4] (AR v2)
Copy OK

Track 9

Filename D:\#EAC new\#wav+flac\#add\Nicola Conte & Spiritual Galaxy - Let Your Light Shine On\09. Nicola Conte & Spiritual Galaxy - Me Do Wo.wav

Pre-gap length 0:00:01.20

Peak level 96.2 %
Extraction speed 9.4 X
Track quality 100.0 %
Test CRC BDEB8A48
Copy CRC BDEB8A48
Accurately ripped (confidence 6) [E022BE32] (AR v2)
Copy OK

Track 10

Filename D:\#EAC new\#wav+flac\#add\Nicola Conte & Spiritual Galaxy - Let Your Light Shine On\10. Nicola Conte & Spiritual Galaxy - Essence of the Sun.wav

Pre-gap length 0:00:01.20

Peak level 95.9 %
Extraction speed 9.2 X
Track quality 100.0 %
Test CRC AE5B3A87
Copy CRC AE5B3A87
Accurately ripped (confidence 6) [F2168C6E] (AR v2)
Copy OK

Track 11

Filename D:\#EAC new\#wav+flac\#add\Nicola Conte & Spiritual Galaxy - Let Your Light Shine On\11. Nicola Conte & Spiritual Galaxy - Love Power.wav

Pre-gap length 0:00:01.20

Peak level 94.4 %
Extraction speed 9.5 X
Track quality 100.0 %
Test CRC 3DE6EB3C
Copy CRC 3DE6EB3C
Accurately ripped (confidence 6) [C5218464] (AR v2)
Copy OK

Track 12

Filename D:\#EAC new\#wav+flac\#add\Nicola Conte & Spiritual Galaxy - Let Your Light Shine On\12. Nicola Conte & Spiritual Galaxy - Afro Black.wav

Pre-gap length 0:00:01.20

Peak level 93.5 %
Extraction speed 9.9 X
Track quality 100.0 %
Test CRC 9759AC23
Copy CRC 9759AC23
Accurately ripped (confidence 6) [AB5EC82B] (AR v2)
Copy OK


All tracks accurately ripped

No errors occurred

End of status report

–– CUETools DB Plugin V2.1.6

[CTDB TOCID: y9HS0dnGb_ykRNbkdi.dFavWBv0-] found
Submit result: y9HS0dnGb_ykRNbkdi.dFavWBv0- has been confirmed
Track | CTDB Status
1 | (24/24) Accurately ripped
2 | (24/24) Accurately ripped
3 | (24/24) Accurately ripped
4 | (24/24) Accurately ripped
5 | (24/24) Accurately ripped
6 | (24/24) Accurately ripped
7 | (24/24) Accurately ripped
8 | (24/24) Accurately ripped
9 | (24/24) Accurately ripped
10 | (24/24) Accurately ripped
11 | (24/24) Accurately ripped
12 | (23/24) Accurately ripped


==== Log checksum D069799CD473C665EA1DF6F3778C9981A1DE309016AA69A37ABF16E838E4A8A8 ====

––––––––––––––––––––––––––––––

Exact Audio Copy V1.3 from 2. September 2016

EAC extraction logfile from 24. July 2020, 16:27

Nicola Conte & Spiritual Galaxy / Let Your Light Shine On

Used drive : PLEXTOR PX-891SAF Adapter: 1 ID: 0

Read mode : Secure
Utilize accurate stream : Yes
Defeat audio cache : Yes
Make use of C2 pointers : No

Read offset correction : 6
Overread into Lead-In and Lead-Out : No
Fill up missing offset samples with silence : Yes
Delete leading and trailing silent blocks : No
Null samples used in CRC calculations : Yes
Used interface : Native Win32 interface for Win NT & 2000
Gap handling : Appended to previous track

Used output format : User Defined Encoder
Selected bitrate : 1024 kBit/s
Quality : High
Add ID3 tag : No
Command line compressor : C:\Program Files (x86)\Exact Audio Copy\Flac\flac.exe
Additional command line options : -8 -V -T "ARTIST=%artist%" -T "TITLE=%title%" -T "ALBUM=%albumtitle%" -T "DATE=%year%" -T "TRACKNUMBER=%tracknr%" -T "GENRE=%genre%" -T "PERFORMER=%albuminterpret%" -T "COMPOSER=%composer%" %haslyrics%–tag-from-file=LYRICS="%lyricsfile%"%haslyrics% -T "ALBUMARTIST=%albumartist%" -T "DISCNUMBER=%cdnumber%" -T "TOTALDISCS=%totalcds%" -T "TOTALTRACKS=%numtracks%" -T "COMMENT=%comment%" %source% -o %dest%


TOC of the extracted CD

Track | Start | Length | Start sector | End sector
––––––––––––––––––––––––––––-
1 | 0:00.00 | 4:47.38 | 0 | 21562
2 | 4:47.38 | 5:28.12 | 21563 | 46174
3 | 10:15.50 | 4:53.10 | 46175 | 68159
4 | 15:08.60 | 5:12.48 | 68160 | 91607
5 | 20:21.33 | 6:12.14 | 91608 | 119521
6 | 26:33.47 | 4:59.02 | 119522 | 141948
7 | 31:32.49 | 6:55.29 | 141949 | 173102
8 | 38:28.03 | 2:07.49 | 173103 | 182676
9 | 40:35.52 | 7:21.61 | 182677 | 215812
10 | 47:57.38 | 4:48.20 | 215813 | 237432
11 | 52:45.58 | 4:46.07 | 237433 | 258889
12 | 57:31.65 | 5:21.17 | 258890 | 282981


Track 1

Filename D:\#EAC new\#wav+flac\#add\Nicola Conte & Spiritual Galaxy - Let Your Light Shine On\01. Nicola Conte & Spiritual Galaxy - Uhuru Na Umoja.wav

Pre-gap length 0:00:02.00

Peak level 100.0 %
Extraction speed 4.4 X
Track quality 99.9 %
Test CRC 4B1100DF
Copy CRC 4B1100DF
Accurately ripped (confidence 6) [7955A2E9] (AR v2)
Copy OK

Track 2

Filename D:\#EAC new\#wav+flac\#add\Nicola Conte & Spiritual Galaxy - Let Your Light Shine On\02. Nicola Conte & Spiritual Galaxy - Ogun.wav

Pre-gap length 0:00:01.20

Peak level 92.7 %
Extraction speed 5.8 X
Track quality 100.0 %
Test CRC 421BC1BC
Copy CRC 421BC1BC
Accurately ripped (confidence 6) [68ED916B] (AR v2)
Copy OK

Track 3

Filename D:\#EAC new\#wav+flac\#add\Nicola Conte & Spiritual Galaxy - Let Your Light Shine On\03. Nicola Conte & Spiritual Galaxy - Cosmic Peace.wav

Pre-gap length 0:00:01.20

Peak level 97.9 %
Extraction speed 5.5 X
Track quality 99.9 %
Test CRC 9CEEB2DF
Copy CRC 9CEEB2DF
Accurately ripped (confidence 6) [D56C4817] (AR v2)
Copy OK

Track 4

Filename D:\#EAC new\#wav+flac\#add\Nicola Conte & Spiritual Galaxy - Let Your Light Shine On\04. Nicola Conte & Spiritual Galaxy - Universal Rhythm.wav

Pre-gap length 0:00:01.20

Peak level 95.7 %
Extraction speed 6.8 X
Track quality 100.0 %
Test CRC 2E413651
Copy CRC 2E413651
Accurately ripped (confidence 6) [D3374483] (AR v2)
Copy OK

Track 5

Filename D:\#EAC new\#wav+flac\#add\Nicola Conte & Spiritual Galaxy - Let Your Light Shine On\05. Nicola Conte & Spiritual Galaxy - Mystic Revelation of the Gods.wav

Pre-gap length 0:00:01.20

Peak level 95.9 %
Extraction speed 6.6 X
Track quality 99.9 %
Test CRC AF152951
Copy CRC AF152951
Accurately ripped (confidence 6) [C2E9A65D] (AR v2)
Copy OK

Track 6

Filename D:\#EAC new\#wav+flac\#add\Nicola Conte & Spiritual Galaxy - Let Your Light Shine On\06. Nicola Conte & Spiritual Galaxy - Let Your Light Shine On.wav

Pre-gap length 0:00:01.20

Peak level 94.2 %
Extraction speed 7.9 X
Track quality 100.0 %
Test CRC 31D5FEB6
Copy CRC 31D5FEB6
Accurately ripped (confidence 6) [D6272342] (AR v2)
Copy OK

Track 7

Filename D:\#EAC new\#wav+flac\#add\Nicola Conte & Spiritual Galaxy - Let Your Light Shine On\07. Nicola Conte & Spiritual Galaxy - Space Dimensions.wav

Pre-gap length 0:00:01.20

Peak level 93.8 %
Extraction speed 8.5 X
Track quality 100.0 %
Test CRC 7D1D7526
Copy CRC 7D1D7526
Accurately ripped (confidence 6) [4FB0F060] (AR v2)
Copy OK

Track 8

Filename D:\#EAC new\#wav+flac\#add\Nicola Conte & Spiritual Galaxy - Let Your Light Shine On\08. Nicola Conte & Spiritual Galaxy - Tribes from the Unknown.wav

Pre-gap length 0:00:01.20

Peak level 96.2 %
Extraction speed 7.5 X
Track quality 100.0 %
Test CRC 7571339D
Copy CRC 7571339D
Accurately ripped (confidence 6) [EDDCF0B4] (AR v2)
Copy OK

Track 9

Filename D:\#EAC new\#wav+flac\#add\Nicola Conte & Spiritual Galaxy - Let Your Light Shine On\09. Nicola Conte & Spiritual Galaxy - Me Do Wo.wav

Pre-gap length 0:00:01.20

Peak level 96.2 %
Extraction speed 9.4 X
Track quality 100.0 %
Test CRC BDEB8A48
Copy CRC BDEB8A48
Accurately ripped (confidence 6) [E022BE32] (AR v2)
Copy OK

Track 10

Filename D:\#EAC new\#wav+flac\#add\Nicola Conte & Spiritual Galaxy - Let Your Light Shine On\10. Nicola Conte & Spiritual Galaxy - Essence of the Sun.wav

Pre-gap length 0:00:01.20

Peak level 95.9 %
Extraction speed 9.2 X
Track quality 100.0 %
Test CRC AE5B3A87
Copy CRC AE5B3A87
Accurately ripped (confidence 6) [F2168C6E] (AR v2)
Copy OK

Track 11

Filename D:\#EAC new\#wav+flac\#add\Nicola Conte & Spiritual Galaxy - Let Your Light Shine On\11. Nicola Conte & Spiritual Galaxy - Love Power.wav

Pre-gap length 0:00:01.20

Peak level 94.4 %
Extraction speed 9.5 X
Track quality 100.0 %
Test CRC 3DE6EB3C
Copy CRC 3DE6EB3C
Accurately ripped (confidence 6) [C5218464] (AR v2)
Copy OK

Track 12

Filename D:\#EAC new\#wav+flac\#add\Nicola Conte & Spiritual Galaxy - Let Your Light Shine On\12. Nicola Conte & Spiritual Galaxy - Afro Black.wav

Pre-gap length 0:00:01.20

Peak level 93.5 %
Extraction speed 9.9 X
Track quality 100.0 %
Test CRC 9759AC23
Copy CRC 9759AC23
Accurately ripped (confidence 6) [AB5EC82B] (AR v2)
Copy OK


All tracks accurately ripped

No errors occurred

End of status report

–– CUETools DB Plugin V2.1.6

[CTDB TOCID: y9HS0dnGb_ykRNbkdi.dFavWBv0-] found
Submit result: y9HS0dnGb_ykRNbkdi.dFavWBv0- has been confirmed
Track | CTDB Status
1 | (24/24) Accurately ripped
2 | (24/24) Accurately ripped
3 | (24/24) Accurately ripped
4 | (24/24) Accurately ripped
5 | (24/24) Accurately ripped
6 | (24/24) Accurately ripped
7 | (24/24) Accurately ripped
8 | (24/24) Accurately ripped
9 | (24/24) Accurately ripped
10 | (24/24) Accurately ripped
11 | (24/24) Accurately ripped
12 | (23/24) Accurately ripped


==== Log checksum D069799CD473C665EA1DF6F3778C9981A1DE309016AA69A37ABF16E838E4A8A8 ====

Thanks to the Original ripper !