Subcategories

Nina Simone - The Complete RCA Albums Collection (9CD) (2011) {Compilation}

Posted By: Domestos
Nina Simone - The Complete RCA Albums Collection (9CD) (2011) {Compilation}

Nina Simone - The Complete RCA Albums Collection (9CD) (2011) {Compilation}
EAC Rip | FLAC (image+.cue, log) ~ 2,98 Gb | 08:04:31 | Scans included
Vocal Jazz, Soul | Country: USA | Label: RCA ‎– 88697938902, Legacy ‎– 88697938902

Nina Simone was a singular artist, and she went where she pleased, leaving behind a recorded legacy that is passionate, political, defiant, and delicate by turns, no matter what strain of folk, blues, jazz, or gospel she was dipping into, and she did it all with dignity, grace, and intelligence. This set collects all nine of her albums for RCA Records (released between 1967 and 1974), and thus includes some of her greatest recordings. Signature songs like "I Loves You, Porgy," "I Want a Little Sugar in My Bowl" (in a couple of versions), and "Mississippi Goddam" (a Simone original – one wishes she had written more than she did) are all here, along with powerful versions of songs by Bob Dylan, Leonard Cohen, Willie Dixon, the Beatles, and Randy Newman, among others. Simone didn't just sing a song. She made it hers. ~ AllMusic Review by Steve Leggett



CD1: 1967 - Nina Simone Sings The Blues - 00:32:46
01. Do I Move You? [02:48]
02. Day And Night [02:36]
03. In The Dark [02:58]
04. Real Real [02:22]
05. My Man's Gone Now [04:17]
06. Backlash Blues [02:31]
07. I Want A Little Sugar In My Bowl [02:33]
08. Buck [01:53]
09. Since I Fell For You [02:53]
10. The House Of The Rising Sun [03:53]
11. Blues For Mama [03:58]

CD2: 1967 - Silk & Soul - 00:36:35
01. It Be's That Way Sometimes [02:58]
02. The Look of Love [02:24]
03. Go To Hell [02:50]
04. Love O' Love [05:07]
05. Cherish [03:23]
06. I Wish I Knew How It Would Feel To Be Free [03:11]
07. Turn Me On [02:26]
08. Turning Point [02:02]
09. Some Say [02:11]
10. Consummation [04:12]
11. Why Must Your Love Well Be So Dry / Bonus Track [02:22]
12. Save Me / Bonus Track [03:22]

CD3: 1968 - 'Nuff Said! - 01:05:01
01. In The Morning [02:27]
02. Sunday In Savannah [06:13]
03. The Backlash Blues [02:48]
04. Please Read Me [02:52]
05. Gin House Blues [03:08]
06. Why? (The King of Love Is Dead) [12:51]
07. Peace Of Mind [02:46]
08. Ain't Got No - I Got Life [02:07]
09. I Loves You Porgy [03:28]
10. Take My Hand Prescious Lord [01:56]
11. Do What You Gotta Do [03:04]
12. Mississippi Goddam / Bonus Track [06:55]
13. Don't Let Me Be Misunderstood / Bonus Track [04:54]
14. Come Ye / Bonus Track [03:48]
15. Ain't Got No - I Got Life (Single) / Bonus Track [02:58]
16. Peace Of Mind (Single) / Bonus Track [02:37]

CD4: 1969 - Nina Simone And Piano! - 00:54:17
01. Seems I'm Never Tired Lovin' You [03:02]
02. Nobody's Fault But Mine [03:01]
03. I Think It's Going To Rain Today [03:22]
04. Everyone's Gone To The Moon [03:08]
05. Compensation [01:37]
06. Who Am I [04:11]
07. Another Spring [03:31]
08. The Human Touch [02:10]
09. I Get Along Without You Very Well (Except Sometimes) [04:49]
10. The Desperate Ones [04:44]
11. Music For Lovers [04:23]
12. In Love In Vain [02:29]
13. I'll Look Around [05:12]
14. The Man With The Horn [03:41]
15. I Think It's Going To Rain Today (Live) / Bonus Track [04:50]

CD5: 1969 - To Love Somebody - 00:55:52
01. Suzanne [04:19]
02. Turn, Turn, Turn (To Everything There Is A Season) [03:41]
03. Revolution (Part 1) [02:52]
04. Revolution (Part 2) [01:53]
05. To Love Somebody [02:41]
06. I Shall Be Released [03:54]
07. I Can't See Nobody [03:08]
08. Just Like Tom Thumb's Blues [04:48]
09. The Times They Are A Changin' [06:01]
10. Suzanne (Alternate Version) / Bonus Track [05:14]
11. Turn, Turn, Turn (To Everything There Is A Season) (Alternate Version) / Bonu… [02:26]
12. Revolution / Bonus Track [06:29]
13. Save Me (Live) / Bonus Track [03:36]
14. The Glory Of Love (Live) / Bonus Track [02:11]
15. Cosi Ti Amo (To Love Somebody) (Italian Version) / Bonus Track [02:32]

CD6: 1969 - Black Gold - 01:13:37
01. Introduction [02:36]
02. Black Is The Colour Of My True Love's Hair [07:25]
03. Ain't Got No - I Got Life [05:31]
04. Westwind [09:42]
05. Who Knows Where The Time Goes [08:12]
06. The Assignment Sequence [06:25]
07. To Be Young, Gifted And Black [10:14]
08. Suzanne / Bonus Track [05:05]
09. No Opportunity Necessary, No Experience Needed / Bonus Track [04:51]
10. The Other Woman / Bonus Track [06:04]
11. Turn, Turn, Turn (To Everything There Is A Season) - Live / Bonus Track [04:37]
12. To Be Young, Gifted And Black (Single) / Bonus Track [02:50]

CD7: 1971 - Here Comes The Sun - 01:07:17
01. Here Comes The Sun [03:37]
02. Just Like A Woman [04:50]
03. O-o-h Child [03:17]
04. Mr. Bojangles [05:01]
05. New World Coming [04:45]
06. Angel Of The Morning [03:31]
07. How Long Must I Wonder [06:20]
08. My Way [05:14]
09. Tanywey / Bonus Track [03:28]
10. My Father / Bonus Track [01:42]
11. Jelly Roll / Bonus Track [08:14]
12. Tell It Like It Is / Bonus Track [03:53]
13. 22nd Century / Bonus Track [08:45]
14. What Have They Done To My Song, Ma / Bonus Track [04:32]

CD8: 1972 - Emergency Ward! - 00:39:06
01. My Sweet Lord / Today Is A Killer [18:36]
02. Poppies [04:13]
03. Isn't It A Pity [11:15]
04. Let It Be Me [05:00]

CD9: 1974 - It Is Finished - 00:59:57
01. The Pusher [05:15]
02. Com' By H'Yere Good Lord [05:51]
03. Funkier Than A Mosquito's Tweeter [05:20]
04. Mr. Bojangles [04:52]
05. I Want A Little Sugar In My Bowl [05:55]
06. Dambala [06:52]
07. Let It Be Me [03:27]
08. Obeah Woman [06:25]
09. Nina / Bonus Track [04:14]
10. Zungo / Bonus Track [04:20]
11. Thandewye (a.k.a. A Charge To Keep) / Bonus Track [07:21]

Nina Simone - The Complete RCA Albums Collection (9CD) (2011) {Compilation}

Exact Audio Copy V1.0 beta 3 from 29. August 2011

EAC extraction logfile from 7. March 2013, 12:41

Nina Simone / Nina Simone Sings The Blues

Used drive : PLEXTOR BD-R PX-B950SA Adapter: 6 ID: 0

Read mode : Secure
Utilize accurate stream : Yes
Defeat audio cache : Yes
Make use of C2 pointers : No

Read offset correction : 6
Overread into Lead-In and Lead-Out : No
Fill up missing offset samples with silence : Yes
Delete leading and trailing silent blocks : No
Null samples used in CRC calculations : Yes
Used interface : Native Win32 interface for Win NT & 2000

Used output format : Internal WAV Routines
Sample format : 44.100 Hz; 16 Bit; Stereo


TOC of the extracted CD

Track | Start | Length | Start sector | End sector
––––––––––––––––––––––––––––-
1 | 0:00.00 | 2:48.05 | 0 | 12604
2 | 2:48.05 | 2:36.60 | 12605 | 24364
3 | 5:24.65 | 2:58.07 | 24365 | 37721
4 | 8:22.72 | 2:22.25 | 37722 | 48396
5 | 10:45.22 | 4:17.33 | 48397 | 67704
6 | 15:02.55 | 2:31.09 | 67705 | 79038
7 | 17:33.64 | 2:33.70 | 79039 | 90583
8 | 20:07.59 | 1:53.40 | 90584 | 99098
9 | 22:01.24 | 2:53.12 | 99099 | 112085
10 | 24:54.36 | 3:53.70 | 112086 | 129630
11 | 28:48.31 | 3:58.18 | 129631 | 147498


Range status and errors

Selected range

Filename C:\Users\Meijin\Desktop\Lossless Galaxy Rip by ALLexxess\Nina Simone\2012 Complete RCA Album Collection (9CD Box Set RCA Records)\1967 Nina Simone Sings The Blues\Nina Simone - Nina Simone Sings The Blues.wav

Peak level 81.6 %
Extraction speed 7.1 X
Range quality 100.0 %
Test CRC 2A423AFB
Copy CRC 2A423AFB
Copy OK

No errors occurred


AccurateRip summary

Track 1 cannot be verified as accurate (confidence 7) [AB652AB6], AccurateRip returned [8C1924E8] (AR v2)
Track 2 cannot be verified as accurate (confidence 7) [D229BBC5], AccurateRip returned [4286F613] (AR v2)
Track 3 cannot be verified as accurate (confidence 7) [B5261D8A], AccurateRip returned [FAFE641E] (AR v2)
Track 4 cannot be verified as accurate (confidence 7) [60BAD7C9], AccurateRip returned [DC18AF5E] (AR v2)
Track 5 cannot be verified as accurate (confidence 7) [ECBCD602], AccurateRip returned [57BA354E] (AR v2)
Track 6 cannot be verified as accurate (confidence 7) [0EC6E2ED], AccurateRip returned [2D44457C] (AR v2)
Track 7 cannot be verified as accurate (confidence 7) [4BA34349], AccurateRip returned [5E5CA826] (AR v2)
Track 8 cannot be verified as accurate (confidence 7) [8E11801B], AccurateRip returned [505F0168] (AR v2)
Track 9 cannot be verified as accurate (confidence 7) [D14D6373], AccurateRip returned [3C51087A] (AR v2)
Track 10 cannot be verified as accurate (confidence 7) [51A31740], AccurateRip returned [300D0831] (AR v2)
Track 11 cannot be verified as accurate (confidence 7) [98147353], AccurateRip returned [AAD5FF03] (AR v2)

No tracks could be verified as accurate
You may have a different pressing from the one(s) in the database

End of status report

==== Log checksum 6DC9356C1CAFF7542A5EFDAB9F00C23355776418FE276A0D95267FE505E27D7D ====

Exact Audio Copy V1.0 beta 3 from 29. August 2011

EAC extraction logfile from 7. March 2013, 10:02

Nina Simone / Silk & Soul

Used drive : PLEXTOR BD-R PX-B950SA Adapter: 6 ID: 0

Read mode : Secure
Utilize accurate stream : Yes
Defeat audio cache : Yes
Make use of C2 pointers : No

Read offset correction : 6
Overread into Lead-In and Lead-Out : No
Fill up missing offset samples with silence : Yes
Delete leading and trailing silent blocks : No
Null samples used in CRC calculations : Yes
Used interface : Native Win32 interface for Win NT & 2000

Used output format : Internal WAV Routines
Sample format : 44.100 Hz; 16 Bit; Stereo


TOC of the extracted CD

Track | Start | Length | Start sector | End sector
––––––––––––––––––––––––––––-
1 | 0:00.00 | 2:58.70 | 0 | 13419
2 | 2:58.70 | 2:24.45 | 13420 | 24264
3 | 5:23.40 | 2:50.45 | 24265 | 37059
4 | 8:14.10 | 5:07.35 | 37060 | 60119
5 | 13:21.45 | 3:23.70 | 60120 | 75414
6 | 16:45.40 | 3:11.02 | 75415 | 89741
7 | 19:56.42 | 2:26.32 | 89742 | 100723
8 | 22:22.74 | 2:02.53 | 100724 | 109926
9 | 24:25.52 | 2:11.68 | 109927 | 119819
10 | 26:37.45 | 4:12.56 | 119820 | 138775
11 | 30:50.26 | 2:22.52 | 138776 | 149477
12 | 33:13.03 | 3:22.04 | 149478 | 164631


Range status and errors

Selected range

Filename C:\Users\Meijin\Desktop\Lossless Galaxy Rip by ALLexxess\Nina Simone\2012 Complete RCA Album Collection (9CD Box Set RCA Records)\1967 Silk & Soul\Nina Simone - Silk & Soul.wav

Peak level 99.9 %
Extraction speed 7.3 X
Range quality 100.0 %
Test CRC 78FD1E77
Copy CRC 78FD1E77
Copy OK

No errors occurred


AccurateRip summary

Track 1 cannot be verified as accurate (confidence 7) [88ACB3BD], AccurateRip returned [C3B161FF] (AR v2)
Track 2 cannot be verified as accurate (confidence 7) [3C3BA421], AccurateRip returned [E0866CA7] (AR v2)
Track 3 cannot be verified as accurate (confidence 7) [BA6154EE], AccurateRip returned [C365C46D] (AR v2)
Track 4 cannot be verified as accurate (confidence 7) [073C9D11], AccurateRip returned [28793195] (AR v2)
Track 5 cannot be verified as accurate (confidence 7) [DD7253B3], AccurateRip returned [058212C5] (AR v2)
Track 6 cannot be verified as accurate (confidence 7) [244D69A5], AccurateRip returned [83C39654] (AR v2)
Track 7 cannot be verified as accurate (confidence 7) [9D20D9E8], AccurateRip returned [86061640] (AR v2)
Track 8 cannot be verified as accurate (confidence 7) [A77CDB08], AccurateRip returned [C1B1E262] (AR v2)
Track 9 cannot be verified as accurate (confidence 7) [DDA441A0], AccurateRip returned [731AB6D4] (AR v2)
Track 10 cannot be verified as accurate (confidence 7) [F0FDE487], AccurateRip returned [301102CE] (AR v2)
Track 11 cannot be verified as accurate (confidence 7) [057088EA], AccurateRip returned [E46C803E] (AR v2)
Track 12 cannot be verified as accurate (confidence 7) [7FB403C5], AccurateRip returned [E34C87F2] (AR v2)

No tracks could be verified as accurate
You may have a different pressing from the one(s) in the database

End of status report

==== Log checksum C7D22FA1C434BC44F3BF754889828F4C467AC26208ADACF744D2C687CBFE1CEB ====

Exact Audio Copy V1.0 beta 3 from 29. August 2011

EAC extraction logfile from 5. March 2013, 21:03

Nina Simone / 'Nuff Said

Used drive : PLEXTOR BD-R PX-B950SA Adapter: 6 ID: 0

Read mode : Secure
Utilize accurate stream : Yes
Defeat audio cache : Yes
Make use of C2 pointers : No

Read offset correction : 6
Overread into Lead-In and Lead-Out : No
Fill up missing offset samples with silence : Yes
Delete leading and trailing silent blocks : No
Null samples used in CRC calculations : Yes
Used interface : Native Win32 interface for Win NT & 2000

Used output format : Internal WAV Routines
Sample format : 44.100 Hz; 16 Bit; Stereo


TOC of the extracted CD

Track | Start | Length | Start sector | End sector
––––––––––––––––––––––––––––-
1 | 0:00.43 | 2:27.59 | 43 | 11126
2 | 2:28.27 | 6:13.53 | 11127 | 39154
3 | 8:42.05 | 2:48.04 | 39155 | 51758
4 | 11:30.09 | 2:52.35 | 51759 | 64693
5 | 14:22.44 | 3:08.55 | 64694 | 78848
6 | 17:31.24 | 12:51.51 | 78849 | 136724
7 | 30:23.00 | 2:46.03 | 136725 | 149177
8 | 33:09.03 | 2:07.60 | 149178 | 158762
9 | 35:16.63 | 3:28.20 | 158763 | 174382
10 | 38:45.08 | 1:56.47 | 174383 | 183129
11 | 40:41.55 | 3:04.60 | 183130 | 196989
12 | 43:46.40 | 6:55.57 | 196990 | 228171
13 | 50:42.22 | 4:54.73 | 228172 | 250294
14 | 55:37.20 | 3:48.64 | 250295 | 267458
15 | 59:26.09 | 2:58.38 | 267459 | 280846
16 | 62:24.47 | 2:37.16 | 280847 | 292637


Range status and errors

Selected range

Filename C:\Users\Meijin\Desktop\Lossless Galaxy Rip by ALLexxess\Nina Simone\2012 Complete RCA Album Collection (9CD Box Set RCA Records)\1968 'Nuff Said!\Nina Simone - 'Nuff Said.wav

Peak level 100.0 %
Extraction speed 8.4 X
Range quality 100.0 %
Test CRC 2EFD4DD6
Copy CRC 2EFD4DD6
Copy OK

No errors occurred


AccurateRip summary

Track 1 cannot be verified as accurate (confidence 8) [95CBC777], AccurateRip returned [07A11784] (AR v2)
Track 2 cannot be verified as accurate (confidence 8) [148A0897], AccurateRip returned [5CB9F875] (AR v2)
Track 3 cannot be verified as accurate (confidence 8) [96D3A204], AccurateRip returned [114CC20D] (AR v2)
Track 4 cannot be verified as accurate (confidence 8) [977E6D47], AccurateRip returned [6FBA5682] (AR v2)
Track 5 cannot be verified as accurate (confidence 8) [6B8CB43D], AccurateRip returned [B4D78C81] (AR v2)
Track 6 cannot be verified as accurate (confidence 8) [466DE3DE], AccurateRip returned [4A3613D4] (AR v2)
Track 7 cannot be verified as accurate (confidence 8) [E1969C70], AccurateRip returned [F99BD498] (AR v2)
Track 8 cannot be verified as accurate (confidence 8) [6076C69C], AccurateRip returned [0F9ABB17] (AR v2)
Track 9 cannot be verified as accurate (confidence 8) [CFC8FFFF], AccurateRip returned [3C98AC62] (AR v2)
Track 10 cannot be verified as accurate (confidence 8) [BA84C96E], AccurateRip returned [FA68576F] (AR v2)
Track 11 cannot be verified as accurate (confidence 8) [981BAC6B], AccurateRip returned [EE09F195] (AR v2)
Track 12 cannot be verified as accurate (confidence 8) [3DD4BE10], AccurateRip returned [086D986A] (AR v2)
Track 13 cannot be verified as accurate (confidence 8) [4BFAB0E0], AccurateRip returned [5FC5E108] (AR v2)
Track 14 cannot be verified as accurate (confidence 8) [0D3CA960], AccurateRip returned [901EF97F] (AR v2)
Track 15 cannot be verified as accurate (confidence 8) [1D1073F0], AccurateRip returned [82ACEA57] (AR v2)
Track 16 cannot be verified as accurate (confidence 8) [7370DC72], AccurateRip returned [A2024AAD] (AR v2)

No tracks could be verified as accurate
You may have a different pressing from the one(s) in the database

End of status report

==== Log checksum 69571BA5226DA9C318C3E0EDF57791922823E6F6F5FE3C0A0EBBB03D671E271B ====

Exact Audio Copy V1.0 beta 3 from 29. August 2011

EAC extraction logfile from 5. March 2013, 20:28

Nina Simone / Nina Simone And Piano!

Used drive : PLEXTOR BD-R PX-B950SA Adapter: 6 ID: 0

Read mode : Secure
Utilize accurate stream : Yes
Defeat audio cache : Yes
Make use of C2 pointers : No

Read offset correction : 6
Overread into Lead-In and Lead-Out : No
Fill up missing offset samples with silence : Yes
Delete leading and trailing silent blocks : No
Null samples used in CRC calculations : Yes
Used interface : Native Win32 interface for Win NT & 2000

Used output format : Internal WAV Routines
Sample format : 44.100 Hz; 16 Bit; Stereo


TOC of the extracted CD

Track | Start | Length | Start sector | End sector
––––––––––––––––––––––––––––-
1 | 0:00.43 | 3:02.31 | 43 | 13723
2 | 3:02.74 | 3:01.06 | 13724 | 27304
3 | 6:04.05 | 3:22.16 | 27305 | 42470
4 | 9:26.21 | 3:08.23 | 42471 | 56593
5 | 12:34.44 | 1:37.70 | 56594 | 63938
6 | 14:12.39 | 4:11.69 | 63939 | 82832
7 | 18:24.33 | 3:31.69 | 82833 | 98726
8 | 21:56.27 | 2:10.66 | 98727 | 108542
9 | 24:07.18 | 4:49.06 | 108543 | 130223
10 | 28:56.24 | 4:44.19 | 130224 | 151542
11 | 33:40.43 | 4:23.32 | 151543 | 171299
12 | 38:04.00 | 2:29.40 | 171300 | 182514
13 | 40:33.40 | 5:12.10 | 182515 | 205924
14 | 45:45.50 | 3:41.67 | 205925 | 222566
15 | 49:27.42 | 4:50.04 | 222567 | 244320


Range status and errors

Selected range

Filename C:\Users\Meijin\Desktop\Lossless Galaxy Rip by ALLexxess\Nina Simone\2012 Complete RCA Album Collection (9CD Box Set RCA Records)\1969 Nina Simone And Piano!\Nina Simone - Nina Simone And Piano!.wav

Peak level 91.9 %
Extraction speed 7.9 X
Range quality 99.9 %
Test CRC BEB4741A
Copy CRC BEB4741A
Copy OK

No errors occurred


AccurateRip summary

Track 1 cannot be verified as accurate (confidence 8) [76AE642B], AccurateRip returned [91F1D86B] (AR v2)
Track 2 cannot be verified as accurate (confidence 8) [142DD68E], AccurateRip returned [1D9F98AF] (AR v2)
Track 3 cannot be verified as accurate (confidence 8) [246DA9AB], AccurateRip returned [AE850491] (AR v2)
Track 4 cannot be verified as accurate (confidence 8) [924EFC22], AccurateRip returned [2448EF83] (AR v2)
Track 5 cannot be verified as accurate (confidence 8) [0063352D], AccurateRip returned [BF90E6E5] (AR v2)
Track 6 cannot be verified as accurate (confidence 8) [A1D87105], AccurateRip returned [7F880FF5] (AR v2)
Track 7 cannot be verified as accurate (confidence 8) [496D877E], AccurateRip returned [31FE8D08] (AR v2)
Track 8 cannot be verified as accurate (confidence 8) [5DF7525C], AccurateRip returned [DA834AE0] (AR v2)
Track 9 cannot be verified as accurate (confidence 8) [EC30B71A], AccurateRip returned [7160545F] (AR v2)
Track 10 cannot be verified as accurate (confidence 8) [392DA46D], AccurateRip returned [ED51E40C] (AR v2)
Track 11 cannot be verified as accurate (confidence 8) [9CA54ED9], AccurateRip returned [1476D12E] (AR v2)
Track 12 cannot be verified as accurate (confidence 8) [BDEBC72B], AccurateRip returned [8674523A] (AR v2)
Track 13 cannot be verified as accurate (confidence 8) [14766B38], AccurateRip returned [F9295A76] (AR v2)
Track 14 cannot be verified as accurate (confidence 8) [1A19D2C0], AccurateRip returned [F84F408F] (AR v2)
Track 15 cannot be verified as accurate (confidence 8) [4728D132], AccurateRip returned [DA22F0A3] (AR v2)

No tracks could be verified as accurate
You may have a different pressing from the one(s) in the database

End of status report

==== Log checksum 74C2D5944091B629081A9EDF33EF089C5E38C231BE8028C88AD4FA51AE51530E ====

Exact Audio Copy V1.0 beta 3 from 29. August 2011

EAC extraction logfile from 4. March 2013, 12:25

Nina Simone / To Love Somebody

Used drive : PLEXTOR BD-R PX-B950SA Adapter: 6 ID: 0

Read mode : Secure
Utilize accurate stream : Yes
Defeat audio cache : Yes
Make use of C2 pointers : No

Read offset correction : 6
Overread into Lead-In and Lead-Out : No
Fill up missing offset samples with silence : Yes
Delete leading and trailing silent blocks : No
Null samples used in CRC calculations : Yes
Used interface : Native Win32 interface for Win NT & 2000

Used output format : Internal WAV Routines
Sample format : 44.100 Hz; 16 Bit; Stereo


TOC of the extracted CD

Track | Start | Length | Start sector | End sector
––––––––––––––––––––––––––––-
1 | 0:00.43 | 4:19.65 | 43 | 19532
2 | 4:20.33 | 3:41.09 | 19533 | 36116
3 | 8:01.42 | 2:52.43 | 36117 | 49059
4 | 10:54.10 | 1:53.59 | 49060 | 57593
5 | 12:47.69 | 2:41.13 | 57594 | 69681
6 | 15:29.07 | 3:54.03 | 69682 | 87234
7 | 19:23.10 | 3:08.38 | 87235 | 101372
8 | 22:31.48 | 4:48.65 | 101373 | 123037
9 | 27:20.38 | 6:01.02 | 123038 | 150114
10 | 33:21.40 | 5:14.27 | 150115 | 173691
11 | 38:35.67 | 2:26.48 | 173692 | 184689
12 | 41:02.40 | 6:29.48 | 184690 | 213912
13 | 47:32.13 | 3:36.12 | 213913 | 230124
14 | 51:08.25 | 2:11.46 | 230125 | 239995
15 | 53:19.71 | 2:32.74 | 239996 | 251469


Range status and errors

Selected range

Filename C:\Users\Meijin\Desktop\Lossless Galaxy Rip by ALLexxess\Nina Simone\2012 Complete RCA Album Collection (9CD Box Set RCA Records)\1969 To Love Somebody\Nina Simone - To Love Somebody.wav

Peak level 98.1 %
Extraction speed 8.0 X
Range quality 100.0 %
Test CRC 1ADD5D9C
Copy CRC 1ADD5D9C
Copy OK

No errors occurred


AccurateRip summary

Track 1 cannot be verified as accurate (confidence 8) [D358D752], AccurateRip returned [2BC8719F] (AR v2)
Track 2 cannot be verified as accurate (confidence 8) [1DC4A4B1], AccurateRip returned [461478B8] (AR v2)
Track 3 cannot be verified as accurate (confidence 8) [C9CE5D66], AccurateRip returned [14098ADF] (AR v2)
Track 4 cannot be verified as accurate (confidence 8) [AF3ACA4E], AccurateRip returned [C459040A] (AR v2)
Track 5 cannot be verified as accurate (confidence 8) [7F60A09D], AccurateRip returned [65D095B7] (AR v2)
Track 6 cannot be verified as accurate (confidence 8) [07CF91D9], AccurateRip returned [C9094DC0] (AR v2)
Track 7 cannot be verified as accurate (confidence 8) [36F0F001], AccurateRip returned [4A537626] (AR v2)
Track 8 cannot be verified as accurate (confidence 8) [0CD9505C], AccurateRip returned [FB251A54] (AR v2)
Track 9 cannot be verified as accurate (confidence 8) [2A6858FC], AccurateRip returned [0C0CF8ED] (AR v2)
Track 10 cannot be verified as accurate (confidence 8) [679947BC], AccurateRip returned [28D32A1D] (AR v2)
Track 11 cannot be verified as accurate (confidence 8) [DFE9A8C5], AccurateRip returned [3A7A992C] (AR v2)
Track 12 cannot be verified as accurate (confidence 8) [4EC430E2], AccurateRip returned [ED039F73] (AR v2)
Track 13 cannot be verified as accurate (confidence 8) [D25B2E6B], AccurateRip returned [81FD70B0] (AR v2)
Track 14 cannot be verified as accurate (confidence 8) [4FB6A260], AccurateRip returned [A991C6B3] (AR v2)
Track 15 cannot be verified as accurate (confidence 8) [E9D9D7BA], AccurateRip returned [9E3B72F6] (AR v2)

No tracks could be verified as accurate
You may have a different pressing from the one(s) in the database

End of status report

==== Log checksum 54C31DD7665F3BC80CD63092D0E8604A3763DCB803571F7B38F61E173FFEEAFD ====

Exact Audio Copy V1.0 beta 3 from 29. August 2011

EAC extraction logfile from 3. March 2013, 21:41

Nina Simone / Black Gold

Used drive : PLEXTOR BD-R PX-B950SA Adapter: 6 ID: 0

Read mode : Secure
Utilize accurate stream : Yes
Defeat audio cache : Yes
Make use of C2 pointers : No

Read offset correction : 6
Overread into Lead-In and Lead-Out : No
Fill up missing offset samples with silence : Yes
Delete leading and trailing silent blocks : No
Null samples used in CRC calculations : Yes
Used interface : Native Win32 interface for Win NT & 2000

Used output format : Internal WAV Routines
Sample format : 44.100 Hz; 16 Bit; Stereo


TOC of the extracted CD

Track | Start | Length | Start sector | End sector
––––––––––––––––––––––––––––-
1 | 0:00.43 | 2:36.41 | 43 | 11783
2 | 2:37.09 | 7:25.62 | 11784 | 45220
3 | 10:02.71 | 5:31.61 | 45221 | 70106
4 | 15:34.57 | 9:42.23 | 70107 | 113779
5 | 25:17.05 | 8:12.05 | 113780 | 150684
6 | 33:29.10 | 6:25.62 | 150685 | 179621
7 | 39:54.72 | 10:14.09 | 179622 | 225680
8 | 50:09.06 | 5:05.28 | 225681 | 248583
9 | 55:14.34 | 4:51.42 | 248584 | 270450
10 | 60:06.01 | 6:04.67 | 270451 | 297817
11 | 66:10.68 | 4:37.03 | 297818 | 318595
12 | 70:47.71 | 2:50.11 | 318596 | 331356


Range status and errors

Selected range

Filename C:\Users\Meijin\Desktop\Lossless Galaxy Rip by ALLexxess\Nina Simone\2012 Complete RCA Album Collection (9CD Box Set RCA Records)\1969 Black Gold\Nina Simone - Black Gold.wav

Peak level 97.8 %
Extraction speed 8.1 X
Range quality 99.9 %
Test CRC 96606249
Copy CRC 96606249
Copy OK

No errors occurred


AccurateRip summary

Track 1 cannot be verified as accurate (confidence 8) [C2790873], AccurateRip returned [DEBE5A98] (AR v2)
Track 2 cannot be verified as accurate (confidence 8) [5F2099EE], AccurateRip returned [739DD57B] (AR v2)
Track 3 cannot be verified as accurate (confidence 8) [A513EA21], AccurateRip returned [273AAE78] (AR v2)
Track 4 cannot be verified as accurate (confidence 8) [0360CD2B], AccurateRip returned [3F4A5DBA] (AR v2)
Track 5 cannot be verified as accurate (confidence 8) [4FEA2AAB], AccurateRip returned [26F4D3A6] (AR v2)
Track 6 cannot be verified as accurate (confidence 8) [F853CCFA], AccurateRip returned [7325031A] (AR v2)
Track 7 cannot be verified as accurate (confidence 8) [E062C53D], AccurateRip returned [85F705BC] (AR v2)
Track 8 cannot be verified as accurate (confidence 8) [4579E1AF], AccurateRip returned [5EF4B988] (AR v2)
Track 9 cannot be verified as accurate (confidence 8) [6AE5FEEB], AccurateRip returned [A6EFFD28] (AR v2)
Track 10 cannot be verified as accurate (confidence 8) [7AE5F3F0], AccurateRip returned [480125FB] (AR v2)
Track 11 cannot be verified as accurate (confidence 8) [B1EBF343], AccurateRip returned [BC49012D] (AR v2)
Track 12 cannot be verified as accurate (confidence 8) [795E84E8], AccurateRip returned [456F2F3E] (AR v2)

No tracks could be verified as accurate
You may have a different pressing from the one(s) in the database

End of status report

==== Log checksum D7C5AEBC4953A2F4CA18C210727CA775E7373D649A1BD0650FFEB7A7515AF4DE ====

Exact Audio Copy V1.0 beta 3 from 29. August 2011

EAC extraction logfile from 3. March 2013, 18:29

Nina Simone / Here Comes The Sun

Used drive : PLEXTOR BD-R PX-B950SA Adapter: 6 ID: 0

Read mode : Secure
Utilize accurate stream : Yes
Defeat audio cache : Yes
Make use of C2 pointers : No

Read offset correction : 6
Overread into Lead-In and Lead-Out : No
Fill up missing offset samples with silence : Yes
Delete leading and trailing silent blocks : No
Null samples used in CRC calculations : Yes
Used interface : Native Win32 interface for Win NT & 2000

Used output format : Internal WAV Routines
Sample format : 44.100 Hz; 16 Bit; Stereo


TOC of the extracted CD

Track | Start | Length | Start sector | End sector
––––––––––––––––––––––––––––-
1 | 0:00.43 | 3:37.03 | 43 | 16320
2 | 3:37.46 | 4:50.09 | 16321 | 38079
3 | 8:27.55 | 3:17.69 | 38080 | 52923
4 | 11:45.49 | 5:01.60 | 52924 | 75558
5 | 16:47.34 | 4:45.47 | 75559 | 96980
6 | 21:33.06 | 3:31.58 | 96981 | 112863
7 | 25:04.64 | 6:20.20 | 112864 | 141383
8 | 31:25.09 | 5:14.63 | 141384 | 164996
9 | 36:39.72 | 3:28.70 | 164997 | 180666
10 | 40:08.67 | 1:42.74 | 180667 | 188390
11 | 41:51.66 | 8:14.04 | 188391 | 225444
12 | 50:05.70 | 3:53.58 | 225445 | 242977
13 | 53:59.53 | 8:45.72 | 242978 | 282424
14 | 62:45.50 | 4:32.35 | 282425 | 302859


Range status and errors

Selected range

Filename C:\Users\Meijin\Desktop\Lossless Galaxy Rip by ALLexxess\Nina Simone\2012 Complete RCA Album Collection (9CD Box Set RCA Records)\1971 Here Comes The Sun\Nina Simone - Here Comes The Sun.wav

Peak level 94.9 %
Extraction speed 8.3 X
Range quality 99.9 %
Test CRC 1EA1E381
Copy CRC 1EA1E381
Copy OK

No errors occurred


AccurateRip summary

Track 1 cannot be verified as accurate (confidence 8) [BC313F1A], AccurateRip returned [E1B8CC14] (AR v2)
Track 2 cannot be verified as accurate (confidence 8) [1375B8EC], AccurateRip returned [A989B9F0] (AR v2)
Track 3 cannot be verified as accurate (confidence 8) [3C3289E0], AccurateRip returned [0F8EEF29] (AR v2)
Track 4 cannot be verified as accurate (confidence 8) [6D75E7E2], AccurateRip returned [F49C5737] (AR v2)
Track 5 cannot be verified as accurate (confidence 8) [8E54BC77], AccurateRip returned [592FDB2E] (AR v2)
Track 6 cannot be verified as accurate (confidence 8) [22D045C1], AccurateRip returned [9EF366F0] (AR v2)
Track 7 cannot be verified as accurate (confidence 8) [C3A58457], AccurateRip returned [F6ABCBC3] (AR v2)
Track 8 cannot be verified as accurate (confidence 8) [F5444FDF], AccurateRip returned [E0AAF894] (AR v2)
Track 9 cannot be verified as accurate (confidence 8) [F9BF70F2], AccurateRip returned [2C3C77AC] (AR v2)
Track 10 cannot be verified as accurate (confidence 8) [2253867D], AccurateRip returned [5CDC6DBC] (AR v2)
Track 11 cannot be verified as accurate (confidence 8) [A4A58512], AccurateRip returned [60759798] (AR v2)
Track 12 cannot be verified as accurate (confidence 8) [2821302C], AccurateRip returned [54987B02] (AR v2)
Track 13 cannot be verified as accurate (confidence 8) [607981C4], AccurateRip returned [B39069C9] (AR v2)
Track 14 cannot be verified as accurate (confidence 8) [3FAADC33], AccurateRip returned [5E01F8CC] (AR v2)

No tracks could be verified as accurate
You may have a different pressing from the one(s) in the database

End of status report

==== Log checksum D50EBA239E048BE791148CC6969830CCCD5768E358BDF642420F8E6ECA533CE5 ====

Exact Audio Copy V1.0 beta 3 from 29. August 2011

EAC extraction logfile from 3. March 2013, 13:56

Nina Simone / Emergency Ward!

Used drive : PLEXTOR BD-R PX-B950SA Adapter: 6 ID: 0

Read mode : Secure
Utilize accurate stream : Yes
Defeat audio cache : Yes
Make use of C2 pointers : No

Read offset correction : 6
Overread into Lead-In and Lead-Out : No
Fill up missing offset samples with silence : Yes
Delete leading and trailing silent blocks : No
Null samples used in CRC calculations : Yes
Used interface : Native Win32 interface for Win NT & 2000

Used output format : Internal WAV Routines
Sample format : 44.100 Hz; 16 Bit; Stereo


TOC of the extracted CD

Track | Start | Length | Start sector | End sector
––––––––––––––––––––––––––––-
1 | 0:00.43 | 18:36.50 | 43 | 83792
2 | 18:37.18 | 4:13.27 | 83793 | 102794
3 | 22:50.45 | 11:15.68 | 102795 | 153487
4 | 34:06.38 | 5:00.45 | 153488 | 176032


Range status and errors

Selected range

Filename C:\Users\Meijin\Desktop\Lossless Galaxy Rip by ALLexxess\Nina Simone\2012 Complete RCA Album Collection (9CD Box Set RCA Records)\1972 Emergency Ward!\Nina Simone - Emergency Ward!.wav

Peak level 98.0 %
Extraction speed 7.4 X
Range quality 100.0 %
Test CRC EAB04FF6
Copy CRC EAB04FF6
Copy OK

No errors occurred


AccurateRip summary

Track 1 cannot be verified as accurate (confidence 8) [F095BD63], AccurateRip returned [A3B8B73B] (AR v2)
Track 2 cannot be verified as accurate (confidence 8) [D77A1222], AccurateRip returned [19C5B6D5] (AR v2)
Track 3 cannot be verified as accurate (confidence 8) [7C4E40FC], AccurateRip returned [8C97022B] (AR v2)
Track 4 cannot be verified as accurate (confidence 8) [8CF55FC1], AccurateRip returned [940D0E24] (AR v2)

No tracks could be verified as accurate
You may have a different pressing from the one(s) in the database

End of status report

==== Log checksum FC7A4F541C7BD879402976235BCC9FD26399A931E2346BF6386F74F3A8B0908F ====

Exact Audio Copy V1.0 beta 3 from 29. August 2011

EAC extraction logfile from 3. March 2013, 12:59

Nina Simone / It Is Finished

Used drive : PLEXTOR BD-R PX-B950SA Adapter: 6 ID: 0

Read mode : Secure
Utilize accurate stream : Yes
Defeat audio cache : Yes
Make use of C2 pointers : No

Read offset correction : 6
Overread into Lead-In and Lead-Out : No
Fill up missing offset samples with silence : Yes
Delete leading and trailing silent blocks : No
Null samples used in CRC calculations : Yes
Used interface : Native Win32 interface for Win NT & 2000

Used output format : Internal WAV Routines
Sample format : 44.100 Hz; 16 Bit; Stereo


TOC of the extracted CD

Track | Start | Length | Start sector | End sector
––––––––––––––––––––––––––––-
1 | 0:00.43 | 5:15.55 | 43 | 23722
2 | 5:16.23 | 5:51.20 | 23723 | 50067
3 | 11:07.43 | 5:20.32 | 50068 | 74099
4 | 16:28.00 | 4:52.72 | 74100 | 96071
5 | 21:20.72 | 5:55.57 | 96072 | 122753
6 | 27:16.54 | 6:52.25 | 122754 | 153678
7 | 34:09.04 | 3:27.57 | 153679 | 169260
8 | 37:36.61 | 6:25.63 | 169261 | 198198
9 | 44:02.49 | 4:14.00 | 198199 | 217248
10 | 48:16.49 | 4:20.10 | 217249 | 236758
11 | 52:36.59 | 7:21.28 | 236759 | 269861


Range status and errors

Selected range

Filename C:\Users\Meijin\Desktop\Lossless Galaxy Rip by ALLexxess\Nina Simone\2012 Complete RCA Album Collection (9CD Box Set RCA Records)\1974 It Is Finished\Nina Simone - It Is Finished.wav

Peak level 98.8 %
Extraction speed 8.2 X
Range quality 100.0 %
Test CRC 322B96A5
Copy CRC 322B96A5
Copy OK

No errors occurred


AccurateRip summary

Track 1 cannot be verified as accurate (confidence 8) [A2C13E07], AccurateRip returned [32EEC04D] (AR v2)
Track 2 cannot be verified as accurate (confidence 8) [1B4E50E7], AccurateRip returned [0471FC26] (AR v2)
Track 3 cannot be verified as accurate (confidence 8) [25B29A88], AccurateRip returned [57E45555] (AR v2)
Track 4 cannot be verified as accurate (confidence 8) [92479C44], AccurateRip returned [DAD1E311] (AR v2)
Track 5 cannot be verified as accurate (confidence 8) [84DBDD17], AccurateRip returned [6C182675] (AR v2)
Track 6 cannot be verified as accurate (confidence 8) [9A3B354A], AccurateRip returned [CF04637C] (AR v2)
Track 7 cannot be verified as accurate (confidence 8) [FCA701ED], AccurateRip returned [3A4EA0FC] (AR v2)
Track 8 cannot be verified as accurate (confidence 8) [2C76D0AD], AccurateRip returned [E00241C6] (AR v2)
Track 9 cannot be verified as accurate (confidence 8) [8A198E8B], AccurateRip returned [506E6D79] (AR v2)
Track 10 cannot be verified as accurate (confidence 8) [1889C8AD], AccurateRip returned [A59301E5] (AR v2)
Track 11 cannot be verified as accurate (confidence 8) [AF896C50], AccurateRip returned [034E59BE] (AR v2)

No tracks could be verified as accurate
You may have a different pressing from the one(s) in the database

End of status report

==== Log checksum 40127571702917BCD8DFD950218E90FA64134186BAEAB369E5472F514A71B273 ====

All thanks go to the ALLexxess

More Music in My Blog
Follow My RSS Channel