Tags
Language
Tags

Ólafur Arnalds - some kind of peace (2020)

Posted By: delpotro
Ólafur Arnalds - some kind of peace (2020)

Ólafur Arnalds - some kind of peace (2020)
EAC Rip | FLAC (tracks+log+.cue) - 176 Mb | MP3 CBR 320 kbps - 89 Mb | 00:38:49
Electronic, Ambient, Modern Classical | Label: Decca Records

Olafur Arnalds new album, some kind of peace is his most revealing and vulnerable work to date and features Bonobo, Josin and JFDR. Within, you'll find a self-confessed perfectionist grappling with the messier realities of everyday life: the possibilities of love, of settling down, and how to navigate all of that during a global pandemic (the album was half-written prior to lockdown, and completed at Arnalds' harbour studio in downtown Reykjavik). What's emerged on some kind of peace is a record about letting your guard down, and ultimately what it means to be alive.

some kind of peace is a journey of Ólafur Arnalds’ personal and creative growth, set against the backdrop of a chaotic world. Within, you’ll hear hints of those private experiences - sometimes even samples of the significant events themselves – woven into an album that is remarkable in its openness, and its beauty. Throughout Ólafur urges you to embrace all that life throws at you, and above all to react, and contemplate, to find your kind of peace. His stunning new album would definitely be the place to start.
Tracklist:
1. Ólafur Arnalds & Bonobo – Loom (03:46)
2. Ólafur Arnalds – Woven Song (03:10)
3. Ólafur Arnalds – Spiral (03:20)
4. Ólafur Arnalds – Still / Sound (04:13)
5. Ólafur Arnalds & JFDR – Back to the Sky (03:23)
6. Ólafur Arnalds – Zero (04:26)
7. Ólafur Arnalds – New Grass (04:02)
8. Ólafur Arnalds & Josin – The Bottom Line (04:02)
9. Ólafur Arnalds – We Contain Multitudes (03:18)
10. Ólafur Arnalds – Undone (05:03)

Exact Audio Copy V1.3 from 2. September 2016

EAC extraction logfile from 14. November 2020, 12:35

Ólafur Arnalds / Some Kind Of Peace

Used drive : PLEXTOR DVDR PX-716A Adapter: 1 ID: 0

Read mode : Secure
Utilize accurate stream : Yes
Defeat audio cache : Yes
Make use of C2 pointers : No

Read offset correction : 30
Overread into Lead-In and Lead-Out : Yes
Fill up missing offset samples with silence : Yes
Delete leading and trailing silent blocks : No
Null samples used in CRC calculations : Yes
Used interface : Native Win32 interface for Win NT & 2000
Gap handling : Appended to previous track

Used output format : User Defined Encoder
Selected bitrate : 128 kBit/s
Quality : High
Add ID3 tag : No
Command line compressor : C:\Program Files (x86)\Exact Audio Copy\Flac\flac.exe
Additional command line options : -8 -V -T "ARTIST=%artist%" -T "TITLE=%title%" -T "ALBUM=%albumtitle%" -T "DATE=%year%" -T "TRACKNUMBER=%tracknr%" -T "GENRE=%genre%" -T "PERFORMER=%albuminterpret%" -T "COMPOSER=%composer%" %haslyrics%–tag-from-file=LYRICS="%lyricsfile%"%haslyrics% -T "ALBUMARTIST=%albumartist%" -T "DISCNUMBER=%cdnumber%" -T "TOTALDISCS=%totalcds%" -T "TOTALTRACKS=%numtracks%" -T "COMMENT=%comment%" %source% -o %dest%


TOC of the extracted CD

Track | Start | Length | Start sector | End sector
––––––––––––––––––––––––––––-
1 | 0:00.00 | 3:46.65 | 0 | 17014
2 | 3:46.65 | 3:10.21 | 17015 | 31285
3 | 6:57.11 | 3:20.72 | 31286 | 46357
4 | 10:18.08 | 4:13.36 | 46358 | 65368
5 | 14:31.44 | 3:23.11 | 65369 | 80604
6 | 17:54.55 | 4:26.73 | 80605 | 100627
7 | 22:21.53 | 4:02.00 | 100628 | 118777
8 | 26:23.53 | 4:02.22 | 118778 | 136949
9 | 30:26.00 | 3:18.39 | 136950 | 151838
10 | 33:44.39 | 5:04.52 | 151839 | 174690


Track 1

Filename E:\EACRips\01 Loom (feat. Bonobo).wav

Pre-gap length 0:00:02.00

Peak level 93.0 %
Extraction speed 8.2 X
Track quality 100.0 %
Test CRC EC548BC8
Copy CRC EC548BC8
Track not present in AccurateRip database
Copy OK

Track 2

Filename E:\EACRips\02 Woven Song.wav

Peak level 92.0 %
Extraction speed 8.9 X
Track quality 100.0 %
Test CRC 836B9E0E
Copy CRC 836B9E0E
Track not present in AccurateRip database
Copy OK

Track 3

Filename E:\EACRips\03 Spiral.wav

Peak level 92.5 %
Extraction speed 9.7 X
Track quality 100.0 %
Test CRC 40C36510
Copy CRC 40C36510
Track not present in AccurateRip database
Copy OK

Track 4

Filename E:\EACRips\04 Still , Sound.wav

Peak level 91.7 %
Extraction speed 10.4 X
Track quality 100.0 %
Test CRC 09226A6B
Copy CRC 09226A6B
Track not present in AccurateRip database
Copy OK

Track 5

Filename E:\EACRips\05 Back To The Sky (feat. JFDR).wav

Peak level 93.4 %
Extraction speed 9.7 X
Track quality 99.9 %
Test CRC 61644795
Copy CRC 61644795
Track not present in AccurateRip database
Copy OK

Track 6

Filename E:\EACRips\06 Zero.wav

Peak level 93.0 %
Extraction speed 11.9 X
Track quality 100.0 %
Test CRC 50EBEB83
Copy CRC 50EBEB83
Track not present in AccurateRip database
Copy OK

Track 7

Filename E:\EACRips\07 New Grass.wav

Peak level 92.9 %
Extraction speed 11.2 X
Track quality 99.9 %
Test CRC 1CE212FA
Copy CRC 1CE212FA
Track not present in AccurateRip database
Copy OK

Track 8

Filename E:\EACRips\08 The Bottom Line (feat. Josin).wav

Peak level 93.2 %
Extraction speed 13.2 X
Track quality 100.0 %
Test CRC A247016C
Copy CRC A247016C
Track not present in AccurateRip database
Copy OK

Track 9

Filename E:\EACRips\09 We Contain Multitudes.wav

Peak level 83.9 %
Extraction speed 11.6 X
Track quality 99.9 %
Test CRC 9B4FC592
Copy CRC 9B4FC592
Track not present in AccurateRip database
Copy OK

Track 10

Filename E:\EACRips\10 Undone.wav

Peak level 92.8 %
Extraction speed 14.8 X
Track quality 100.0 %
Test CRC A464A842
Copy CRC A464A842
Track not present in AccurateRip database
Copy OK


None of the tracks are present in the AccurateRip database

No errors occurred

End of status report

–– CUETools DB Plugin V2.1.6

[CTDB TOCID: uckaSRaulqizhGo1Ls_Y8rPHJXo-] found
Submit result: uckaSRaulqizhGo1Ls_Y8rPHJXo- has been confirmed
Track | CTDB Status
1 | (13/13) Accurately ripped
2 | (13/13) Accurately ripped
3 | (13/13) Accurately ripped
4 | (13/13) Accurately ripped
5 | (13/13) Accurately ripped
6 | (13/13) Accurately ripped
7 | (13/13) Accurately ripped
8 | (13/13) Accurately ripped
9 | (13/13) Accurately ripped
10 | (13/13) Accurately ripped


==== Log checksum E9DF105FF1745007A40DB5587D30B580C922C460C3E31F72B874951CD21ED0B6 ====

Thanks to the Original ripper !