Tags
Language
Tags
June 2024
Su Mo Tu We Th Fr Sa
26 27 28 29 30 31 1
2 3 4 5 6 7 8
9 10 11 12 13 14 15
16 17 18 19 20 21 22
23 24 25 26 27 28 29
30 1 2 3 4 5 6

Phil Guy - Classic Chicago Studio Session 1982 (2022)

Posted By: delpotro
Phil Guy - Classic Chicago Studio Session 1982 (2022)

Phil Guy - Classic Chicago Studio Session 1982 (2022)
EAC Rip | FLAC (tracks+log+.cue) | Covers included | 02:24:50 | 1,01 Gb
Modern Electric Blues, Chicago Blues | Label: JSP Records

Classic 1982 Chicago studio session also featuring Buddy Guy - plus stunning live tracks and previously unreleased three track studio session.

"Jimmy Dawkins came of age in the late 50s and early 60s alongside Magic Sam and Otis Rush… he plays as if his guitar were on fire. David Whiteis

Born in Lettsworth, Louisiana, on April 28th, 1940 Phil Guy was the younger brother of Buddy Guy. He learned to play Buddy's acoustic guitar and was soon sneaking from home to hear a harmonica player John Tilley, better known as 'Big Poppa'.

"I moved up to Chicago probably in '69 because in Baton Rouge there was just no work. I was tired of my job at a law firm and I wanted to travel and get into the blues. I just wanted to move out of Louisiana because the blues scene was in Chicago."

On arrival in Chicago he joined Buddy's band who were booked for a U.S. State Department sponsored tour of Africa. By 1970, Phil was a member of brother Buddy and Junior Wells' band opening for the Rolling Stones on a European tour including three nights in Paris in September. Phil even managed to squeeze in session work in Paris on a Memphis Slim album.

He said of himself: "I'm a north side - south side player. I never play the west side - I'm going to try to play the west side because they really like the blues. They stick to guitars and drums, they don't use keyboards too, much like the south side players do."

Jimmy 'Fastfingers' Dawkins hailed from Tchula, Mississippi. "I got my first guitar in 1953, or late 1952. My mother bought it for me from a Chicago mail order house for a very expensive price, at that time, of $11. I was always around the bands of Smiley Lewis, Guitar Slim and Fats Domino. I would say I liked their styles better than the Chicago sound. Then I came to Chicago in '55 and I see harmonica, two guitars and a drummer. They still sounded full. But I couldn't understand it. This wasn't what I expected to find, but I liked it once I did discover it."
Tracklist:
CD1
01. Breaking Out On Top
02. Texas Flood
03. Blues With A Feeling
04. Red Dress (Hi Heel Sneakers)
05. Cold Cold Feeling
06. Bad Luck Boy (Born Under A Bad Sign)
07. Wine Head Woman
08. Skin And Bones / Money
09. Love Is Like Quicksand
10. Garbage Man Blues

CD2
01. Talk To Me Baby
02. Sadie
03. Let Me Love You Baby
04. Everything Gonna Be Alright
05. You Gotta Love Somebody
06. Easy Baby
07. That's Allright
08. I Feel So Bad
09. You Don't Love Me
10. Dust My Blues Jam
11. Tina Nu
12. I Once Was A Gambler
13. Big Boss Man

Exact Audio Copy V1.3 from 2. September 2016

EAC extraction logfile from 17. October 2022, 16:05

Phil Guy / SOTO Sound Session 1982

Used drive : HL-DT-STBD-RE BH16NS55 Adapter: 1 ID: 0

Read mode : Secure
Utilize accurate stream : Yes
Defeat audio cache : Yes
Make use of C2 pointers : No

Read offset correction : 6
Overread into Lead-In and Lead-Out : No
Fill up missing offset samples with silence : Yes
Delete leading and trailing silent blocks : No
Null samples used in CRC calculations : Yes
Used interface : Native Win32 interface for Win NT & 2000
Gap handling : Appended to previous track

Used output format : User Defined Encoder
Selected bitrate : 1024 kBit/s
Quality : High
Add ID3 tag : No
Command line compressor : C:\Program Files (x86)\Exact Audio Copy\Flac\flac.exe
Additional command line options : -8 -V -T "ARTIST=%artist%" -T "TITLE=%title%" -T "ALBUM=%albumtitle%" -T "DATE=%year%" -T "TRACKNUMBER=%tracknr%" -T "GENRE=%genre%" -T "PERFORMER=%albuminterpret%" -T "COMPOSER=%composer%" %haslyrics%–tag-from-file=LYRICS="%lyricsfile%"%haslyrics% -T "ALBUMARTIST=%albumartist%" -T "DISCNUMBER=%cdnumber%" -T "TOTALDISCS=%totalcds%" -T "TOTALTRACKS=%numtracks%" -T "COMMENT=%comment%" %source% -o %dest%


TOC of the extracted CD

Track | Start | Length | Start sector | End sector
––––––––––––––––––––––––––––-
1 | 0:00.00 | 7:25.50 | 0 | 33424
2 | 7:25.50 | 5:46.03 | 33425 | 59377
3 | 13:11.53 | 6:14.43 | 59378 | 87470
4 | 19:26.21 | 4:10.06 | 87471 | 106226
5 | 23:36.27 | 8:53.37 | 106227 | 146238
6 | 32:29.64 | 9:02.48 | 146239 | 186936
7 | 41:32.37 | 3:50.29 | 186937 | 204215
8 | 45:22.66 | 8:24.56 | 204216 | 242071
9 | 53:47.47 | 5:06.74 | 242072 | 265095
10 | 58:54.46 | 6:08.37 | 265096 | 292732


Track 1

Filename D:\#cdr\#wav+flac\#new\Phil Guy - Classic Chicago Studio Sessions 1982\cd 1\01. Phil Guy - Breaking Out On Top.wav

Pre-gap length 0:00:02.00

Peak level 92.4 %
Extraction speed 5.1 X
Track quality 100.0 %
Test CRC F23D6F2B
Copy CRC F23D6F2B
Track not present in AccurateRip database
Copy OK

Track 2

Filename D:\#cdr\#wav+flac\#new\Phil Guy - Classic Chicago Studio Sessions 1982\cd 1\02. Phil Guy - Texas Flood.wav

Pre-gap length 0:00:02.00

Peak level 92.4 %
Extraction speed 5.8 X
Track quality 100.0 %
Test CRC BF166DFE
Copy CRC BF166DFE
Track not present in AccurateRip database
Copy OK

Track 3

Filename D:\#cdr\#wav+flac\#new\Phil Guy - Classic Chicago Studio Sessions 1982\cd 1\03. Phil Guy - Blues With A Feeling.wav

Pre-gap length 0:00:02.00

Peak level 92.1 %
Extraction speed 6.4 X
Track quality 100.0 %
Test CRC A88A8B5A
Copy CRC A88A8B5A
Track not present in AccurateRip database
Copy OK

Track 4

Filename D:\#cdr\#wav+flac\#new\Phil Guy - Classic Chicago Studio Sessions 1982\cd 1\04. Phil Guy - Red Dress (Hi Heel Sneakers).wav

Pre-gap length 0:00:02.00

Peak level 92.4 %
Extraction speed 6.6 X
Track quality 100.0 %
Test CRC A31D8919
Copy CRC A31D8919
Track not present in AccurateRip database
Copy OK

Track 5

Filename D:\#cdr\#wav+flac\#new\Phil Guy - Classic Chicago Studio Sessions 1982\cd 1\05. Phil Guy - Cold Cold Feeling.wav

Pre-gap length 0:00:02.00

Peak level 92.0 %
Extraction speed 7.0 X
Track quality 99.9 %
Test CRC FF0861EC
Copy CRC FF0861EC
Track not present in AccurateRip database
Copy OK

Track 6

Filename D:\#cdr\#wav+flac\#new\Phil Guy - Classic Chicago Studio Sessions 1982\cd 1\06. Phil Guy - Bad Luck Boy (Born Under A Bad Sign).wav

Pre-gap length 0:00:02.00

Peak level 93.9 %
Extraction speed 8.3 X
Track quality 100.0 %
Test CRC 556A0174
Copy CRC 556A0174
Track not present in AccurateRip database
Copy OK

Track 7

Filename D:\#cdr\#wav+flac\#new\Phil Guy - Classic Chicago Studio Sessions 1982\cd 1\07. Phil Guy - Wine Head Woman.wav

Pre-gap length 0:00:02.00

Peak level 93.1 %
Extraction speed 6.6 X
Track quality 99.9 %
Test CRC C7BFB5EF
Copy CRC C7BFB5EF
Track not present in AccurateRip database
Copy OK

Track 8

Filename D:\#cdr\#wav+flac\#new\Phil Guy - Classic Chicago Studio Sessions 1982\cd 1\08. Phil Guy - Skin And Bones , Money.wav

Pre-gap length 0:00:02.00

Peak level 92.3 %
Extraction speed 9.2 X
Track quality 100.0 %
Test CRC 45A615F9
Copy CRC 45A615F9
Track not present in AccurateRip database
Copy OK

Track 9

Filename D:\#cdr\#wav+flac\#new\Phil Guy - Classic Chicago Studio Sessions 1982\cd 1\09. Phil Guy - Love Is Like Quicksand.wav

Pre-gap length 0:00:02.00

Peak level 93.8 %
Extraction speed 9.1 X
Track quality 100.0 %
Test CRC 99C17546
Copy CRC 99C17546
Track not present in AccurateRip database
Copy OK

Track 10

Filename D:\#cdr\#wav+flac\#new\Phil Guy - Classic Chicago Studio Sessions 1982\cd 1\10. Phil Guy - Garbage Man Blues.wav

Pre-gap length 0:00:02.00

Peak level 92.3 %
Extraction speed 8.3 X
Track quality 99.9 %
Test CRC 4EE1BE9B
Copy CRC 4EE1BE9B
Track not present in AccurateRip database
Copy OK


None of the tracks are present in the AccurateRip database

No errors occurred

End of status report

–– CUETools DB Plugin V2.1.6

[CTDB TOCID: H6Y734PkhVg.hQkr6dsWEofJNxE-] found
Submit result: H6Y734PkhVg.hQkr6dsWEofJNxE- has been confirmed
Track | CTDB Status
1 | (1/1) Accurately ripped
2 | (1/1) Accurately ripped
3 | (1/1) Accurately ripped
4 | (1/1) Accurately ripped
5 | (1/1) Accurately ripped
6 | (1/1) Accurately ripped
7 | (1/1) Accurately ripped
8 | (1/1) Accurately ripped
9 | (1/1) Accurately ripped
10 | (1/1) Accurately ripped


==== Log checksum A9DAA8DF3423259620EF44724F367FF6CB65D0B992F57065F469BA73F56270F7 ====

––––––––––––––––––––––––––––––

Exact Audio Copy V1.3 from 2. September 2016

EAC extraction logfile from 17. October 2022, 16:05

Phil Guy / SOTO Sound Session 1982

Used drive : HL-DT-STBD-RE BH16NS55 Adapter: 1 ID: 0

Read mode : Secure
Utilize accurate stream : Yes
Defeat audio cache : Yes
Make use of C2 pointers : No

Read offset correction : 6
Overread into Lead-In and Lead-Out : No
Fill up missing offset samples with silence : Yes
Delete leading and trailing silent blocks : No
Null samples used in CRC calculations : Yes
Used interface : Native Win32 interface for Win NT & 2000
Gap handling : Appended to previous track

Used output format : User Defined Encoder
Selected bitrate : 1024 kBit/s
Quality : High
Add ID3 tag : No
Command line compressor : C:\Program Files (x86)\Exact Audio Copy\Flac\flac.exe
Additional command line options : -8 -V -T "ARTIST=%artist%" -T "TITLE=%title%" -T "ALBUM=%albumtitle%" -T "DATE=%year%" -T "TRACKNUMBER=%tracknr%" -T "GENRE=%genre%" -T "PERFORMER=%albuminterpret%" -T "COMPOSER=%composer%" %haslyrics%–tag-from-file=LYRICS="%lyricsfile%"%haslyrics% -T "ALBUMARTIST=%albumartist%" -T "DISCNUMBER=%cdnumber%" -T "TOTALDISCS=%totalcds%" -T "TOTALTRACKS=%numtracks%" -T "COMMENT=%comment%" %source% -o %dest%


TOC of the extracted CD

Track | Start | Length | Start sector | End sector
––––––––––––––––––––––––––––-
1 | 0:00.00 | 7:25.50 | 0 | 33424
2 | 7:25.50 | 5:46.03 | 33425 | 59377
3 | 13:11.53 | 6:14.43 | 59378 | 87470
4 | 19:26.21 | 4:10.06 | 87471 | 106226
5 | 23:36.27 | 8:53.37 | 106227 | 146238
6 | 32:29.64 | 9:02.48 | 146239 | 186936
7 | 41:32.37 | 3:50.29 | 186937 | 204215
8 | 45:22.66 | 8:24.56 | 204216 | 242071
9 | 53:47.47 | 5:06.74 | 242072 | 265095
10 | 58:54.46 | 6:08.37 | 265096 | 292732


Track 1

Filename D:\#cdr\#wav+flac\#new\Phil Guy - Classic Chicago Studio Sessions 1982\cd 1\01. Phil Guy - Breaking Out On Top.wav

Pre-gap length 0:00:02.00

Peak level 92.4 %
Extraction speed 5.1 X
Track quality 100.0 %
Test CRC F23D6F2B
Copy CRC F23D6F2B
Track not present in AccurateRip database
Copy OK

Track 2

Filename D:\#cdr\#wav+flac\#new\Phil Guy - Classic Chicago Studio Sessions 1982\cd 1\02. Phil Guy - Texas Flood.wav

Pre-gap length 0:00:02.00

Peak level 92.4 %
Extraction speed 5.8 X
Track quality 100.0 %
Test CRC BF166DFE
Copy CRC BF166DFE
Track not present in AccurateRip database
Copy OK

Track 3

Filename D:\#cdr\#wav+flac\#new\Phil Guy - Classic Chicago Studio Sessions 1982\cd 1\03. Phil Guy - Blues With A Feeling.wav

Pre-gap length 0:00:02.00

Peak level 92.1 %
Extraction speed 6.4 X
Track quality 100.0 %
Test CRC A88A8B5A
Copy CRC A88A8B5A
Track not present in AccurateRip database
Copy OK

Track 4

Filename D:\#cdr\#wav+flac\#new\Phil Guy - Classic Chicago Studio Sessions 1982\cd 1\04. Phil Guy - Red Dress (Hi Heel Sneakers).wav

Pre-gap length 0:00:02.00

Peak level 92.4 %
Extraction speed 6.6 X
Track quality 100.0 %
Test CRC A31D8919
Copy CRC A31D8919
Track not present in AccurateRip database
Copy OK

Track 5

Filename D:\#cdr\#wav+flac\#new\Phil Guy - Classic Chicago Studio Sessions 1982\cd 1\05. Phil Guy - Cold Cold Feeling.wav

Pre-gap length 0:00:02.00

Peak level 92.0 %
Extraction speed 7.0 X
Track quality 99.9 %
Test CRC FF0861EC
Copy CRC FF0861EC
Track not present in AccurateRip database
Copy OK

Track 6

Filename D:\#cdr\#wav+flac\#new\Phil Guy - Classic Chicago Studio Sessions 1982\cd 1\06. Phil Guy - Bad Luck Boy (Born Under A Bad Sign).wav

Pre-gap length 0:00:02.00

Peak level 93.9 %
Extraction speed 8.3 X
Track quality 100.0 %
Test CRC 556A0174
Copy CRC 556A0174
Track not present in AccurateRip database
Copy OK

Track 7

Filename D:\#cdr\#wav+flac\#new\Phil Guy - Classic Chicago Studio Sessions 1982\cd 1\07. Phil Guy - Wine Head Woman.wav

Pre-gap length 0:00:02.00

Peak level 93.1 %
Extraction speed 6.6 X
Track quality 99.9 %
Test CRC C7BFB5EF
Copy CRC C7BFB5EF
Track not present in AccurateRip database
Copy OK

Track 8

Filename D:\#cdr\#wav+flac\#new\Phil Guy - Classic Chicago Studio Sessions 1982\cd 1\08. Phil Guy - Skin And Bones , Money.wav

Pre-gap length 0:00:02.00

Peak level 92.3 %
Extraction speed 9.2 X
Track quality 100.0 %
Test CRC 45A615F9
Copy CRC 45A615F9
Track not present in AccurateRip database
Copy OK

Track 9

Filename D:\#cdr\#wav+flac\#new\Phil Guy - Classic Chicago Studio Sessions 1982\cd 1\09. Phil Guy - Love Is Like Quicksand.wav

Pre-gap length 0:00:02.00

Peak level 93.8 %
Extraction speed 9.1 X
Track quality 100.0 %
Test CRC 99C17546
Copy CRC 99C17546
Track not present in AccurateRip database
Copy OK

Track 10

Filename D:\#cdr\#wav+flac\#new\Phil Guy - Classic Chicago Studio Sessions 1982\cd 1\10. Phil Guy - Garbage Man Blues.wav

Pre-gap length 0:00:02.00

Peak level 92.3 %
Extraction speed 8.3 X
Track quality 99.9 %
Test CRC 4EE1BE9B
Copy CRC 4EE1BE9B
Track not present in AccurateRip database
Copy OK


None of the tracks are present in the AccurateRip database

No errors occurred

End of status report

–– CUETools DB Plugin V2.1.6

[CTDB TOCID: H6Y734PkhVg.hQkr6dsWEofJNxE-] found
Submit result: H6Y734PkhVg.hQkr6dsWEofJNxE- has been confirmed
Track | CTDB Status
1 | (1/1) Accurately ripped
2 | (1/1) Accurately ripped
3 | (1/1) Accurately ripped
4 | (1/1) Accurately ripped
5 | (1/1) Accurately ripped
6 | (1/1) Accurately ripped
7 | (1/1) Accurately ripped
8 | (1/1) Accurately ripped
9 | (1/1) Accurately ripped
10 | (1/1) Accurately ripped


==== Log checksum A9DAA8DF3423259620EF44724F367FF6CB65D0B992F57065F469BA73F56270F7 ====
Exact Audio Copy V1.3 from 2. September 2016

EAC extraction logfile from 17. October 2022, 16:31

Phil Guy / Live At The 100 Club ; Mary Costello Show

Used drive : HL-DT-STBD-RE BH16NS55 Adapter: 1 ID: 0

Read mode : Secure
Utilize accurate stream : Yes
Defeat audio cache : Yes
Make use of C2 pointers : No

Read offset correction : 6
Overread into Lead-In and Lead-Out : No
Fill up missing offset samples with silence : Yes
Delete leading and trailing silent blocks : No
Null samples used in CRC calculations : Yes
Used interface : Native Win32 interface for Win NT & 2000
Gap handling : Appended to previous track

Used output format : User Defined Encoder
Selected bitrate : 1024 kBit/s
Quality : High
Add ID3 tag : No
Command line compressor : C:\Program Files (x86)\Exact Audio Copy\Flac\flac.exe
Additional command line options : -8 -V -T "ARTIST=%artist%" -T "TITLE=%title%" -T "ALBUM=%albumtitle%" -T "DATE=%year%" -T "TRACKNUMBER=%tracknr%" -T "GENRE=%genre%" -T "PERFORMER=%albuminterpret%" -T "COMPOSER=%composer%" %haslyrics%–tag-from-file=LYRICS="%lyricsfile%"%haslyrics% -T "ALBUMARTIST=%albumartist%" -T "DISCNUMBER=%cdnumber%" -T "TOTALDISCS=%totalcds%" -T "TOTALTRACKS=%numtracks%" -T "COMMENT=%comment%" %source% -o %dest%


TOC of the extracted CD

Track | Start | Length | Start sector | End sector
––––––––––––––––––––––––––––-
1 | 0:00.00 | 4:27.01 | 0 | 20025
2 | 4:27.01 | 6:33.52 | 20026 | 49552
3 | 11:00.53 | 5:03.63 | 49553 | 72340
4 | 16:04.41 | 5:03.05 | 72341 | 95070
5 | 21:07.46 | 8:25.20 | 95071 | 132965
6 | 29:32.66 | 5:54.63 | 132966 | 159578
7 | 35:27.54 | 7:09.56 | 159579 | 191809
8 | 42:37.35 | 5:15.01 | 191810 | 215435
9 | 47:52.36 | 4:42.30 | 215436 | 236615
10 | 52:34.66 | 9:24.21 | 236616 | 278936
11 | 61:59.12 | 4:47.34 | 278937 | 300495
12 | 66:46.46 | 5:49.20 | 300496 | 326690
13 | 72:35.66 | 7:11.11 | 326691 | 359026


Track 1

Filename D:\#cdr\#wav+flac\#new\Phil Guy - Classic Chicago Studio Sessions 1982\cd 2\01. Phil Guy - Talk To Me Baby.wav

Pre-gap length 0:00:02.00

Peak level 96.4 %
Extraction speed 5.1 X
Track quality 100.0 %
Test CRC 650A9D4B
Copy CRC 650A9D4B
Track not present in AccurateRip database
Copy OK

Track 2

Filename D:\#cdr\#wav+flac\#new\Phil Guy - Classic Chicago Studio Sessions 1982\cd 2\02. Phil Guy - Sadie.wav

Pre-gap length 0:00:01.00

Peak level 96.4 %
Extraction speed 5.9 X
Track quality 100.0 %
Test CRC 9E255595
Copy CRC 9E255595
Track not present in AccurateRip database
Copy OK

Track 3

Filename D:\#cdr\#wav+flac\#new\Phil Guy - Classic Chicago Studio Sessions 1982\cd 2\03. Phil Guy - Let Me Love You Baby.wav

Pre-gap length 0:00:01.00

Peak level 96.4 %
Extraction speed 6.3 X
Track quality 100.0 %
Test CRC 083FB57C
Copy CRC 083FB57C
Track not present in AccurateRip database
Copy OK

Track 4

Filename D:\#cdr\#wav+flac\#new\Phil Guy - Classic Chicago Studio Sessions 1982\cd 2\04. Phil Guy - Everything Gonna Be Alright.wav

Pre-gap length 0:00:01.00

Peak level 96.4 %
Extraction speed 6.7 X
Track quality 100.0 %
Test CRC FE82F997
Copy CRC FE82F997
Track not present in AccurateRip database
Copy OK

Track 5

Filename D:\#cdr\#wav+flac\#new\Phil Guy - Classic Chicago Studio Sessions 1982\cd 2\05. Phil Guy - You Gotta Love Somebody.wav

Pre-gap length 0:00:01.00

Peak level 96.4 %
Extraction speed 6.9 X
Track quality 99.9 %
Test CRC 18B0A790
Copy CRC 18B0A790
Track not present in AccurateRip database
Copy OK

Track 6

Filename D:\#cdr\#wav+flac\#new\Phil Guy - Classic Chicago Studio Sessions 1982\cd 2\06. Phil Guy - Easy Baby.wav

Pre-gap length 0:00:01.00

Peak level 96.4 %
Extraction speed 7.9 X
Track quality 100.0 %
Test CRC F26F4A6B
Copy CRC F26F4A6B
Track not present in AccurateRip database
Copy OK

Track 7

Filename D:\#cdr\#wav+flac\#new\Phil Guy - Classic Chicago Studio Sessions 1982\cd 2\07. Phil Guy - That's Allright.wav

Pre-gap length 0:00:01.00

Peak level 96.4 %
Extraction speed 8.5 X
Track quality 100.0 %
Test CRC 1AD5F3AE
Copy CRC 1AD5F3AE
Track not present in AccurateRip database
Copy OK

Track 8

Filename D:\#cdr\#wav+flac\#new\Phil Guy - Classic Chicago Studio Sessions 1982\cd 2\08. Phil Guy - I Feel So Bad.wav

Pre-gap length 0:00:01.00

Peak level 96.4 %
Extraction speed 8.7 X
Track quality 100.0 %
Test CRC 7EF27092
Copy CRC 7EF27092
Track not present in AccurateRip database
Copy OK

Track 9

Filename D:\#cdr\#wav+flac\#new\Phil Guy - Classic Chicago Studio Sessions 1982\cd 2\09. Phil Guy - You Don't Love Me.wav

Pre-gap length 0:00:01.00

Peak level 96.4 %
Extraction speed 8.8 X
Track quality 100.0 %
Test CRC 1F022D6C
Copy CRC 1F022D6C
Track not present in AccurateRip database
Copy OK

Track 10

Filename D:\#cdr\#wav+flac\#new\Phil Guy - Classic Chicago Studio Sessions 1982\cd 2\10. Phil Guy - Dust My Blues Jam.wav

Pre-gap length 0:00:01.00

Peak level 96.4 %
Extraction speed 9.8 X
Track quality 100.0 %
Test CRC 10DB3F90
Copy CRC 10DB3F90
Track not present in AccurateRip database
Copy OK

Track 11

Filename D:\#cdr\#wav+flac\#new\Phil Guy - Classic Chicago Studio Sessions 1982\cd 2\11. Phil Guy - Tina Nu.wav

Pre-gap length 0:00:01.00

Peak level 96.4 %
Extraction speed 6.7 X
Track quality 100.0 %
Test CRC 2F4522AE
Copy CRC 2F4522AE
Track not present in AccurateRip database
Copy OK

Track 12

Filename D:\#cdr\#wav+flac\#new\Phil Guy - Classic Chicago Studio Sessions 1982\cd 2\12. Phil Guy - I Once Was A Gambler.wav

Pre-gap length 0:00:01.00

Peak level 96.4 %
Extraction speed 8.7 X
Track quality 99.9 %
Test CRC 2DEB60E8
Copy CRC 2DEB60E8
Track not present in AccurateRip database
Copy OK

Track 13

Filename D:\#cdr\#wav+flac\#new\Phil Guy - Classic Chicago Studio Sessions 1982\cd 2\13. Phil Guy - Big Boss Man.wav

Pre-gap length 0:00:01.00

Peak level 96.4 %
Extraction speed 10.5 X
Track quality 100.0 %
Test CRC 245556B5
Copy CRC 245556B5
Track not present in AccurateRip database
Copy OK


None of the tracks are present in the AccurateRip database

No errors occurred

End of status report

–– CUETools DB Plugin V2.1.6

[CTDB TOCID: 6PHpJAH9KulO4up9gZ1Vt_qZTo0-] disk not present in database
Submit result: 6PHpJAH9KulO4up9gZ1Vt_qZTo0- has been uploaded


==== Log checksum D62F82A16C18AA0CB56F0B76E64F6078BFF41EBCFDD4E4D4BDBAA8B3A191F3D6 ====

––––––––––––––––––––––––––––––

Exact Audio Copy V1.3 from 2. September 2016

EAC extraction logfile from 17. October 2022, 16:31

Phil Guy / Live At The 100 Club ; Mary Costello Show

Used drive : HL-DT-STBD-RE BH16NS55 Adapter: 1 ID: 0

Read mode : Secure
Utilize accurate stream : Yes
Defeat audio cache : Yes
Make use of C2 pointers : No

Read offset correction : 6
Overread into Lead-In and Lead-Out : No
Fill up missing offset samples with silence : Yes
Delete leading and trailing silent blocks : No
Null samples used in CRC calculations : Yes
Used interface : Native Win32 interface for Win NT & 2000
Gap handling : Appended to previous track

Used output format : User Defined Encoder
Selected bitrate : 1024 kBit/s
Quality : High
Add ID3 tag : No
Command line compressor : C:\Program Files (x86)\Exact Audio Copy\Flac\flac.exe
Additional command line options : -8 -V -T "ARTIST=%artist%" -T "TITLE=%title%" -T "ALBUM=%albumtitle%" -T "DATE=%year%" -T "TRACKNUMBER=%tracknr%" -T "GENRE=%genre%" -T "PERFORMER=%albuminterpret%" -T "COMPOSER=%composer%" %haslyrics%–tag-from-file=LYRICS="%lyricsfile%"%haslyrics% -T "ALBUMARTIST=%albumartist%" -T "DISCNUMBER=%cdnumber%" -T "TOTALDISCS=%totalcds%" -T "TOTALTRACKS=%numtracks%" -T "COMMENT=%comment%" %source% -o %dest%


TOC of the extracted CD

Track | Start | Length | Start sector | End sector
––––––––––––––––––––––––––––-
1 | 0:00.00 | 4:27.01 | 0 | 20025
2 | 4:27.01 | 6:33.52 | 20026 | 49552
3 | 11:00.53 | 5:03.63 | 49553 | 72340
4 | 16:04.41 | 5:03.05 | 72341 | 95070
5 | 21:07.46 | 8:25.20 | 95071 | 132965
6 | 29:32.66 | 5:54.63 | 132966 | 159578
7 | 35:27.54 | 7:09.56 | 159579 | 191809
8 | 42:37.35 | 5:15.01 | 191810 | 215435
9 | 47:52.36 | 4:42.30 | 215436 | 236615
10 | 52:34.66 | 9:24.21 | 236616 | 278936
11 | 61:59.12 | 4:47.34 | 278937 | 300495
12 | 66:46.46 | 5:49.20 | 300496 | 326690
13 | 72:35.66 | 7:11.11 | 326691 | 359026


Track 1

Filename D:\#cdr\#wav+flac\#new\Phil Guy - Classic Chicago Studio Sessions 1982\cd 2\01. Phil Guy - Talk To Me Baby.wav

Pre-gap length 0:00:02.00

Peak level 96.4 %
Extraction speed 5.1 X
Track quality 100.0 %
Test CRC 650A9D4B
Copy CRC 650A9D4B
Track not present in AccurateRip database
Copy OK

Track 2

Filename D:\#cdr\#wav+flac\#new\Phil Guy - Classic Chicago Studio Sessions 1982\cd 2\02. Phil Guy - Sadie.wav

Pre-gap length 0:00:01.00

Peak level 96.4 %
Extraction speed 5.9 X
Track quality 100.0 %
Test CRC 9E255595
Copy CRC 9E255595
Track not present in AccurateRip database
Copy OK

Track 3

Filename D:\#cdr\#wav+flac\#new\Phil Guy - Classic Chicago Studio Sessions 1982\cd 2\03. Phil Guy - Let Me Love You Baby.wav

Pre-gap length 0:00:01.00

Peak level 96.4 %
Extraction speed 6.3 X
Track quality 100.0 %
Test CRC 083FB57C
Copy CRC 083FB57C
Track not present in AccurateRip database
Copy OK

Track 4

Filename D:\#cdr\#wav+flac\#new\Phil Guy - Classic Chicago Studio Sessions 1982\cd 2\04. Phil Guy - Everything Gonna Be Alright.wav

Pre-gap length 0:00:01.00

Peak level 96.4 %
Extraction speed 6.7 X
Track quality 100.0 %
Test CRC FE82F997
Copy CRC FE82F997
Track not present in AccurateRip database
Copy OK

Track 5

Filename D:\#cdr\#wav+flac\#new\Phil Guy - Classic Chicago Studio Sessions 1982\cd 2\05. Phil Guy - You Gotta Love Somebody.wav

Pre-gap length 0:00:01.00

Peak level 96.4 %
Extraction speed 6.9 X
Track quality 99.9 %
Test CRC 18B0A790
Copy CRC 18B0A790
Track not present in AccurateRip database
Copy OK

Track 6

Filename D:\#cdr\#wav+flac\#new\Phil Guy - Classic Chicago Studio Sessions 1982\cd 2\06. Phil Guy - Easy Baby.wav

Pre-gap length 0:00:01.00

Peak level 96.4 %
Extraction speed 7.9 X
Track quality 100.0 %
Test CRC F26F4A6B
Copy CRC F26F4A6B
Track not present in AccurateRip database
Copy OK

Track 7

Filename D:\#cdr\#wav+flac\#new\Phil Guy - Classic Chicago Studio Sessions 1982\cd 2\07. Phil Guy - That's Allright.wav

Pre-gap length 0:00:01.00

Peak level 96.4 %
Extraction speed 8.5 X
Track quality 100.0 %
Test CRC 1AD5F3AE
Copy CRC 1AD5F3AE
Track not present in AccurateRip database
Copy OK

Track 8

Filename D:\#cdr\#wav+flac\#new\Phil Guy - Classic Chicago Studio Sessions 1982\cd 2\08. Phil Guy - I Feel So Bad.wav

Pre-gap length 0:00:01.00

Peak level 96.4 %
Extraction speed 8.7 X
Track quality 100.0 %
Test CRC 7EF27092
Copy CRC 7EF27092
Track not present in AccurateRip database
Copy OK

Track 9

Filename D:\#cdr\#wav+flac\#new\Phil Guy - Classic Chicago Studio Sessions 1982\cd 2\09. Phil Guy - You Don't Love Me.wav

Pre-gap length 0:00:01.00

Peak level 96.4 %
Extraction speed 8.8 X
Track quality 100.0 %
Test CRC 1F022D6C
Copy CRC 1F022D6C
Track not present in AccurateRip database
Copy OK

Track 10

Filename D:\#cdr\#wav+flac\#new\Phil Guy - Classic Chicago Studio Sessions 1982\cd 2\10. Phil Guy - Dust My Blues Jam.wav

Pre-gap length 0:00:01.00

Peak level 96.4 %
Extraction speed 9.8 X
Track quality 100.0 %
Test CRC 10DB3F90
Copy CRC 10DB3F90
Track not present in AccurateRip database
Copy OK

Track 11

Filename D:\#cdr\#wav+flac\#new\Phil Guy - Classic Chicago Studio Sessions 1982\cd 2\11. Phil Guy - Tina Nu.wav

Pre-gap length 0:00:01.00

Peak level 96.4 %
Extraction speed 6.7 X
Track quality 100.0 %
Test CRC 2F4522AE
Copy CRC 2F4522AE
Track not present in AccurateRip database
Copy OK

Track 12

Filename D:\#cdr\#wav+flac\#new\Phil Guy - Classic Chicago Studio Sessions 1982\cd 2\12. Phil Guy - I Once Was A Gambler.wav

Pre-gap length 0:00:01.00

Peak level 96.4 %
Extraction speed 8.7 X
Track quality 99.9 %
Test CRC 2DEB60E8
Copy CRC 2DEB60E8
Track not present in AccurateRip database
Copy OK

Track 13

Filename D:\#cdr\#wav+flac\#new\Phil Guy - Classic Chicago Studio Sessions 1982\cd 2\13. Phil Guy - Big Boss Man.wav

Pre-gap length 0:00:01.00

Peak level 96.4 %
Extraction speed 10.5 X
Track quality 100.0 %
Test CRC 245556B5
Copy CRC 245556B5
Track not present in AccurateRip database
Copy OK


None of the tracks are present in the AccurateRip database

No errors occurred

End of status report

–– CUETools DB Plugin V2.1.6

[CTDB TOCID: 6PHpJAH9KulO4up9gZ1Vt_qZTo0-] disk not present in database
Submit result: 6PHpJAH9KulO4up9gZ1Vt_qZTo0- has been uploaded


==== Log checksum D62F82A16C18AA0CB56F0B76E64F6078BFF41EBCFDD4E4D4BDBAA8B3A191F3D6 ====

Thanks to the Original ripper !