Subcategories
Tags
Language
Tags

Ringo Starr - Zoom In (EP) (2021)

Posted By: delpotro
Ringo Starr - Zoom In (EP) (2021)

Ringo Starr - Zoom In (EP) (2021)
EAC Rip | FLAC (tracks+log+.cue) - 187 Mb | MP3 CBR 320 kbps - 86 Mb | Scans included | 00:19:21
Pop Rock | Label: Universal Music

'Zoom In' was recorded at Ringo Starr's home studio from April-October 2020. The 5 new songs "Here's To The Nights," "Zoom In Zoom Out," "Teach Me To Tango," "Waiting for the Tide to Turn" & "Not Enough Love In the World" include contributions from Paul McCartney, Joe Walsh, Ben Harper, Dave Grohl, Sheryl Crow, Chris Stapleton, Steve Lukather, Jenny Lewis, Lenny Kravitz, Corinne Bailey Rae, Eric Burton, Yola, FINNEAS, Benmont Tench, Robbie Krieger, Sam Hollander, Bruce Sugar & more.
Tracklist:
1. Here's To The Nights (04:05)
2. Zoom In Zoom Out (03:57)
3. Teach Me To Tango (03:07)
4. Waiting For The Tide To Turn (03:54)
5. Not Enough Love In The World (04:16)

Exact Audio Copy V1.6 from 23. October 2020

EAC extraction logfile from 20. April 2021, 20:50

Ringo Starr / Zoom In (EP)

Used drive : PLEXTOR PX-891SAF PLUS Adapter: 1 ID: 0

Read mode : Secure
Utilize accurate stream : Yes
Defeat audio cache : Yes
Make use of C2 pointers : No

Read offset correction : 6
Overread into Lead-In and Lead-Out : No
Fill up missing offset samples with silence : Yes
Delete leading and trailing silent blocks : No
Null samples used in CRC calculations : Yes
Used interface : Native Win32 interface for Win NT & 2000
Gap handling : Appended to previous track

Used output format : User Defined Encoder
Selected bitrate : 1024 kBit/s
Quality : High
Add ID3 tag : No
Command line compressor : C:\Program Files (x86)\Exact Audio Copy\Flac\flac.exe
Additional command line options : -0 -V -T "ARTIST=%artist%" -T "TITLE=%title%" -T "ALBUM=%albumtitle%" -T "DATE=%year%" -T "TRACKNUMBER=%tracknr%" -T "TOTALTRACKS=%numtracks%" -T "GENRE=%genre%" -T "COMMENT=Naftamusic Release!" %source%


TOC of the extracted CD

Track | Start | Length | Start sector | End sector
––––––––––––––––––––––––––––-
1 | 0:00.00 | 4:05.52 | 0 | 18426
2 | 4:05.52 | 3:57.18 | 18427 | 36219
3 | 8:02.70 | 3:07.51 | 36220 | 50295
4 | 11:10.46 | 3:54.35 | 50296 | 67880
5 | 15:05.06 | 4:16.30 | 67881 | 87110


Track 1

Filename E:\Nafta Releases\Ringo Starr - Zoom In (EP 2021)[FLAC]-Naftamusic\01 - Here's To The Nights.wav

Pre-gap length 0:00:02.00

Peak level 98.8 %
Extraction speed 2.1 X
Track quality 99.9 %
Test CRC B894FD32
Copy CRC B894FD32
Accurately ripped (confidence 2) [970E579D] (AR v2)
Copy OK

Track 2

Filename E:\Nafta Releases\Ringo Starr - Zoom In (EP 2021)[FLAC]-Naftamusic\02 - Zoom In Zoom Out.wav

Peak level 98.8 %
Extraction speed 2.9 X
Track quality 100.0 %
Test CRC AD87BF72
Copy CRC AD87BF72
Accurately ripped (confidence 2) [F4EBB1EB] (AR v2)
Copy OK

Track 3

Filename E:\Nafta Releases\Ringo Starr - Zoom In (EP 2021)[FLAC]-Naftamusic\03 - Teach Me To Tango.wav

Peak level 91.8 %
Extraction speed 3.0 X
Track quality 100.0 %
Test CRC D41CDD3C
Copy CRC D41CDD3C
Accurately ripped (confidence 2) [AF668BEE] (AR v2)
Copy OK

Track 4

Filename E:\Nafta Releases\Ringo Starr - Zoom In (EP 2021)[FLAC]-Naftamusic\04 - Waiting For The Tide To Turn.wav

Peak level 98.8 %
Extraction speed 3.4 X
Track quality 100.0 %
Test CRC 24F17F22
Copy CRC 24F17F22
Accurately ripped (confidence 2) [457A02D7] (AR v2)
Copy OK

Track 5

Filename E:\Nafta Releases\Ringo Starr - Zoom In (EP 2021)[FLAC]-Naftamusic\05 - Not Enough Love In The World.wav

Peak level 98.8 %
Extraction speed 3.6 X
Track quality 100.0 %
Test CRC 798E203A
Copy CRC 798E203A
Accurately ripped (confidence 2) [35F89840] (AR v2)
Copy OK


All tracks accurately ripped

No errors occurred

End of status report

==== Log checksum 7096132324A0006C4AAD4A8A3DE4A21428406AFD37F5FB2483A8DB678ECBF8D3 ====

Thanks to the Original ripper !