Subcategories
Tags
Language
Tags

Ryuichi Sakamoto - Futurista (1986) {Midi Inc. Japan MDC7-1015 rel 1991}

Posted By: ruskaval
Ryuichi Sakamoto - Futurista (1986) {Midi Inc. Japan MDC7-1015 rel 1991}

Ryuichi Sakamoto - Futurista (1986) {Midi Inc. Japan MDC7-1015 rel 1991}
XLD rip (secure mode) | FLAC (tracks)+CUE+LOG -> 237 Mb | MP3 @320 -> 102 Mb
Full Artwork @ 300 dpi (png) -> 36 Mb | 5% repair rar
© 1986, 1991 Midi Inc. Japan / MDC7-1015
Electronic / Synth-Pop / Experimental

Futurista (未来派野郎, translates literally as "Futurist Bastard") is a 1986 album by Ryuichi Sakamoto with themed references to the Futurist Movement. "Parolibre" and "Milan 1909" include voice recordings of Futurist Filippo Tommaso Marinetti "G.T. II" contains samples from the song "Legs" by Art of Noise.
Ryuichi Sakamoto - Futurista (1986) {Midi Inc. Japan MDC7-1015 rel 1991}


Performers:

Ryuichi Sakamoto (坂本龍一)
With:
Arto Lindsay ‎
Bernard Fowler ‎
Haruo Kubota ‎
Kaori Kano ‎
Kenji Suzuki ‎
Maceo Parker ‎
Minako Yoshida (吉田美奈子)


Tracklist
1 Broadway Boogie Woogie 4:29
2 黄土高原 5:26
3 Ballet Mécanique 5:09
4 G.T.II° 4:07
5 Milan, 1909 4:18
6 Variety Show 3:56
7 大航海 Verso lo schermo 5:24
8 Water Is Life 1:56
9 Parolibre 3:35
10 G.T. 4:27

X Lossless Decoder version 20191004 (152.0)

XLD extraction logfile from 2020-06-30 14:36:10 +0900

Ryuichi Sakamoto / 未来派野郎

Used drive : MATSHITA DVD-R UJ-868 (revision KB19)
Media type : Pressed CD

Ripper mode : XLD Secure Ripper
Disable audio cache : OK for the drive with a cache less than 1375KiB
Make use of C2 pointers : NO
Read offset correction : 102
Max retry count : 20
Gap status : Analyzed, Appended (except HTOA)

TOC of the extracted CD
Track | Start | Length | Start sector | End sector
––––––––––––––––––––––––––––-
1 | 00:00:00 | 04:29:40 | 0 | 20214
2 | 04:29:40 | 05:26:02 | 20215 | 44666
3 | 09:55:42 | 05:09:55 | 44667 | 67896
4 | 15:05:22 | 04:07:03 | 67897 | 86424
5 | 19:12:25 | 04:18:72 | 86425 | 105846
6 | 23:31:22 | 03:56:38 | 105847 | 123584
7 | 27:27:60 | 05:24:47 | 123585 | 147931
8 | 32:52:32 | 01:56:03 | 147932 | 156634
9 | 34:48:35 | 03:35:52 | 156635 | 172811
10 | 38:24:12 | 04:27:40 | 172812 | 192876

AccurateRip Summary (DiscID: 001112ac-00869a0c-840a0b0a)
Track 01 : OK (v1+v2, confidence 14/14)
Track 02 : OK (v1+v2, confidence 15/15)
Track 03 : OK (v1+v2, confidence 15/15)
Track 04 : OK (v1+v2, confidence 15/15)
Track 05 : OK (v1+v2, confidence 14/14)
Track 06 : OK (v1+v2, confidence 15/15)
Track 07 : OK (v1+v2, confidence 15/15)
Track 08 : OK (v1+v2, confidence 15/15)
Track 09 : OK (v1+v2, confidence 15/15)
Track 10 : OK (v1+v2, confidence 15/15)
->All tracks accurately ripped.

All Tracks
Album gain : -2.06 dB
Peak : 0.999969
Statistics
Read error : 0
Jitter error (maybe fixed) : 0
Retry sector count : 0
Damaged sector count : 0

Track 01
Filename : /konwersja/Ryuichi Sakamoto - 未来派野郎 (1986) [FLAC] (1991 Midi Inc. MDC7-1015)/01 - Broadway Boogie Woogie.flac
Pre-gap length : 00:02:00

Track gain : -4.88 dB
Peak : 0.999969
CRC32 hash (test run) : 8304B61A
CRC32 hash : 8304B61A
CRC32 hash (skip zero) : BA359883
AccurateRip v1 signature : D2C4B49B
AccurateRip v2 signature : F7F22545
->Accurately ripped (v1+v2, confidence 6+8/14)
Statistics
Read error : 0
Jitter error (maybe fixed) : 0
Retry sector count : 0
Damaged sector count : 0

Track 02
Filename : /konwersja/Ryuichi Sakamoto - 未来派野郎 (1986) [FLAC] (1991 Midi Inc. MDC7-1015)/02 - 黄土高原.flac

Track gain : -1.82 dB
Peak : 0.999969
CRC32 hash (test run) : 77A21B1E
CRC32 hash : 77A21B1E
CRC32 hash (skip zero) : E932475F
AccurateRip v1 signature : DA11D5C2
AccurateRip v2 signature : BDCA9C66
->Accurately ripped (v1+v2, confidence 7+8/15)
Statistics
Read error : 0
Jitter error (maybe fixed) : 0
Retry sector count : 0
Damaged sector count : 0

Track 03
Filename : /konwersja/Ryuichi Sakamoto - 未来派野郎 (1986) [FLAC] (1991 Midi Inc. MDC7-1015)/03 - Ballet Mécanique.flac

Track gain : -1.32 dB
Peak : 0.805664
CRC32 hash (test run) : B5C3B0AF
CRC32 hash : B5C3B0AF
CRC32 hash (skip zero) : 88140846
AccurateRip v1 signature : D9064BBD
AccurateRip v2 signature : 0981B982
->Accurately ripped (v1+v2, confidence 7+8/15)
Statistics
Read error : 0
Jitter error (maybe fixed) : 0
Retry sector count : 0
Damaged sector count : 0

Track 04
Filename : /konwersja/Ryuichi Sakamoto - 未来派野郎 (1986) [FLAC] (1991 Midi Inc. MDC7-1015)/04 - G.T.II°.flac
Pre-gap length : 00:01:07

Track gain : -1.73 dB
Peak : 0.974579
CRC32 hash (test run) : 1722CD1A
CRC32 hash : 1722CD1A
CRC32 hash (skip zero) : 8771A42B
AccurateRip v1 signature : 324B876B
AccurateRip v2 signature : 804BEFF3
->Accurately ripped (v1+v2, confidence 7+8/15)
Statistics
Read error : 0
Jitter error (maybe fixed) : 0
Retry sector count : 0
Damaged sector count : 0

Track 05
Filename : /konwersja/Ryuichi Sakamoto - 未来派野郎 (1986) [FLAC] (1991 Midi Inc. MDC7-1015)/05 - Milan, 1909.flac
Pre-gap length : 00:01:47

Track gain : 4.86 dB
Peak : 0.485016
CRC32 hash (test run) : 17FC78DF
CRC32 hash : 17FC78DF
CRC32 hash (skip zero) : B4E081F4
AccurateRip v1 signature : 8CD97D0E
AccurateRip v2 signature : 9D03AF38
->Accurately ripped (v1+v2, confidence 7+7/14)
Statistics
Read error : 0
Jitter error (maybe fixed) : 0
Retry sector count : 0
Damaged sector count : 0

Track 06
Filename : /konwersja/Ryuichi Sakamoto - 未来派野郎 (1986) [FLAC] (1991 Midi Inc. MDC7-1015)/06 - Variety Show.flac

Track gain : -2.51 dB
Peak : 0.999969
CRC32 hash (test run) : D22B8759
CRC32 hash : D22B8759
CRC32 hash (skip zero) : 205901B6
AccurateRip v1 signature : 41795517
AccurateRip v2 signature : F25B4B7A
->Accurately ripped (v1+v2, confidence 7+8/15)
Statistics
Read error : 0
Jitter error (maybe fixed) : 0
Retry sector count : 0
Damaged sector count : 0

Track 07
Filename : /konwersja/Ryuichi Sakamoto - 未来派野郎 (1986) [FLAC] (1991 Midi Inc. MDC7-1015)/07 - 大航海 Verso lo schermo.flac

Track gain : -2.72 dB
Peak : 0.914673
CRC32 hash (test run) : FB620B58
CRC32 hash : FB620B58
CRC32 hash (skip zero) : 2A4D9518
AccurateRip v1 signature : F1E05CBB
AccurateRip v2 signature : 8FCE8058
->Accurately ripped (v1+v2, confidence 7+8/15)
Statistics
Read error : 0
Jitter error (maybe fixed) : 0
Retry sector count : 0
Damaged sector count : 0

Track 08
Filename : /konwersja/Ryuichi Sakamoto - 未来派野郎 (1986) [FLAC] (1991 Midi Inc. MDC7-1015)/08 - Water Is Life.flac

Track gain : 2.60 dB
Peak : 0.510498
CRC32 hash (test run) : 7B3536CA
CRC32 hash : 7B3536CA
CRC32 hash (skip zero) : AC393909
AccurateRip v1 signature : A9E10866
AccurateRip v2 signature : AB1CA512
->Accurately ripped (v1+v2, confidence 7+8/15)
Statistics
Read error : 0
Jitter error (maybe fixed) : 0
Retry sector count : 0
Damaged sector count : 0

Track 09
Filename : /konwersja/Ryuichi Sakamoto - 未来派野郎 (1986) [FLAC] (1991 Midi Inc. MDC7-1015)/09 - Parolibre.flac
Pre-gap length : 00:02:47

Track gain : 8.68 dB
Peak : 0.527679
CRC32 hash (test run) : CFFABD8D
CRC32 hash : CFFABD8D
CRC32 hash (skip zero) : 590AF829
AccurateRip v1 signature : E67E1598
AccurateRip v2 signature : 0DD4F43F
->Accurately ripped (v1+v2, confidence 7+8/15)
Statistics
Read error : 0
Jitter error (maybe fixed) : 0
Retry sector count : 0
Damaged sector count : 0

Track 10
Filename : /konwersja/Ryuichi Sakamoto - 未来派野郎 (1986) [FLAC] (1991 Midi Inc. MDC7-1015)/10 - G.T..flac
Pre-gap length : 00:02:27

Track gain : -2.03 dB
Peak : 0.865204
CRC32 hash (test run) : B35ACBAF
CRC32 hash : B35ACBAF
CRC32 hash (skip zero) : 954CEC71
AccurateRip v1 signature : AF86F200
AccurateRip v2 signature : 52C23BD0
->Accurately ripped (v1+v2, confidence 7+8/15)
Statistics
Read error : 0
Jitter error (maybe fixed) : 0
Retry sector count : 0
Damaged sector count : 0

No errors occurred

End of status report

––-BEGIN XLD SIGNATURE––-
MJqQ9IA_SI8IU8e6ldcrtdy6IJj5gFp9Qk6AlsSQMMLj8M8lGEf5eMzfa52TAs2ZYiPHdXcE.frMt4pLK3Mr.UiC1RpeK.uSrqBCkL4
––-END XLD SIGNATURE––-


Ryuichi Sakamoto - Futurista (1986) {Midi Inc. Japan MDC7-1015 rel 1991}

Ryuichi Sakamoto - Futurista (1986) {Midi Inc. Japan MDC7-1015 rel 1991}



===