Tags
Language
Tags

Shakatak - Emotionally Blue + On The Corner (2021)

Posted By: delpotro
Shakatak - Emotionally Blue + On The Corner (2021)

Shakatak - Emotionally Blue + On The Corner (2021)
EAC Rip | FLAC (tracks+log+.cue) - 766 Mb | MP3 CBR 320 kbps - 276 Mb | 01:56:43
Jazz-Funk, Smooth Jazz | Label: Secret Records

2xCD Double Digipack of Emotionally Blue from 2007 and On The Corner from 2014.
Tracklist:
CD 1 - Emotionally Blue
01. Emotionally Blue
02. Osaka Skyline
03. 5 A.M.
04. Cascade
05. Two Hearts
06. Te Amo
07. Lagoon
08. Turn On The Stars
09. Can't Make The Night
10. Time And Again
11. Fall In Love
12. Small Hours

CD 2 - On The Corner
01. On The Corner
02. To Be In Love
03. The Greatest Gift
04. No Clouds
05. Sao Paulo Sunshine
06. Million Voices
07. Good Time
08. Jazz And Romance
09. Deeper
10. Ojai Freeway
11. Daydreamer
12. She's Not Here
13. On the Corner (Latin Mix)
14. The Greatest Gift (Dance Mix)

Exact Audio Copy V1.3 from 2. September 2016

EAC extraction logfile from 26. November 2021, 10:57

Shakatak / Emotionally Blue

Used drive : HL-DT-STBD-RE BH16NS55 Adapter: 1 ID: 0

Read mode : Secure
Utilize accurate stream : Yes
Defeat audio cache : Yes
Make use of C2 pointers : No

Read offset correction : 6
Overread into Lead-In and Lead-Out : No
Fill up missing offset samples with silence : Yes
Delete leading and trailing silent blocks : No
Null samples used in CRC calculations : Yes
Used interface : Native Win32 interface for Win NT & 2000
Gap handling : Appended to previous track

Used output format : User Defined Encoder
Selected bitrate : 1024 kBit/s
Quality : High
Add ID3 tag : No
Command line compressor : C:\Program Files (x86)\Exact Audio Copy\Flac\flac.exe
Additional command line options : -8 -V -T "ARTIST=%artist%" -T "TITLE=%title%" -T "ALBUM=%albumtitle%" -T "DATE=%year%" -T "TRACKNUMBER=%tracknr%" -T "GENRE=%genre%" -T "PERFORMER=%albuminterpret%" -T "COMPOSER=%composer%" %haslyrics%–tag-from-file=LYRICS="%lyricsfile%"%haslyrics% -T "ALBUMARTIST=%albumartist%" -T "DISCNUMBER=%cdnumber%" -T "TOTALDISCS=%totalcds%" -T "TOTALTRACKS=%numtracks%" -T "COMMENT=%comment%" %source% -o %dest%


TOC of the extracted CD

Track | Start | Length | Start sector | End sector
––––––––––––––––––––––––––––-
1 | 0:00.00 | 4:17.56 | 0 | 19330
2 | 4:17.56 | 3:47.12 | 19331 | 36367
3 | 8:04.68 | 4:26.18 | 36368 | 56335
4 | 12:31.11 | 4:01.02 | 56336 | 74412
5 | 16:32.13 | 3:26.71 | 74413 | 89933
6 | 19:59.09 | 4:13.00 | 89934 | 108908
7 | 24:12.09 | 4:39.55 | 108909 | 129888
8 | 28:51.64 | 4:48.57 | 129889 | 151545
9 | 33:40.46 | 3:54.18 | 151546 | 169113
10 | 37:34.64 | 4:56.17 | 169114 | 191330
11 | 42:31.06 | 5:05.27 | 191331 | 214232
12 | 47:36.33 | 4:21.15 | 214233 | 233822
13 | 51:57.48 | 3:44.23 | 233823 | 250645


Track 1

Filename D:\#cdr\#wav+flac\#New\Shakatak - Emotionally Blue\cd 1\01. Shakatak - All Because Of You.wav

Pre-gap length 0:00:02.00

Peak level 100.0 %
Extraction speed 4.7 X
Track quality 100.0 %
Test CRC 0B40B6BE
Copy CRC 0B40B6BE
Cannot be verified as accurate (confidence 8) [4E16A079], AccurateRip returned [C2916880] (AR v2)
Copy OK

Track 2

Filename D:\#cdr\#wav+flac\#New\Shakatak - Emotionally Blue\cd 1\02. Shakatak - Emotionally Blue.wav

Peak level 100.0 %
Extraction speed 5.1 X
Track quality 100.0 %
Test CRC 7EB79F4E
Copy CRC 7EB79F4E
Cannot be verified as accurate (confidence 8) [FACD4112], AccurateRip returned [9EDC49DA] (AR v2)
Copy OK

Track 3

Filename D:\#cdr\#wav+flac\#New\Shakatak - Emotionally Blue\cd 1\03. Shakatak - Osaka Skyline.wav

Peak level 100.0 %
Extraction speed 4.8 X
Track quality 99.9 %
Test CRC 70FAA079
Copy CRC 70FAA079
Cannot be verified as accurate (confidence 8) [8F737DBD], AccurateRip returned [88B94E4F] (AR v2)
Copy OK

Track 4

Filename D:\#cdr\#wav+flac\#New\Shakatak - Emotionally Blue\cd 1\04. Shakatak - 5 A.M.wav

Peak level 100.0 %
Extraction speed 4.9 X
Track quality 99.9 %
Test CRC D95C32A4
Copy CRC D95C32A4
Cannot be verified as accurate (confidence 8) [644C1760], AccurateRip returned [00D83A0B] (AR v2)
Copy OK

Track 5

Filename D:\#cdr\#wav+flac\#New\Shakatak - Emotionally Blue\cd 1\05. Shakatak - Cascade.wav

Peak level 100.0 %
Extraction speed 6.0 X
Track quality 100.0 %
Test CRC D04D2DA7
Copy CRC D04D2DA7
Cannot be verified as accurate (confidence 8) [A0010CA9], AccurateRip returned [E2C18482] (AR v2)
Copy OK

Track 6

Filename D:\#cdr\#wav+flac\#New\Shakatak - Emotionally Blue\cd 1\06. Shakatak - Two Hearts.wav

Peak level 100.0 %
Extraction speed 6.6 X
Track quality 100.0 %
Test CRC A6D7C2E8
Copy CRC A6D7C2E8
Cannot be verified as accurate (confidence 8) [378621B2], AccurateRip returned [D51DF147] (AR v2)
Copy OK

Track 7

Filename D:\#cdr\#wav+flac\#New\Shakatak - Emotionally Blue\cd 1\07. Shakatak - Te Amo.wav

Peak level 100.0 %
Extraction speed 7.1 X
Track quality 100.0 %
Test CRC 6D12B062
Copy CRC 6D12B062
Cannot be verified as accurate (confidence 8) [E3EBCC4C], AccurateRip returned [F346BC72] (AR v2)
Copy OK

Track 8

Filename D:\#cdr\#wav+flac\#New\Shakatak - Emotionally Blue\cd 1\08. Shakatak - Lagoon.wav

Peak level 100.0 %
Extraction speed 7.5 X
Track quality 100.0 %
Test CRC C9ED6DCD
Copy CRC C9ED6DCD
Cannot be verified as accurate (confidence 8) [99BD1837], AccurateRip returned [2E1BCDFA] (AR v2)
Copy OK

Track 9

Filename D:\#cdr\#wav+flac\#New\Shakatak - Emotionally Blue\cd 1\09. Shakatak - Turn On The Stars.wav

Peak level 100.0 %
Extraction speed 7.6 X
Track quality 100.0 %
Test CRC 036C487E
Copy CRC 036C487E
Cannot be verified as accurate (confidence 8) [7D88F6FF], AccurateRip returned [79958F15] (AR v2)
Copy OK

Track 10

Filename D:\#cdr\#wav+flac\#New\Shakatak - Emotionally Blue\cd 1\10. Shakatak - Can't Make The Night.wav

Peak level 100.0 %
Extraction speed 8.0 X
Track quality 100.0 %
Test CRC 2E1318C4
Copy CRC 2E1318C4
Cannot be verified as accurate (confidence 8) [2EDA01E1], AccurateRip returned [4712C496] (AR v2)
Copy OK

Track 11

Filename D:\#cdr\#wav+flac\#New\Shakatak - Emotionally Blue\cd 1\11. Shakatak - Time And Again.wav

Peak level 100.0 %
Extraction speed 8.4 X
Track quality 100.0 %
Test CRC BF479A5C
Copy CRC BF479A5C
Cannot be verified as accurate (confidence 8) [AEDF949B], AccurateRip returned [1D08E278] (AR v2)
Copy OK

Track 12

Filename D:\#cdr\#wav+flac\#New\Shakatak - Emotionally Blue\cd 1\12. Shakatak - Fall In Love.wav

Peak level 100.0 %
Extraction speed 8.5 X
Track quality 100.0 %
Test CRC F2E37436
Copy CRC F2E37436
Cannot be verified as accurate (confidence 8) [6F2C221E], AccurateRip returned [9B61CD80] (AR v2)
Copy OK

Track 13

Filename D:\#cdr\#wav+flac\#New\Shakatak - Emotionally Blue\cd 1\13. Shakatak - Small Hours.wav

Peak level 97.4 %
Extraction speed 8.6 X
Track quality 100.0 %
Test CRC B7065CEB
Copy CRC B7065CEB
Cannot be verified as accurate (confidence 8) [827102C8], AccurateRip returned [89792393] (AR v2)
Copy OK


No tracks could be verified as accurate
You may have a different pressing from the one(s) in the database

No errors occurred

End of status report

–– CUETools DB Plugin V2.1.6

[CTDB TOCID: XaeB9htWMOAVW1X20fX3QO0f4ec-] found
Submit result: XaeB9htWMOAVW1X20fX3QO0f4ec- has been confirmed
Track | CTDB Status
1 | (48/48) Accurately ripped
2 | (48/48) Accurately ripped
3 | (48/48) Accurately ripped
4 | (48/48) Accurately ripped
5 | (48/48) Accurately ripped
6 | (48/48) Accurately ripped
7 | (48/48) Accurately ripped
8 | (48/48) Accurately ripped
9 | (48/48) Accurately ripped
10 | (48/48) Accurately ripped
11 | (48/48) Accurately ripped
12 | (48/48) Accurately ripped
13 | (48/48) Accurately ripped


==== Log checksum 33AC54A9B7BB225B9A2B353CD67B37A9486EB3744860C1CD52D8F17289CCCAD4 ====

––––––––––––––––––––––––––––––

Exact Audio Copy V1.3 from 2. September 2016

EAC extraction logfile from 26. November 2021, 10:57

Shakatak / Emotionally Blue

Used drive : HL-DT-STBD-RE BH16NS55 Adapter: 1 ID: 0

Read mode : Secure
Utilize accurate stream : Yes
Defeat audio cache : Yes
Make use of C2 pointers : No

Read offset correction : 6
Overread into Lead-In and Lead-Out : No
Fill up missing offset samples with silence : Yes
Delete leading and trailing silent blocks : No
Null samples used in CRC calculations : Yes
Used interface : Native Win32 interface for Win NT & 2000
Gap handling : Appended to previous track

Used output format : User Defined Encoder
Selected bitrate : 1024 kBit/s
Quality : High
Add ID3 tag : No
Command line compressor : C:\Program Files (x86)\Exact Audio Copy\Flac\flac.exe
Additional command line options : -8 -V -T "ARTIST=%artist%" -T "TITLE=%title%" -T "ALBUM=%albumtitle%" -T "DATE=%year%" -T "TRACKNUMBER=%tracknr%" -T "GENRE=%genre%" -T "PERFORMER=%albuminterpret%" -T "COMPOSER=%composer%" %haslyrics%–tag-from-file=LYRICS="%lyricsfile%"%haslyrics% -T "ALBUMARTIST=%albumartist%" -T "DISCNUMBER=%cdnumber%" -T "TOTALDISCS=%totalcds%" -T "TOTALTRACKS=%numtracks%" -T "COMMENT=%comment%" %source% -o %dest%


TOC of the extracted CD

Track | Start | Length | Start sector | End sector
––––––––––––––––––––––––––––-
1 | 0:00.00 | 4:17.56 | 0 | 19330
2 | 4:17.56 | 3:47.12 | 19331 | 36367
3 | 8:04.68 | 4:26.18 | 36368 | 56335
4 | 12:31.11 | 4:01.02 | 56336 | 74412
5 | 16:32.13 | 3:26.71 | 74413 | 89933
6 | 19:59.09 | 4:13.00 | 89934 | 108908
7 | 24:12.09 | 4:39.55 | 108909 | 129888
8 | 28:51.64 | 4:48.57 | 129889 | 151545
9 | 33:40.46 | 3:54.18 | 151546 | 169113
10 | 37:34.64 | 4:56.17 | 169114 | 191330
11 | 42:31.06 | 5:05.27 | 191331 | 214232
12 | 47:36.33 | 4:21.15 | 214233 | 233822
13 | 51:57.48 | 3:44.23 | 233823 | 250645


Track 1

Filename D:\#cdr\#wav+flac\#New\Shakatak - Emotionally Blue\cd 1\01. Shakatak - All Because Of You.wav

Pre-gap length 0:00:02.00

Peak level 100.0 %
Extraction speed 4.7 X
Track quality 100.0 %
Test CRC 0B40B6BE
Copy CRC 0B40B6BE
Cannot be verified as accurate (confidence 8) [4E16A079], AccurateRip returned [C2916880] (AR v2)
Copy OK

Track 2

Filename D:\#cdr\#wav+flac\#New\Shakatak - Emotionally Blue\cd 1\02. Shakatak - Emotionally Blue.wav

Peak level 100.0 %
Extraction speed 5.1 X
Track quality 100.0 %
Test CRC 7EB79F4E
Copy CRC 7EB79F4E
Cannot be verified as accurate (confidence 8) [FACD4112], AccurateRip returned [9EDC49DA] (AR v2)
Copy OK

Track 3

Filename D:\#cdr\#wav+flac\#New\Shakatak - Emotionally Blue\cd 1\03. Shakatak - Osaka Skyline.wav

Peak level 100.0 %
Extraction speed 4.8 X
Track quality 99.9 %
Test CRC 70FAA079
Copy CRC 70FAA079
Cannot be verified as accurate (confidence 8) [8F737DBD], AccurateRip returned [88B94E4F] (AR v2)
Copy OK

Track 4

Filename D:\#cdr\#wav+flac\#New\Shakatak - Emotionally Blue\cd 1\04. Shakatak - 5 A.M.wav

Peak level 100.0 %
Extraction speed 4.9 X
Track quality 99.9 %
Test CRC D95C32A4
Copy CRC D95C32A4
Cannot be verified as accurate (confidence 8) [644C1760], AccurateRip returned [00D83A0B] (AR v2)
Copy OK

Track 5

Filename D:\#cdr\#wav+flac\#New\Shakatak - Emotionally Blue\cd 1\05. Shakatak - Cascade.wav

Peak level 100.0 %
Extraction speed 6.0 X
Track quality 100.0 %
Test CRC D04D2DA7
Copy CRC D04D2DA7
Cannot be verified as accurate (confidence 8) [A0010CA9], AccurateRip returned [E2C18482] (AR v2)
Copy OK

Track 6

Filename D:\#cdr\#wav+flac\#New\Shakatak - Emotionally Blue\cd 1\06. Shakatak - Two Hearts.wav

Peak level 100.0 %
Extraction speed 6.6 X
Track quality 100.0 %
Test CRC A6D7C2E8
Copy CRC A6D7C2E8
Cannot be verified as accurate (confidence 8) [378621B2], AccurateRip returned [D51DF147] (AR v2)
Copy OK

Track 7

Filename D:\#cdr\#wav+flac\#New\Shakatak - Emotionally Blue\cd 1\07. Shakatak - Te Amo.wav

Peak level 100.0 %
Extraction speed 7.1 X
Track quality 100.0 %
Test CRC 6D12B062
Copy CRC 6D12B062
Cannot be verified as accurate (confidence 8) [E3EBCC4C], AccurateRip returned [F346BC72] (AR v2)
Copy OK

Track 8

Filename D:\#cdr\#wav+flac\#New\Shakatak - Emotionally Blue\cd 1\08. Shakatak - Lagoon.wav

Peak level 100.0 %
Extraction speed 7.5 X
Track quality 100.0 %
Test CRC C9ED6DCD
Copy CRC C9ED6DCD
Cannot be verified as accurate (confidence 8) [99BD1837], AccurateRip returned [2E1BCDFA] (AR v2)
Copy OK

Track 9

Filename D:\#cdr\#wav+flac\#New\Shakatak - Emotionally Blue\cd 1\09. Shakatak - Turn On The Stars.wav

Peak level 100.0 %
Extraction speed 7.6 X
Track quality 100.0 %
Test CRC 036C487E
Copy CRC 036C487E
Cannot be verified as accurate (confidence 8) [7D88F6FF], AccurateRip returned [79958F15] (AR v2)
Copy OK

Track 10

Filename D:\#cdr\#wav+flac\#New\Shakatak - Emotionally Blue\cd 1\10. Shakatak - Can't Make The Night.wav

Peak level 100.0 %
Extraction speed 8.0 X
Track quality 100.0 %
Test CRC 2E1318C4
Copy CRC 2E1318C4
Cannot be verified as accurate (confidence 8) [2EDA01E1], AccurateRip returned [4712C496] (AR v2)
Copy OK

Track 11

Filename D:\#cdr\#wav+flac\#New\Shakatak - Emotionally Blue\cd 1\11. Shakatak - Time And Again.wav

Peak level 100.0 %
Extraction speed 8.4 X
Track quality 100.0 %
Test CRC BF479A5C
Copy CRC BF479A5C
Cannot be verified as accurate (confidence 8) [AEDF949B], AccurateRip returned [1D08E278] (AR v2)
Copy OK

Track 12

Filename D:\#cdr\#wav+flac\#New\Shakatak - Emotionally Blue\cd 1\12. Shakatak - Fall In Love.wav

Peak level 100.0 %
Extraction speed 8.5 X
Track quality 100.0 %
Test CRC F2E37436
Copy CRC F2E37436
Cannot be verified as accurate (confidence 8) [6F2C221E], AccurateRip returned [9B61CD80] (AR v2)
Copy OK

Track 13

Filename D:\#cdr\#wav+flac\#New\Shakatak - Emotionally Blue\cd 1\13. Shakatak - Small Hours.wav

Peak level 97.4 %
Extraction speed 8.6 X
Track quality 100.0 %
Test CRC B7065CEB
Copy CRC B7065CEB
Cannot be verified as accurate (confidence 8) [827102C8], AccurateRip returned [89792393] (AR v2)
Copy OK


No tracks could be verified as accurate
You may have a different pressing from the one(s) in the database

No errors occurred

End of status report

–– CUETools DB Plugin V2.1.6

[CTDB TOCID: XaeB9htWMOAVW1X20fX3QO0f4ec-] found
Submit result: XaeB9htWMOAVW1X20fX3QO0f4ec- has been confirmed
Track | CTDB Status
1 | (48/48) Accurately ripped
2 | (48/48) Accurately ripped
3 | (48/48) Accurately ripped
4 | (48/48) Accurately ripped
5 | (48/48) Accurately ripped
6 | (48/48) Accurately ripped
7 | (48/48) Accurately ripped
8 | (48/48) Accurately ripped
9 | (48/48) Accurately ripped
10 | (48/48) Accurately ripped
11 | (48/48) Accurately ripped
12 | (48/48) Accurately ripped
13 | (48/48) Accurately ripped


==== Log checksum 33AC54A9B7BB225B9A2B353CD67B37A9486EB3744860C1CD52D8F17289CCCAD4 ====
Exact Audio Copy V1.3 from 2. September 2016

EAC extraction logfile from 26. November 2021, 11:26

Shakatak / On The Corner

Used drive : HL-DT-STBD-RE BH16NS55 Adapter: 1 ID: 0

Read mode : Secure
Utilize accurate stream : Yes
Defeat audio cache : Yes
Make use of C2 pointers : No

Read offset correction : 6
Overread into Lead-In and Lead-Out : No
Fill up missing offset samples with silence : Yes
Delete leading and trailing silent blocks : No
Null samples used in CRC calculations : Yes
Used interface : Native Win32 interface for Win NT & 2000
Gap handling : Appended to previous track

Used output format : User Defined Encoder
Selected bitrate : 1024 kBit/s
Quality : High
Add ID3 tag : No
Command line compressor : C:\Program Files (x86)\Exact Audio Copy\Flac\flac.exe
Additional command line options : -8 -V -T "ARTIST=%artist%" -T "TITLE=%title%" -T "ALBUM=%albumtitle%" -T "DATE=%year%" -T "TRACKNUMBER=%tracknr%" -T "GENRE=%genre%" -T "PERFORMER=%albuminterpret%" -T "COMPOSER=%composer%" %haslyrics%–tag-from-file=LYRICS="%lyricsfile%"%haslyrics% -T "ALBUMARTIST=%albumartist%" -T "DISCNUMBER=%cdnumber%" -T "TOTALDISCS=%totalcds%" -T "TOTALTRACKS=%numtracks%" -T "COMMENT=%comment%" %source% -o %dest%


TOC of the extracted CD

Track | Start | Length | Start sector | End sector
––––––––––––––––––––––––––––-
1 | 0:00.00 | 3:31.57 | 0 | 15881
2 | 3:31.57 | 4:40.22 | 15882 | 36903
3 | 8:12.04 | 4:28.14 | 36904 | 57017
4 | 12:40.18 | 4:18.00 | 57018 | 76367
5 | 16:58.18 | 4:19.15 | 76368 | 95807
6 | 21:17.33 | 4:43.64 | 95808 | 117096
7 | 26:01.22 | 5:15.49 | 117097 | 140770
8 | 31:16.71 | 4:42.57 | 140771 | 161977
9 | 35:59.53 | 4:57.01 | 161978 | 184253
10 | 40:56.54 | 3:53.73 | 184254 | 201801
11 | 44:50.52 | 4:15.46 | 201802 | 220972
12 | 49:06.23 | 3:23.47 | 220973 | 236244
13 | 52:29.70 | 3:31.67 | 236245 | 252136
14 | 56:01.62 | 4:59.47 | 252137 | 274608


Track 1

Filename D:\#cdr\#wav+flac\#New\Shakatak - Emotionally Blue\cd 2\01. Shakatak - On The Corner.wav

Pre-gap length 0:00:02.00

Peak level 93.3 %
Extraction speed 4.5 X
Track quality 100.0 %
Test CRC 8AF35EC5
Copy CRC 8AF35EC5
Cannot be verified as accurate (confidence 4) [35B23E3E], AccurateRip returned [423A7E46] (AR v2)
Copy OK

Track 2

Filename D:\#cdr\#wav+flac\#New\Shakatak - Emotionally Blue\cd 2\02. Shakatak - To Be In Love.wav

Peak level 94.4 %
Extraction speed 5.1 X
Track quality 100.0 %
Test CRC A2432CFF
Copy CRC A2432CFF
Cannot be verified as accurate (confidence 4) [5D3323E9], AccurateRip returned [493C3F6C] (AR v2)
Copy OK

Track 3

Filename D:\#cdr\#wav+flac\#New\Shakatak - Emotionally Blue\cd 2\03. Shakatak - The Greatest Gift.wav

Peak level 94.4 %
Extraction speed 5.6 X
Track quality 100.0 %
Test CRC C8672305
Copy CRC C8672305
Cannot be verified as accurate (confidence 4) [BBAC050C], AccurateRip returned [C56EF6F4] (AR v2)
Copy OK

Track 4

Filename D:\#cdr\#wav+flac\#New\Shakatak - Emotionally Blue\cd 2\04. Shakatak - No Clouds.wav

Peak level 94.4 %
Extraction speed 6.0 X
Track quality 100.0 %
Test CRC B3840063
Copy CRC B3840063
Cannot be verified as accurate (confidence 4) [A8314CDC], AccurateRip returned [974E1DD5] (AR v2)
Copy OK

Track 5

Filename D:\#cdr\#wav+flac\#New\Shakatak - Emotionally Blue\cd 2\05. Shakatak - Sao Paulo Sunshine.wav

Peak level 91.2 %
Extraction speed 6.5 X
Track quality 100.0 %
Test CRC 84EFC2D9
Copy CRC 84EFC2D9
Cannot be verified as accurate (confidence 4) [56E99691], AccurateRip returned [E83E7DA0] (AR v2)
Copy OK

Track 6

Filename D:\#cdr\#wav+flac\#New\Shakatak - Emotionally Blue\cd 2\06. Shakatak - Million Voices.wav

Peak level 94.4 %
Extraction speed 5.8 X
Track quality 99.9 %
Test CRC 8B261AAE
Copy CRC 8B261AAE
Cannot be verified as accurate (confidence 4) [55854492], AccurateRip returned [62595416] (AR v2)
Copy OK

Track 7

Filename D:\#cdr\#wav+flac\#New\Shakatak - Emotionally Blue\cd 2\07. Shakatak - Good Time.wav

Peak level 94.4 %
Extraction speed 7.4 X
Track quality 100.0 %
Test CRC F80889CB
Copy CRC F80889CB
Cannot be verified as accurate (confidence 4) [759E1857], AccurateRip returned [59F8EECA] (AR v2)
Copy OK

Track 8

Filename D:\#cdr\#wav+flac\#New\Shakatak - Emotionally Blue\cd 2\08. Shakatak - Jazz And Romance.wav

Peak level 91.2 %
Extraction speed 7.6 X
Track quality 100.0 %
Test CRC F0CDDF24
Copy CRC F0CDDF24
Cannot be verified as accurate (confidence 4) [2E39ABDF], AccurateRip returned [BB6530D9] (AR v2)
Copy OK

Track 9

Filename D:\#cdr\#wav+flac\#New\Shakatak - Emotionally Blue\cd 2\09. Shakatak - Deeper.wav

Peak level 94.4 %
Extraction speed 8.0 X
Track quality 100.0 %
Test CRC 32ABDB29
Copy CRC 32ABDB29
Cannot be verified as accurate (confidence 4) [B662B0B2], AccurateRip returned [D72EE12F] (AR v2)
Copy OK

Track 10

Filename D:\#cdr\#wav+flac\#New\Shakatak - Emotionally Blue\cd 2\10. Shakatak - Ojai Freeway.wav

Peak level 94.4 %
Extraction speed 8.0 X
Track quality 100.0 %
Test CRC 0B2E7E00
Copy CRC 0B2E7E00
Cannot be verified as accurate (confidence 4) [0F2A0EBD], AccurateRip returned [21FF4F1A] (AR v2)
Copy OK

Track 11

Filename D:\#cdr\#wav+flac\#New\Shakatak - Emotionally Blue\cd 2\11. Shakatak - Daydreamer.wav

Peak level 94.4 %
Extraction speed 7.0 X
Track quality 99.9 %
Test CRC E35B1852
Copy CRC E35B1852
Cannot be verified as accurate (confidence 4) [F61F5051], AccurateRip returned [275AEACC] (AR v2)
Copy OK

Track 12

Filename D:\#cdr\#wav+flac\#New\Shakatak - Emotionally Blue\cd 2\12. Shakatak - She's Not Here.wav

Peak level 93.3 %
Extraction speed 8.4 X
Track quality 100.0 %
Test CRC 65BB560B
Copy CRC 65BB560B
Cannot be verified as accurate (confidence 4) [7DE460AD], AccurateRip returned [A0678D23] (AR v2)
Copy OK

Track 13

Filename D:\#cdr\#wav+flac\#New\Shakatak - Emotionally Blue\cd 2\13. Shakatak - On The Corner [Latin Mix].wav

Peak level 92.1 %
Extraction speed 8.6 X
Track quality 100.0 %
Test CRC 1C5F29D2
Copy CRC 1C5F29D2
Cannot be verified as accurate (confidence 4) [11C6160B], AccurateRip returned [E4FD7A2B] (AR v2)
Copy OK

Track 14

Filename D:\#cdr\#wav+flac\#New\Shakatak - Emotionally Blue\cd 2\14. Shakatak - The Greatest Gift [Dance Mix].wav

Peak level 92.1 %
Extraction speed 8.8 X
Track quality 100.0 %
Test CRC DC460E9A
Copy CRC DC460E9A
Cannot be verified as accurate (confidence 4) [87CED1F6], AccurateRip returned [5232ACA8] (AR v2)
Copy OK


No tracks could be verified as accurate
You may have a different pressing from the one(s) in the database

No errors occurred

End of status report

–– CUETools DB Plugin V2.1.6

[CTDB TOCID: ZuYjJiOc9Zd0CZM3JY9jQqcZZmA-] found
Submit result: ZuYjJiOc9Zd0CZM3JY9jQqcZZmA- has been confirmed
Track | CTDB Status
1 | (13/13) Accurately ripped
2 | (13/13) Accurately ripped
3 | (13/13) Accurately ripped
4 | (13/13) Accurately ripped
5 | (13/13) Accurately ripped
6 | (13/13) Accurately ripped
7 | (13/13) Accurately ripped
8 | (13/13) Accurately ripped
9 | (13/13) Accurately ripped
10 | (13/13) Accurately ripped
11 | (13/13) Accurately ripped
12 | (13/13) Accurately ripped
13 | (13/13) Accurately ripped
14 | (13/13) Accurately ripped


==== Log checksum 0F8CB15134A34F36B14A7F7CF4A3DF63C75423B8B316B4B1C5C2EE8FC82B18F0 ====

––––––––––––––––––––––––––––––

Exact Audio Copy V1.3 from 2. September 2016

EAC extraction logfile from 26. November 2021, 11:26

Shakatak / On The Corner

Used drive : HL-DT-STBD-RE BH16NS55 Adapter: 1 ID: 0

Read mode : Secure
Utilize accurate stream : Yes
Defeat audio cache : Yes
Make use of C2 pointers : No

Read offset correction : 6
Overread into Lead-In and Lead-Out : No
Fill up missing offset samples with silence : Yes
Delete leading and trailing silent blocks : No
Null samples used in CRC calculations : Yes
Used interface : Native Win32 interface for Win NT & 2000
Gap handling : Appended to previous track

Used output format : User Defined Encoder
Selected bitrate : 1024 kBit/s
Quality : High
Add ID3 tag : No
Command line compressor : C:\Program Files (x86)\Exact Audio Copy\Flac\flac.exe
Additional command line options : -8 -V -T "ARTIST=%artist%" -T "TITLE=%title%" -T "ALBUM=%albumtitle%" -T "DATE=%year%" -T "TRACKNUMBER=%tracknr%" -T "GENRE=%genre%" -T "PERFORMER=%albuminterpret%" -T "COMPOSER=%composer%" %haslyrics%–tag-from-file=LYRICS="%lyricsfile%"%haslyrics% -T "ALBUMARTIST=%albumartist%" -T "DISCNUMBER=%cdnumber%" -T "TOTALDISCS=%totalcds%" -T "TOTALTRACKS=%numtracks%" -T "COMMENT=%comment%" %source% -o %dest%


TOC of the extracted CD

Track | Start | Length | Start sector | End sector
––––––––––––––––––––––––––––-
1 | 0:00.00 | 3:31.57 | 0 | 15881
2 | 3:31.57 | 4:40.22 | 15882 | 36903
3 | 8:12.04 | 4:28.14 | 36904 | 57017
4 | 12:40.18 | 4:18.00 | 57018 | 76367
5 | 16:58.18 | 4:19.15 | 76368 | 95807
6 | 21:17.33 | 4:43.64 | 95808 | 117096
7 | 26:01.22 | 5:15.49 | 117097 | 140770
8 | 31:16.71 | 4:42.57 | 140771 | 161977
9 | 35:59.53 | 4:57.01 | 161978 | 184253
10 | 40:56.54 | 3:53.73 | 184254 | 201801
11 | 44:50.52 | 4:15.46 | 201802 | 220972
12 | 49:06.23 | 3:23.47 | 220973 | 236244
13 | 52:29.70 | 3:31.67 | 236245 | 252136
14 | 56:01.62 | 4:59.47 | 252137 | 274608


Track 1

Filename D:\#cdr\#wav+flac\#New\Shakatak - Emotionally Blue\cd 2\01. Shakatak - On The Corner.wav

Pre-gap length 0:00:02.00

Peak level 93.3 %
Extraction speed 4.5 X
Track quality 100.0 %
Test CRC 8AF35EC5
Copy CRC 8AF35EC5
Cannot be verified as accurate (confidence 4) [35B23E3E], AccurateRip returned [423A7E46] (AR v2)
Copy OK

Track 2

Filename D:\#cdr\#wav+flac\#New\Shakatak - Emotionally Blue\cd 2\02. Shakatak - To Be In Love.wav

Peak level 94.4 %
Extraction speed 5.1 X
Track quality 100.0 %
Test CRC A2432CFF
Copy CRC A2432CFF
Cannot be verified as accurate (confidence 4) [5D3323E9], AccurateRip returned [493C3F6C] (AR v2)
Copy OK

Track 3

Filename D:\#cdr\#wav+flac\#New\Shakatak - Emotionally Blue\cd 2\03. Shakatak - The Greatest Gift.wav

Peak level 94.4 %
Extraction speed 5.6 X
Track quality 100.0 %
Test CRC C8672305
Copy CRC C8672305
Cannot be verified as accurate (confidence 4) [BBAC050C], AccurateRip returned [C56EF6F4] (AR v2)
Copy OK

Track 4

Filename D:\#cdr\#wav+flac\#New\Shakatak - Emotionally Blue\cd 2\04. Shakatak - No Clouds.wav

Peak level 94.4 %
Extraction speed 6.0 X
Track quality 100.0 %
Test CRC B3840063
Copy CRC B3840063
Cannot be verified as accurate (confidence 4) [A8314CDC], AccurateRip returned [974E1DD5] (AR v2)
Copy OK

Track 5

Filename D:\#cdr\#wav+flac\#New\Shakatak - Emotionally Blue\cd 2\05. Shakatak - Sao Paulo Sunshine.wav

Peak level 91.2 %
Extraction speed 6.5 X
Track quality 100.0 %
Test CRC 84EFC2D9
Copy CRC 84EFC2D9
Cannot be verified as accurate (confidence 4) [56E99691], AccurateRip returned [E83E7DA0] (AR v2)
Copy OK

Track 6

Filename D:\#cdr\#wav+flac\#New\Shakatak - Emotionally Blue\cd 2\06. Shakatak - Million Voices.wav

Peak level 94.4 %
Extraction speed 5.8 X
Track quality 99.9 %
Test CRC 8B261AAE
Copy CRC 8B261AAE
Cannot be verified as accurate (confidence 4) [55854492], AccurateRip returned [62595416] (AR v2)
Copy OK

Track 7

Filename D:\#cdr\#wav+flac\#New\Shakatak - Emotionally Blue\cd 2\07. Shakatak - Good Time.wav

Peak level 94.4 %
Extraction speed 7.4 X
Track quality 100.0 %
Test CRC F80889CB
Copy CRC F80889CB
Cannot be verified as accurate (confidence 4) [759E1857], AccurateRip returned [59F8EECA] (AR v2)
Copy OK

Track 8

Filename D:\#cdr\#wav+flac\#New\Shakatak - Emotionally Blue\cd 2\08. Shakatak - Jazz And Romance.wav

Peak level 91.2 %
Extraction speed 7.6 X
Track quality 100.0 %
Test CRC F0CDDF24
Copy CRC F0CDDF24
Cannot be verified as accurate (confidence 4) [2E39ABDF], AccurateRip returned [BB6530D9] (AR v2)
Copy OK

Track 9

Filename D:\#cdr\#wav+flac\#New\Shakatak - Emotionally Blue\cd 2\09. Shakatak - Deeper.wav

Peak level 94.4 %
Extraction speed 8.0 X
Track quality 100.0 %
Test CRC 32ABDB29
Copy CRC 32ABDB29
Cannot be verified as accurate (confidence 4) [B662B0B2], AccurateRip returned [D72EE12F] (AR v2)
Copy OK

Track 10

Filename D:\#cdr\#wav+flac\#New\Shakatak - Emotionally Blue\cd 2\10. Shakatak - Ojai Freeway.wav

Peak level 94.4 %
Extraction speed 8.0 X
Track quality 100.0 %
Test CRC 0B2E7E00
Copy CRC 0B2E7E00
Cannot be verified as accurate (confidence 4) [0F2A0EBD], AccurateRip returned [21FF4F1A] (AR v2)
Copy OK

Track 11

Filename D:\#cdr\#wav+flac\#New\Shakatak - Emotionally Blue\cd 2\11. Shakatak - Daydreamer.wav

Peak level 94.4 %
Extraction speed 7.0 X
Track quality 99.9 %
Test CRC E35B1852
Copy CRC E35B1852
Cannot be verified as accurate (confidence 4) [F61F5051], AccurateRip returned [275AEACC] (AR v2)
Copy OK

Track 12

Filename D:\#cdr\#wav+flac\#New\Shakatak - Emotionally Blue\cd 2\12. Shakatak - She's Not Here.wav

Peak level 93.3 %
Extraction speed 8.4 X
Track quality 100.0 %
Test CRC 65BB560B
Copy CRC 65BB560B
Cannot be verified as accurate (confidence 4) [7DE460AD], AccurateRip returned [A0678D23] (AR v2)
Copy OK

Track 13

Filename D:\#cdr\#wav+flac\#New\Shakatak - Emotionally Blue\cd 2\13. Shakatak - On The Corner [Latin Mix].wav

Peak level 92.1 %
Extraction speed 8.6 X
Track quality 100.0 %
Test CRC 1C5F29D2
Copy CRC 1C5F29D2
Cannot be verified as accurate (confidence 4) [11C6160B], AccurateRip returned [E4FD7A2B] (AR v2)
Copy OK

Track 14

Filename D:\#cdr\#wav+flac\#New\Shakatak - Emotionally Blue\cd 2\14. Shakatak - The Greatest Gift [Dance Mix].wav

Peak level 92.1 %
Extraction speed 8.8 X
Track quality 100.0 %
Test CRC DC460E9A
Copy CRC DC460E9A
Cannot be verified as accurate (confidence 4) [87CED1F6], AccurateRip returned [5232ACA8] (AR v2)
Copy OK


No tracks could be verified as accurate
You may have a different pressing from the one(s) in the database

No errors occurred

End of status report

–– CUETools DB Plugin V2.1.6

[CTDB TOCID: ZuYjJiOc9Zd0CZM3JY9jQqcZZmA-] found
Submit result: ZuYjJiOc9Zd0CZM3JY9jQqcZZmA- has been confirmed
Track | CTDB Status
1 | (13/13) Accurately ripped
2 | (13/13) Accurately ripped
3 | (13/13) Accurately ripped
4 | (13/13) Accurately ripped
5 | (13/13) Accurately ripped
6 | (13/13) Accurately ripped
7 | (13/13) Accurately ripped
8 | (13/13) Accurately ripped
9 | (13/13) Accurately ripped
10 | (13/13) Accurately ripped
11 | (13/13) Accurately ripped
12 | (13/13) Accurately ripped
13 | (13/13) Accurately ripped
14 | (13/13) Accurately ripped


==== Log checksum 0F8CB15134A34F36B14A7F7CF4A3DF63C75423B8B316B4B1C5C2EE8FC82B18F0 ====

Thanks to the Original ripper !