Subcategories

Songhoy Blues - Optimisme (2020)

Posted By: delpotro
Songhoy Blues - Optimisme (2020)

Songhoy Blues - Optimisme (2020)
EAC Rip | FLAC (tracks+log+.cue) - 237 Mb | MP3 CBR 320 kbps - 84 Mb | 00:34:56
Blues Rock, Desert Blues | Label: Fat Possum Records

SONGHOY BLUES is a band whose experiences in Mali have opened their eyes to universal problems plaguing people everywhere. Using the pain and lessons learned from having to leave their hometowns in northern Mali, the band realizes that human rights is a concept that extends far beyond what they have seen with their own eyes and far beyond just the borders of Mali. In order for the band to see their homes restored, they understand the fight must be fought on all fronts, for everybody across the spectrum. They are no longer refugees or exiles or four people with instruments—they are SONGHOY BLUES, a musical voice for empowerment and equality.

Working with Matt Sweeney, who encouraged the band to make the album they want to make, OPTIMISME confronts our world today. On “BADALA” and “GABI,” SONGHOY BLUES seeks the empowerment of women, asking for centuries-old misogynistic practices to be done away with. With “WORRY,” the band advises both the young and the old that positive vibes and persistence are the best tools to fight our struggles. In “ASSADA,” the band praises and thanks the everyday warriors who wake up everyday to sweat for the betterment of their communities and in “DOURNIA,” the band laments the lack of compassion and empathy between humans today in the face of increasing materialism and selfishness. “BON BON” warns of being fooled by shiny promises, and in “BARRE” the band asks for the youth to get involved at home for change while warning off those who wish to divide in “FEY FEY.” Each time SONGHOY BLUES steps to the mic on OPTIMISME the band confronts, consoles, praises, thanks, and encourages the listener toward a better world tomorrow.
Tracklist:
1. Badala (02:40)
2. Assadja (02:52)
3. Fey Fey (02:53)
4. Gabi (02:51)
5. Barre (03:43)
6. Pour toi (02:33)
7. Bon Bon (03:12)
8. Worry (03:05)
9. Korfo (03:48)
10. Dournia (03:35)
11. Kouma (03:40)

Exact Audio Copy V1.0 beta 3 from 29. August 2011

EAC extraction logfile from 21. November 2020, 17:47

Songhoy Blues / Optimisme

Used drive : Optiarc DVD RW AD-7190S Adapter: 1 ID: 1

Read mode : Secure
Utilize accurate stream : Yes
Defeat audio cache : Yes
Make use of C2 pointers : No

Read offset correction : 6
Overread into Lead-In and Lead-Out : No
Fill up missing offset samples with silence : Yes
Delete leading and trailing silent blocks : No
Null samples used in CRC calculations : Yes
Used interface : Native Win32 interface for Win NT & 2000
Gap handling : Appended to previous track

Used output format : User Defined Encoder
Selected bitrate : 1024 kBit/s
Quality : High
Add ID3 tag : No
Command line compressor : C:\Program Files (x86)\Exact Audio Copy\Flac\flac.exe
Additional command line options : -8 -V -T "ARTIST=%artist%" -T "TITLE=%title%" -T "ALBUM=%albumtitle%" -T "DATE=%year%" -T "TRACKNUMBER=%tracknr%" -T "GENRE=%genre%" -T "PERFORMER=%albuminterpret%" -T "COMPOSER=%composer%" %haslyrics%–tag-from-file=LYRICS="%lyricsfile%"%haslyrics% -T "ALBUMARTIST=%albumartist%" -T "DISCNUMBER=%cdnumber%" -T "TOTALDISCS=%totalcds%" -T "TOTALTRACKS=%numtracks%" -T "COMMENT=%comment%" %source% -o %dest%


TOC of the extracted CD

Track | Start | Length | Start sector | End sector
––––––––––––––––––––––––––––-
1 | 0:00.00 | 2:40.15 | 0 | 12014
2 | 2:40.15 | 2:52.19 | 12015 | 24933
3 | 5:32.34 | 2:53.31 | 24934 | 37939
4 | 8:25.65 | 2:51.56 | 37940 | 50820
5 | 11:17.46 | 3:43.34 | 50821 | 67579
6 | 15:01.05 | 2:33.50 | 67580 | 79104
7 | 17:34.55 | 3:12.49 | 79105 | 93553
8 | 20:47.29 | 3:05.12 | 93554 | 107440
9 | 23:52.41 | 3:48.30 | 107441 | 124570
10 | 27:40.71 | 3:35.56 | 124571 | 140751
11 | 31:16.52 | 3:40.02 | 140752 | 157253


Track 1

Filename N:\New Rips\Songhoy Blues - 2020 - Optimisme (FP1755-2)\01 - Badala.wav

Pre-gap length 0:00:02.00

Peak level 99.6 %
Extraction speed 4.0 X
Track quality 100.0 %
Test CRC 7C81BC18
Copy CRC 7C81BC18
Track not present in AccurateRip database
Copy OK

Track 2

Filename N:\New Rips\Songhoy Blues - 2020 - Optimisme (FP1755-2)\02 - Assadja.wav

Peak level 99.6 %
Extraction speed 1.0 X
Track quality 100.0 %
Test CRC C00BFFC7
Copy CRC C00BFFC7
Track not present in AccurateRip database
Copy OK

Track 3

Filename N:\New Rips\Songhoy Blues - 2020 - Optimisme (FP1755-2)\03 - Fey Fey.wav

Peak level 99.6 %
Extraction speed 1.0 X
Track quality 100.0 %
Test CRC F9BA52DB
Copy CRC F9BA52DB
Track not present in AccurateRip database
Copy OK

Track 4

Filename N:\New Rips\Songhoy Blues - 2020 - Optimisme (FP1755-2)\04 - Gabi.wav

Peak level 99.6 %
Extraction speed 1.0 X
Track quality 100.0 %
Test CRC 58274C87
Copy CRC 58274C87
Track not present in AccurateRip database
Copy OK

Track 5

Filename N:\New Rips\Songhoy Blues - 2020 - Optimisme (FP1755-2)\05 - Barre.wav

Peak level 99.6 %
Extraction speed 1.0 X
Track quality 99.9 %
Test CRC 8016E0A3
Copy CRC 8016E0A3
Track not present in AccurateRip database
Copy OK

Track 6

Filename N:\New Rips\Songhoy Blues - 2020 - Optimisme (FP1755-2)\06 - Pour toi.wav

Peak level 99.6 %
Extraction speed 1.0 X
Track quality 99.9 %
Test CRC 60C18C64
Copy CRC 60C18C64
Track not present in AccurateRip database
Copy OK

Track 7

Filename N:\New Rips\Songhoy Blues - 2020 - Optimisme (FP1755-2)\07 - Bon Bon.wav

Peak level 99.6 %
Extraction speed 1.3 X
Track quality 100.0 %
Test CRC 9B47C570
Copy CRC 9B47C570
Track not present in AccurateRip database
Copy OK

Track 8

Filename N:\New Rips\Songhoy Blues - 2020 - Optimisme (FP1755-2)\08 - Worry.wav

Peak level 99.6 %
Extraction speed 1.3 X
Track quality 100.0 %
Test CRC 90B968CC
Copy CRC 90B968CC
Track not present in AccurateRip database
Copy OK

Track 9

Filename N:\New Rips\Songhoy Blues - 2020 - Optimisme (FP1755-2)\09 - Korfo.wav

Peak level 99.6 %
Extraction speed 1.3 X
Track quality 99.9 %
Test CRC C7E4526B
Copy CRC C7E4526B
Track not present in AccurateRip database
Copy OK

Track 10

Filename N:\New Rips\Songhoy Blues - 2020 - Optimisme (FP1755-2)\10 - Dournia.wav

Peak level 99.6 %
Extraction speed 1.5 X
Track quality 100.0 %
Test CRC 84429C9D
Copy CRC 84429C9D
Track not present in AccurateRip database
Copy OK

Track 11

Filename N:\New Rips\Songhoy Blues - 2020 - Optimisme (FP1755-2)\11 - Kouma.wav

Peak level 99.6 %
Extraction speed 1.6 X
Track quality 100.0 %
Test CRC 227D3216
Copy CRC 227D3216
Track not present in AccurateRip database
Copy OK


None of the tracks are present in the AccurateRip database

No errors occurred

End of status report

–– CUETools DB Plugin V2.1.3

[CTDB TOCID: JfrINOhRwkhvh9lJfc6o8_2BOUA-] found, Submit result: JfrINOhRwkhvh9lJfc6o8_2BOUA- has been confirmed
[0af83f77] (2/2) Accurately ripped


==== Log checksum BB9BA2866C1A05218CD12D7CE2B8CC2C7015CDECC7C4871B73383EB3911AF5C7 ====

Thanks to the Original ripper !