Subcategories

Speedy West & Jimmy Bryant - Flamin' Guitars (1997) {4CD Set Bear Family BCD 15956 rec 1949-62}

Posted By: ruskaval
Speedy West & Jimmy Bryant - Flamin' Guitars (1997) {4CD Set Bear Family BCD 15956 rec 1949-62}

Speedy West & Jimmy Bryant - Flamin' Guitars (1997) {4CD Set Bear Family BCD 15956 rec 1949-62}
EAC rip (secure mode) | FLAC (tracks)+CUE+LOG -> 823 Mb | MP3 @320 -> 566 Mb
Full Artwork @ 600 dpi (jpg) -> 201 Mb | 5% repair rar
© 1949-62, 1997 Bear Family Records | BCD 15956
Country / Jazz / Americana / Western Swing

Perhaps the most difficult thing in writing about a box set like this is how to convey in words – few or many – the magic, wonder, and intimidating musicianship that is contained on these recordings. Over four CDs, the seeds, roots, branches, and trees of a musical partnership were formed and lived out on the public stage, and remain all but unknown to those who were not country music fans during the era. While one Speedy West & Jimmy Bryant compilation has appeared on Razor & Tie, as a single disc it only begins to offer the legend of this pair of musical innovators. For starters, Speedy West was the first picker to use a pedal steel guitar in the business in 1948 – and he was doing it in L.A., not Nashville. It's true that Leon McAuliffe had played the steel guitar earlier while playing with Bob Wills, but none of those instruments had pedals. The partnership with Jimmy Bryant was forged in a barroom one night after Speedy's set, and it became of the most prolific and enduring in music history, ending only with the death of Bryant in 1980. The mutant, futuristic kind of Western swing that had extrapolated from Bob Wills' creation is enduring, still forward-looking, and truly out of time and space. As for partners who were undaunted, the adversity these cats encountered with their space age country bachelor pad music – especially from the fascists in Music City – was formidable. But they succumbed not a bit, used not one sound effect that wasn't already installed in the volume knob or reverb pedals, and ended up making dozens of records and playing sessions with everybody from Bing Crosby to Spike Jones to Jean Shepard to Merle Travis to the Billy May Orchestra.

Speedy West & Jimmy Bryant - Flamin' Guitars (1997) {4CD Set Bear Family BCD 15956 rec 1949-62}


The Bear Family box begins with the earliest solo sides in late September 1949, when Bryant cut four tracks with Corky Carpenter on vocals. They include "Just Remember," "Jelly Bean's Daddy," "Boogie Barn Dance," and "Gamblin' Money." These are unadulterated Western swing tunes with Bryant's penchant for tossing in Django Reinhardt chord voicings into the breaks. Next up is "Steel Strike," a single Speedy cut for Capitol as a sideman for an Eddie Kirk session. It's the beginning, here in 1950, of where he wants to go with his own music – and that finally happens in September of that same year when he and Bryant cut "Bryant's Boogie" and "Red Headed Polka," two scathing instrumentals that put the focus on the strings to sing. It's still a mutation of Bob Will's Western swing, but it also prefigures rockabilly and slips bebop lines into its breaks to bring all the music of the day firmly into view. Over the course of 12 years, the pair cut an astonishing 91 sides – and these are just the master takes – with producer Ken Nelson in the Capitol studios. These do not include any of the work the pair did as sidemen for other artists, which would make up an entire box set of its own. Bear Family has been judicious enough to include one CD of this work, which ranges from their earliest work in 1949 with Merle Travis to a session in 1954 with Tennessee Ernie Ford. There are a number of alternate takes and unreleased masters included, copious liner notes by Rich Keinzle, and virtually every session detail available. But the main thing is the music, as the pair's innovative, fiery style begins to take shape and turns everything once thought of as "instrumental country music" on its head; listeners can hear the glee and surprise of the musicians themselves at their creations. Licks are played and runs are executed that neither man could have anticipated before his partner had spun off his own skittering skein of notes.

Speedy West & Jimmy Bryant - Flamin' Guitars (1997) {4CD Set Bear Family BCD 15956 rec 1949-62}


The music drives as hard as the best rock & roll and contains the knotty, full-blown improvisation one would expect from a hard bop group in full swing. And the arrangements are stellar; whether they were written by Nelson, guitarist Billy Strange, or Bryant and West, they prefigure and overstep everything else that was going on during those years. One listen to disc three's Hawaiian music – beginning with track seven, "Hawaiian War Chant," and culminating some 20 tracks later in "Sunset at Waikiki" – is enough to make anyone laugh, cough, stutter, and finally just shut up in disbelief at what has just transpired. And as if that weren't enough, the disc begins with a Western medley of classics such as "On the Alamo" and "The Night Rider," which thunders with a steel string fury so unruly, yet so completely precise, that it's a wonder it was executed by human beings – but thank God it was. The staggered arpeggio sequences on the Western swing material in the mid-'50s has never been touched either for its pure musicological sophistication or it's pure fun quotient. And perhaps that's the most astonishing thing of all: No matter how outside the music of West and Bryant got, you could always dance to it. Try hanging that on the superchoppers of today – in any genre – and see what hind of hellish steps result! This set isn't for everybody, but it most definitely warrants the attention of the steel guitar freaks as well as Speedy & Jimmy fans. It should also nudge the curiosity of Western swing fans to look further west for inspiration and, finally, it should interest serious early rock & roll and bebop fans for its temperament and musical genius. In other words, this set is indispensable for anyone seriously interested in the history and development of American music.
Speedy West & Jimmy Bryant - Flamin' Guitars (1997) {4CD Set Bear Family BCD 15956 rec 1949-62}

Speedy West & Jimmy Bryant - Flamin' Guitars (1997) {4CD Set Bear Family BCD 15956 rec 1949-62}


tracklist:
CD1

01 - Jelly Beans Daddy
02 - Just Remember
03 - Boogie Barn Dance
04 - Gamblin' Money
05 - Steel Strike
06 - Bryant's Boogie
07 - Red Headed Polka
08 - Railroadin'
09 - Stainless Steel
10 - Hub Cap Roll
11 - T-Bone Rag
12 - Truck Driver's Ride
13 - Liberty Bell Polka
14 - Crackerjack
15 - Bryant's Shuffle
16 - Roadside Rag
17 - Yodeling Guitar
18 - Georgia Steel Guitar
19 - Pickin' The Chicken
20 - Midnight Ramble
21 - Comin' On
22 - Lover
23 - Skiddle-Dee-Boo
24 - Serenade To A Frog
25 - Bryant's Bounce
26 - Opus 1
27 - Whistle Stop
28 - Speedin' West
29 - Hometown Polka
30 - This Ain't The Blues

Speedy West & Jimmy Bryant - Flamin' Guitars (1997) {4CD Set Bear Family BCD 15956 rec 1949-62}


CD2
01 - Jammin' With Jimmy
02 - Two Of A Kind
03 - Sunset
04 - Steel Guitar Rag
05 - Swingin' On The Strings
06 - Old Joe Clark
07 - This Is Southland
08 - Arkansas Traveler
09 - Blue Bonnet Rag
10 - Hop Skip And Jump
11 - Country Capers
12 - Low Man On A Totem Pole
13 - Sleep Walker's Lullaby
14 - Our Paradise
15 - Cotton Pickin'
16 - Bustin' Thru
17 - Flippin' The Lid
18 - Deep Water
19 - Stratosphere Boogie
20 - West Of Samoa
21 - Shuffleboard Rag
22 - Steelin' Moonlight
23 - Caffeine Patrol
24 - Yankee Clover
25 - Pickin' Peppers
26 - Chatter Box
27 - Frettin' Fingers
28 - Pushin' The Blues
29 - Sand Canyon Swing
30 - Water Baby Blues
31 - Shawnee Trot

Speedy West & Jimmy Bryant - Flamin' Guitars (1997) {4CD Set Bear Family BCD 15956 rec 1949-62}


CD3
01 - On The Alamo
02 - Rolling Sky
03 - The Night Rider
04 - Hillcrest
05 - China Boy
06 - China Boy
07 - Hawaiian War Chant
08 - Song Of The Islands
09 - On The Beach Of Waikiki
10 - My Tane
11 - Drifting And Dreaming
12 - My Little Grass Shack In Kealakekua Hawaii
13 - Sweet Hawaiian Chimes
14 - Blue Hawaii
15 - Yaaka Hula Hickey Dula
16 - The Moon Of Manakoora
17 - Ka-Lu-A
18 - Luna
19 - Reflections From The Moon
20 - Space Man In Orbit
21 - Lazy Summer Evening
22 - Double Or Nothing
23 - Afternoon Of A Swan
24 - Wild And Woolly West
25 - Rippling Waters
26 - Totem Pole Dance
27 - Slow And Easy
28 - Speedy's Special
29 - Sunset At Waikiki
30 - Tulsa Twist

Speedy West & Jimmy Bryant - Flamin' Guitars (1997) {4CD Set Bear Family BCD 15956 rec 1949-62}


CD4
01 - Candy Kisses
02 - Ain't Nobody's Business But My Own
03 - I'll Never Be Free
04 - Wild Card
05 - Oakie Boogie
06 - Down South
07 - I've Turned A Gadabout
08 - Stop Your Gamblin'
09 - There's A Blue Sky Way Out Yonder
10 - Oakie Boogie
11 - Twice the Lovin'
12 - Crying Steel Guitar Waltz
13 - Nobody Else Can Love You Like I Do
14 - Keep It a Secret
15 - Y'All Come
16 - The Boys In The Backroom
17 - Under The Double Eagle
18 - Hot Lips
19 - Hotter Than A Pistol
20 - Keystone Kapers
21 - Whistle Stop
22 - This Must Be The Place

Speedy West & Jimmy Bryant - Flamin' Guitars (1997) {4CD Set Bear Family BCD 15956 rec 1949-62}


Exact Audio Copy V1.0 beta 1 from 15. November 2010

EAC extraction logfile from 16. April 2011, 22:15

Speedy West & Jimmy Bryant / Flamin' Guitars

Used drive : TSSTcorpCDDVDW SH-S203N Adapter: 0 ID: 2

Read mode : Secure
Utilize accurate stream : Yes
Defeat audio cache : Yes
Make use of C2 pointers : No

Read offset correction : 6
Overread into Lead-In and Lead-Out : No
Fill up missing offset samples with silence : Yes
Delete leading and trailing silent blocks : No
Null samples used in CRC calculations : Yes
Used interface : Installed external ASPI interface
Gap handling : Appended to previous track

Used output format : User Defined Encoder
Selected bitrate : 768 kBit/s
Quality : High
Add ID3 tag : No
Command line compressor : C:\Program Files\Exact Audio Copy-NEW\Flac\flac.exe
Additional command line options : -8 -V -T "ARTIST=%a" -T "TITLE=%t" -T "ALBUM=%g" -T "DATE=%y" -T "TRACKNUMBER=%n" -T "TOTALTRACKS=%x" -T "GENRE=%m" -T "ALBUMARTIST=%v" -T "ALBUM ARTIST=%v" -T "COMMENT=EAC V1.01b1, Secure Mode, Test & Copy, AccurateRip, FL


TOC of the extracted CD

Track | Start | Length | Start sector | End sector
––––––––––––––––––––––––––––-
1 | 0:00.00 | 3:08.37 | 0 | 14136
2 | 3:08.37 | 2:43.05 | 14137 | 26366
3 | 5:51.42 | 2:24.18 | 26367 | 37184
4 | 8:15.60 | 2:53.15 | 37185 | 50174
5 | 11:09.00 | 2:06.62 | 50175 | 59686
6 | 13:15.62 | 2:35.00 | 59687 | 71311
7 | 15:50.62 | 2:31.15 | 71312 | 82651
8 | 18:22.02 | 2:14.03 | 82652 | 92704
9 | 20:36.05 | 2:08.72 | 92705 | 102376
10 | 22:45.02 | 2:16.35 | 102377 | 112611
11 | 25:01.37 | 2:15.03 | 112612 | 122739
12 | 27:16.40 | 2:13.45 | 122740 | 132759
13 | 29:30.10 | 2:17.65 | 132760 | 143099
14 | 31:48.00 | 2:09.07 | 143100 | 152781
15 | 33:57.07 | 2:17.70 | 152782 | 163126
16 | 36:15.02 | 2:19.48 | 163127 | 173599
17 | 38:34.50 | 2:08.67 | 173600 | 183266
18 | 40:43.42 | 1:58.03 | 183267 | 192119
19 | 42:41.45 | 2:15.70 | 192120 | 202314
20 | 44:57.40 | 1:55.70 | 202315 | 211009
21 | 46:53.35 | 2:13.55 | 211010 | 221039
22 | 49:07.15 | 2:20.02 | 221040 | 231541
23 | 51:27.17 | 2:31.43 | 231542 | 242909
24 | 53:58.60 | 2:07.17 | 242910 | 252451
25 | 56:06.02 | 2:21.43 | 252452 | 263069
26 | 58:27.45 | 2:16.52 | 263070 | 273321
27 | 60:44.22 | 2:17.50 | 273322 | 283646
28 | 63:01.72 | 2:02.70 | 283647 | 292866
29 | 65:04.67 | 2:20.63 | 292867 | 303429
30 | 67:25.55 | 2:07.55 | 303430 | 313009


Track 1

Filename J:\New Rips\Speedy West & Jimmy Bryant - Flamin' Guitars (1997) [FLAC]\disc 1of4\01 - Jelly Beans Daddy.wav

Pre-gap length 0:00:02.00

Peak level 81.0 %
Extraction speed 3.4 X
Track quality 100.0 %
Test CRC 90E4B235
Copy CRC 90E4B235
Accurately ripped (confidence 2) [060BE2D3]
Copy OK

Track 2

Filename J:\New Rips\Speedy West & Jimmy Bryant - Flamin' Guitars (1997) [FLAC]\disc 1of4\02 - Just Remember.wav

Pre-gap length 0:00:03.24

Peak level 77.6 %
Extraction speed 4.8 X
Track quality 100.0 %
Test CRC 90589825
Copy CRC 90589825
Accurately ripped (confidence 2) [D422D1E3]
Copy OK

Track 3

Filename J:\New Rips\Speedy West & Jimmy Bryant - Flamin' Guitars (1997) [FLAC]\disc 1of4\03 - Boogie Barn Dance.wav

Pre-gap length 0:00:02.29

Peak level 77.8 %
Extraction speed 5.0 X
Track quality 100.0 %
Test CRC E2CFAE27
Copy CRC E2CFAE27
Accurately ripped (confidence 2) [6FD04EC5]
Copy OK

Track 4

Filename J:\New Rips\Speedy West & Jimmy Bryant - Flamin' Guitars (1997) [FLAC]\disc 1of4\04 - Gamblin' Money.wav

Pre-gap length 0:00:02.30

Peak level 75.9 %
Extraction speed 5.4 X
Track quality 100.0 %
Test CRC 39CC50DC
Copy CRC 39CC50DC
Accurately ripped (confidence 2) [DDF7BF7C]
Copy OK

Track 5

Filename J:\New Rips\Speedy West & Jimmy Bryant - Flamin' Guitars (1997) [FLAC]\disc 1of4\05 - Steel Strike.wav

Pre-gap length 0:00:04.45

Peak level 74.2 %
Extraction speed 3.6 X
Track quality 99.9 %
Test CRC D2E6A3CD
Copy CRC D2E6A3CD
Accurately ripped (confidence 2) [6E6250F9]
Copy OK

Track 6

Filename J:\New Rips\Speedy West & Jimmy Bryant - Flamin' Guitars (1997) [FLAC]\disc 1of4\06 - Bryant's Boogie.wav

Pre-gap length 0:00:02.17

Peak level 76.3 %
Extraction speed 5.6 X
Track quality 100.0 %
Test CRC 12393D1A
Copy CRC 12393D1A
Accurately ripped (confidence 2) [993F6E53]
Copy OK

Track 7

Filename J:\New Rips\Speedy West & Jimmy Bryant - Flamin' Guitars (1997) [FLAC]\disc 1of4\07 - Red Headed Polka.wav

Pre-gap length 0:00:01.67

Peak level 68.8 %
Extraction speed 5.9 X
Track quality 100.0 %
Test CRC D8F6108F
Copy CRC D8F6108F
Accurately ripped (confidence 2) [E905263A]
Copy OK

Track 8

Filename J:\New Rips\Speedy West & Jimmy Bryant - Flamin' Guitars (1997) [FLAC]\disc 1of4\08 - Railroadin'.wav

Pre-gap length 0:00:01.38

Peak level 63.2 %
Extraction speed 5.8 X
Track quality 100.0 %
Test CRC 82D4BD27
Copy CRC 82D4BD27
Accurately ripped (confidence 2) [784583C2]
Copy OK

Track 9

Filename J:\New Rips\Speedy West & Jimmy Bryant - Flamin' Guitars (1997) [FLAC]\disc 1of4\09 - Stainless Steel.wav

Pre-gap length 0:00:02.17

Peak level 82.2 %
Extraction speed 5.9 X
Track quality 100.0 %
Test CRC FE414451
Copy CRC FE414451
Accurately ripped (confidence 2) [5C08B462]
Copy OK

Track 10

Filename J:\New Rips\Speedy West & Jimmy Bryant - Flamin' Guitars (1997) [FLAC]\disc 1of4\10 - Hub Cap Roll.wav

Pre-gap length 0:00:02.52

Peak level 57.8 %
Extraction speed 4.3 X
Track quality 99.9 %
Test CRC 462D8F2E
Copy CRC 462D8F2E
Accurately ripped (confidence 2) [9271612B]
Copy OK

Track 11

Filename J:\New Rips\Speedy West & Jimmy Bryant - Flamin' Guitars (1997) [FLAC]\disc 1of4\11 - T-Bone Rag.wav

Pre-gap length 0:00:02.29

Peak level 69.7 %
Extraction speed 6.3 X
Track quality 100.0 %
Test CRC 3786655A
Copy CRC 3786655A
Accurately ripped (confidence 2) [1DA6A7E4]
Copy OK

Track 12

Filename J:\New Rips\Speedy West & Jimmy Bryant - Flamin' Guitars (1997) [FLAC]\disc 1of4\12 - Truck Driver's Ride.wav

Pre-gap length 0:00:02.00

Peak level 83.8 %
Extraction speed 6.4 X
Track quality 100.0 %
Test CRC EF59D8DF
Copy CRC EF59D8DF
Accurately ripped (confidence 2) [D3896D35]
Copy OK

Track 13

Filename J:\New Rips\Speedy West & Jimmy Bryant - Flamin' Guitars (1997) [FLAC]\disc 1of4\13 - Liberty Bell Polka.wav

Pre-gap length 0:00:03.27

Peak level 63.0 %
Extraction speed 6.7 X
Track quality 100.0 %
Test CRC A74E8EE2
Copy CRC A74E8EE2
Accurately ripped (confidence 2) [C555B760]
Copy OK

Track 14

Filename J:\New Rips\Speedy West & Jimmy Bryant - Flamin' Guitars (1997) [FLAC]\disc 1of4\14 - Crackerjack.wav

Pre-gap length 0:00:02.12

Peak level 61.1 %
Extraction speed 6.7 X
Track quality 100.0 %
Test CRC 65C5DDDA
Copy CRC 65C5DDDA
Accurately ripped (confidence 2) [FDD11821]
Copy OK

Track 15

Filename J:\New Rips\Speedy West & Jimmy Bryant - Flamin' Guitars (1997) [FLAC]\disc 1of4\15 - Bryant's Shuffle.wav

Pre-gap length 0:00:01.59

Peak level 72.3 %
Extraction speed 6.9 X
Track quality 100.0 %
Test CRC 7058D414
Copy CRC 7058D414
Accurately ripped (confidence 2) [BA1C7E68]
Copy OK

Track 16

Filename J:\New Rips\Speedy West & Jimmy Bryant - Flamin' Guitars (1997) [FLAC]\disc 1of4\16 - Roadside Rag.wav

Pre-gap length 0:00:02.29

Peak level 56.7 %
Extraction speed 7.1 X
Track quality 100.0 %
Test CRC 631B3D01
Copy CRC 631B3D01
Accurately ripped (confidence 2) [5B3A8F4C]
Copy OK

Track 17

Filename J:\New Rips\Speedy West & Jimmy Bryant - Flamin' Guitars (1997) [FLAC]\disc 1of4\17 - Yodeling Guitar.wav

Pre-gap length 0:00:02.07

Peak level 67.0 %
Extraction speed 7.1 X
Track quality 100.0 %
Test CRC 58DDED86
Copy CRC 58DDED86
Accurately ripped (confidence 2) [3E05CBAB]
Copy OK

Track 18

Filename J:\New Rips\Speedy West & Jimmy Bryant - Flamin' Guitars (1997) [FLAC]\disc 1of4\18 - Georgia Steel Guitar.wav

Pre-gap length 0:00:02.14

Peak level 62.5 %
Extraction speed 6.9 X
Track quality 100.0 %
Test CRC EC2558DB
Copy CRC EC2558DB
Accurately ripped (confidence 2) [142AA0A9]
Copy OK

Track 19

Filename J:\New Rips\Speedy West & Jimmy Bryant - Flamin' Guitars (1997) [FLAC]\disc 1of4\19 - Pickin' The Chicken.wav

Pre-gap length 0:00:02.22

Peak level 52.5 %
Extraction speed 7.3 X
Track quality 100.0 %
Test CRC 7E32D172
Copy CRC 7E32D172
Accurately ripped (confidence 2) [65AD2972]
Copy OK

Track 20

Filename J:\New Rips\Speedy West & Jimmy Bryant - Flamin' Guitars (1997) [FLAC]\disc 1of4\20 - Midnight Ramble.wav

Pre-gap length 0:00:02.27

Peak level 61.6 %
Extraction speed 7.2 X
Track quality 100.0 %
Test CRC BC271174
Copy CRC BC271174
Accurately ripped (confidence 2) [BD5544EE]
Copy OK

Track 21

Filename J:\New Rips\Speedy West & Jimmy Bryant - Flamin' Guitars (1997) [FLAC]\disc 1of4\21 - Comin' On.wav

Pre-gap length 0:00:02.37

Peak level 52.7 %
Extraction speed 7.4 X
Track quality 100.0 %
Test CRC 936D05CB
Copy CRC 936D05CB
Accurately ripped (confidence 2) [5728CDB9]
Copy OK

Track 22

Filename J:\New Rips\Speedy West & Jimmy Bryant - Flamin' Guitars (1997) [FLAC]\disc 1of4\22 - Lover.wav

Pre-gap length 0:00:03.62

Peak level 63.4 %
Extraction speed 7.7 X
Track quality 100.0 %
Test CRC A7ED0463
Copy CRC A7ED0463
Accurately ripped (confidence 2) [BF0BC9D0]
Copy OK

Track 23

Filename J:\New Rips\Speedy West & Jimmy Bryant - Flamin' Guitars (1997) [FLAC]\disc 1of4\23 - Skiddle-Dee-Boo.wav

Pre-gap length 0:00:02.07

Peak level 67.1 %
Extraction speed 8.1 X
Track quality 100.0 %
Test CRC 6932B0FA
Copy CRC 6932B0FA
Accurately ripped (confidence 2) [442CE4BD]
Copy OK

Track 24

Filename J:\New Rips\Speedy West & Jimmy Bryant - Flamin' Guitars (1997) [FLAC]\disc 1of4\24 - Serenade To A Frog.wav

Pre-gap length 0:00:02.10

Peak level 66.9 %
Extraction speed 7.8 X
Track quality 100.0 %
Test CRC A2F00627
Copy CRC A2F00627
Accurately ripped (confidence 2) [CD76735E]
Copy OK

Track 25

Filename J:\New Rips\Speedy West & Jimmy Bryant - Flamin' Guitars (1997) [FLAC]\disc 1of4\25 - Bryant's Bounce.wav

Pre-gap length 0:00:02.59

Peak level 58.5 %
Extraction speed 8.0 X
Track quality 100.0 %
Test CRC 025E5F46
Copy CRC 025E5F46
Accurately ripped (confidence 2) [24F88CA8]
Copy OK

Track 26

Filename J:\New Rips\Speedy West & Jimmy Bryant - Flamin' Guitars (1997) [FLAC]\disc 1of4\26 - Opus 1.wav

Pre-gap length 0:00:02.35

Peak level 71.6 %
Extraction speed 8.1 X
Track quality 100.0 %
Test CRC D36B6717
Copy CRC D36B6717
Accurately ripped (confidence 2) [D88E6C96]
Copy OK

Track 27

Filename J:\New Rips\Speedy West & Jimmy Bryant - Flamin' Guitars (1997) [FLAC]\disc 1of4\27 - Whistle Stop.wav

Pre-gap length 0:00:02.62

Peak level 76.7 %
Extraction speed 8.3 X
Track quality 100.0 %
Test CRC 6733183C
Copy CRC 6733183C
Accurately ripped (confidence 2) [308D1DC6]
Copy OK

Track 28

Filename J:\New Rips\Speedy West & Jimmy Bryant - Flamin' Guitars (1997) [FLAC]\disc 1of4\28 - Speedin' West.wav

Pre-gap length 0:00:02.14

Peak level 61.7 %
Extraction speed 8.2 X
Track quality 100.0 %
Test CRC BE002680
Copy CRC BE002680
Accurately ripped (confidence 2) [4829CFEE]
Copy OK

Track 29

Filename J:\New Rips\Speedy West & Jimmy Bryant - Flamin' Guitars (1997) [FLAC]\disc 1of4\29 - Hometown Polka.wav

Pre-gap length 0:00:02.29

Peak level 56.5 %
Extraction speed 8.6 X
Track quality 100.0 %
Test CRC A5014497
Copy CRC A5014497
Accurately ripped (confidence 2) [8B8B9839]
Copy OK

Track 30

Filename J:\New Rips\Speedy West & Jimmy Bryant - Flamin' Guitars (1997) [FLAC]\disc 1of4\30 - This Ain't The Blues.wav

Pre-gap length 0:00:02.62

Peak level 97.0 %
Extraction speed 8.4 X
Track quality 100.0 %
Test CRC F4CE556C
Copy CRC F4CE556C
Accurately ripped (confidence 2) [A43C77A9]
Copy OK


All tracks accurately ripped

No errors occurred

End of status report

==== Log checksum 730AA573CCCA1870F6D74EB54D263A258E8C2D8DC1B7A75557EDA2FF2C8BD59B ====

Exact Audio Copy V1.0 beta 1 from 15. November 2010

EAC extraction logfile from 17. April 2011, 19:40

Speedy West & Jimmy Bryant / Flamin' Guitars

Used drive : TSSTcorpCDDVDW SH-S203N Adapter: 0 ID: 2

Read mode : Secure
Utilize accurate stream : Yes
Defeat audio cache : Yes
Make use of C2 pointers : No

Read offset correction : 6
Overread into Lead-In and Lead-Out : No
Fill up missing offset samples with silence : Yes
Delete leading and trailing silent blocks : No
Null samples used in CRC calculations : Yes
Used interface : Installed external ASPI interface
Gap handling : Appended to previous track

Used output format : User Defined Encoder
Selected bitrate : 768 kBit/s
Quality : High
Add ID3 tag : No
Command line compressor : C:\Program Files\Exact Audio Copy-NEW\Flac\flac.exe
Additional command line options : -8 -V -T "ARTIST=%a" -T "TITLE=%t" -T "ALBUM=%g" -T "DATE=%y" -T "TRACKNUMBER=%n" -T "TOTALTRACKS=%x" -T "GENRE=%m" -T "ALBUMARTIST=%v" -T "ALBUM ARTIST=%v" -T "COMMENT=EAC V1.01b1, Secure Mode, Test & Copy, AccurateRip, FL


TOC of the extracted CD

Track | Start | Length | Start sector | End sector
––––––––––––––––––––––––––––-
1 | 0:00.00 | 2:30.55 | 0 | 11304
2 | 2:30.55 | 2:18.57 | 11305 | 21711
3 | 4:49.37 | 2:22.03 | 21712 | 32364
4 | 7:11.40 | 2:25.22 | 32365 | 43261
5 | 9:36.62 | 2:18.48 | 43262 | 53659
6 | 11:55.35 | 2:23.15 | 53660 | 64399
7 | 14:18.50 | 2:36.62 | 64400 | 76161
8 | 16:55.37 | 2:06.23 | 76162 | 85634
9 | 19:01.60 | 2:32.50 | 85635 | 97084
10 | 21:34.35 | 2:22.67 | 97085 | 107801
11 | 23:57.27 | 2:13.00 | 107802 | 117776
12 | 26:10.27 | 2:39.60 | 117777 | 129761
13 | 28:50.12 | 2:09.63 | 129762 | 139499
14 | 31:00.00 | 2:28.30 | 139500 | 150629
15 | 33:28.30 | 2:29.40 | 150630 | 161844
16 | 35:57.70 | 2:17.17 | 161845 | 172136
17 | 38:15.12 | 2:30.15 | 172137 | 183401
18 | 40:45.27 | 3:02.00 | 183402 | 197051
19 | 43:47.27 | 2:12.65 | 197052 | 207016
20 | 46:00.17 | 2:33.33 | 207017 | 218524
21 | 48:33.50 | 2:15.02 | 218525 | 228651
22 | 50:48.52 | 2:40.03 | 228652 | 240654
23 | 53:28.55 | 1:53.00 | 240655 | 249129
24 | 55:21.55 | 2:52.50 | 249130 | 262079
25 | 58:14.30 | 2:12.57 | 262080 | 272036
26 | 60:27.12 | 2:09.60 | 272037 | 281771
27 | 62:36.72 | 2:02.35 | 281772 | 290956
28 | 64:39.32 | 3:12.53 | 290957 | 305409
29 | 67:52.10 | 2:09.40 | 305410 | 315124
30 | 70:01.50 | 2:13.57 | 315125 | 325156
31 | 72:15.32 | 2:16.23 | 325157 | 335379


Track 1

Filename J:\New Rips\Speedy West & Jimmy Bryant - Flamin' Guitars (1997) [FLAC]\disc 2of4\01 - Jammin' With Jimmy.wav

Pre-gap length 0:00:02.00

Peak level 76.9 %
Extraction speed 1.6 X
Track quality 99.9 %
Test CRC 17C3ECC8
Copy CRC 17C3ECC8
Accurately ripped (confidence 2) [8B3B4AE0]
Copy OK

Track 2

Filename J:\New Rips\Speedy West & Jimmy Bryant - Flamin' Guitars (1997) [FLAC]\disc 2of4\02 - Two Of A Kind.wav

Pre-gap length 0:00:02.25

Peak level 81.4 %
Extraction speed 1.9 X
Track quality 100.0 %
Test CRC 87FB1216
Copy CRC 87FB1216
Accurately ripped (confidence 2) [98EDC129]
Copy OK

Track 3

Filename J:\New Rips\Speedy West & Jimmy Bryant - Flamin' Guitars (1997) [FLAC]\disc 2of4\03 - Sunset.wav

Pre-gap length 0:00:03.25

Peak level 59.1 %
Extraction speed 1.9 X
Track quality 100.0 %
Test CRC C56EC100
Copy CRC C56EC100
Accurately ripped (confidence 2) [13A9F6FA]
Copy OK

Track 4

Filename J:\New Rips\Speedy West & Jimmy Bryant - Flamin' Guitars (1997) [FLAC]\disc 2of4\04 - Steel Guitar Rag.wav

Pre-gap length 0:00:02.25

Peak level 72.6 %
Extraction speed 1.9 X
Track quality 100.0 %
Test CRC 29BF5B0F
Copy CRC 29BF5B0F
Accurately ripped (confidence 2) [2995EF5C]
Copy OK

Track 5

Filename J:\New Rips\Speedy West & Jimmy Bryant - Flamin' Guitars (1997) [FLAC]\disc 2of4\05 - Swingin' On The Strings.wav

Pre-gap length 0:00:03.32

Peak level 88.0 %
Extraction speed 1.9 X
Track quality 100.0 %
Test CRC FC516A8D
Copy CRC FC516A8D
Accurately ripped (confidence 2) [F1586473]
Copy OK

Track 6

Filename J:\New Rips\Speedy West & Jimmy Bryant - Flamin' Guitars (1997) [FLAC]\disc 2of4\06 - Old Joe Clark.wav

Pre-gap length 0:00:02.25

Peak level 89.3 %
Extraction speed 1.9 X
Track quality 100.0 %
Test CRC 23F66E9B
Copy CRC 23F66E9B
Accurately ripped (confidence 2) [D28A2BBD]
Copy OK

Track 7

Filename J:\New Rips\Speedy West & Jimmy Bryant - Flamin' Guitars (1997) [FLAC]\disc 2of4\07 - This Is Southland.wav

Pre-gap length 0:00:03.18

Peak level 94.8 %
Extraction speed 1.9 X
Track quality 100.0 %
Test CRC 8C565A1B
Copy CRC 8C565A1B
Accurately ripped (confidence 2) [F6C2253A]
Copy OK

Track 8

Filename J:\New Rips\Speedy West & Jimmy Bryant - Flamin' Guitars (1997) [FLAC]\disc 2of4\08 - Arkansas Traveler.wav

Pre-gap length 0:00:02.70

Peak level 76.7 %
Extraction speed 1.8 X
Track quality 100.0 %
Test CRC 9FA28637
Copy CRC 9FA28637
Accurately ripped (confidence 2) [9DD4B4D5]
Copy OK

Track 9

Filename J:\New Rips\Speedy West & Jimmy Bryant - Flamin' Guitars (1997) [FLAC]\disc 2of4\09 - Blue Bonnet Rag.wav

Pre-gap length 0:00:01.63

Peak level 93.8 %
Extraction speed 1.9 X
Track quality 100.0 %
Test CRC 1A4EE7F7
Copy CRC 1A4EE7F7
Accurately ripped (confidence 2) [BEC9873A]
Copy OK

Track 10

Filename J:\New Rips\Speedy West & Jimmy Bryant - Flamin' Guitars (1997) [FLAC]\disc 2of4\10 - Hop Skip And Jump.wav

Pre-gap length 0:00:03.28

Peak level 81.6 %
Extraction speed 1.9 X
Track quality 100.0 %
Test CRC CEC58221
Copy CRC CEC58221
Accurately ripped (confidence 2) [5044E5F1]
Copy OK

Track 11

Filename J:\New Rips\Speedy West & Jimmy Bryant - Flamin' Guitars (1997) [FLAC]\disc 2of4\11 - Country Capers.wav

Pre-gap length 0:00:03.20

Peak level 85.4 %
Extraction speed 1.9 X
Track quality 100.0 %
Test CRC D3EF33D0
Copy CRC D3EF33D0
Accurately ripped (confidence 2) [EBC2C270]
Copy OK

Track 12

Filename J:\New Rips\Speedy West & Jimmy Bryant - Flamin' Guitars (1997) [FLAC]\disc 2of4\12 - Low Man On A Totem Pole.wav

Pre-gap length 0:00:02.22

Peak level 80.2 %
Extraction speed 2.0 X
Track quality 100.0 %
Test CRC 84F980E1
Copy CRC 84F980E1
Accurately ripped (confidence 2) [0C1CA4A2]
Copy OK

Track 13

Filename J:\New Rips\Speedy West & Jimmy Bryant - Flamin' Guitars (1997) [FLAC]\disc 2of4\13 - Sleep Walker's Lullaby.wav

Pre-gap length 0:00:03.27

Peak level 64.7 %
Extraction speed 1.5 X
Track quality 99.9 %
Test CRC 8F3F66EE
Copy CRC 8F3F66EE
Accurately ripped (confidence 2) [E8623F82]
Copy OK

Track 14

Filename J:\New Rips\Speedy West & Jimmy Bryant - Flamin' Guitars (1997) [FLAC]\disc 2of4\14 - Our Paradise.wav

Pre-gap length 0:00:02.50

Peak level 62.6 %
Extraction speed 1.6 X
Track quality 99.9 %
Test CRC 9FAAAE21
Copy CRC 9FAAAE21
Accurately ripped (confidence 2) [5D48BF4A]
Copy OK

Track 15

Filename J:\New Rips\Speedy West & Jimmy Bryant - Flamin' Guitars (1997) [FLAC]\disc 2of4\15 - Cotton Pickin'.wav

Pre-gap length 0:00:02.03

Peak level 83.1 %
Extraction speed 1.9 X
Track quality 100.0 %
Test CRC 94452DD5
Copy CRC 94452DD5
Accurately ripped (confidence 2) [6CF7CD3C]
Copy OK

Track 16

Filename J:\New Rips\Speedy West & Jimmy Bryant - Flamin' Guitars (1997) [FLAC]\disc 2of4\16 - Bustin' Thru.wav

Pre-gap length 0:00:03.23

Peak level 71.3 %
Extraction speed 1.9 X
Track quality 100.0 %
Test CRC D6421193
Copy CRC D6421193
Accurately ripped (confidence 2) [40D52682]
Copy OK

Track 17

Filename J:\New Rips\Speedy West & Jimmy Bryant - Flamin' Guitars (1997) [FLAC]\disc 2of4\17 - Flippin' The Lid.wav

Pre-gap length 0:00:03.62

Peak level 75.5 %
Extraction speed 1.9 X
Track quality 100.0 %
Test CRC C1E81A8A
Copy CRC C1E81A8A
Accurately ripped (confidence 2) [736576D8]
Copy OK

Track 18

Filename J:\New Rips\Speedy West & Jimmy Bryant - Flamin' Guitars (1997) [FLAC]\disc 2of4\18 - Deep Water.wav

Pre-gap length 0:00:03.62

Peak level 82.4 %
Extraction speed 2.0 X
Track quality 100.0 %
Test CRC 3444FB70
Copy CRC 3444FB70
Accurately ripped (confidence 2) [6686574C]
Copy OK

Track 19

Filename J:\New Rips\Speedy West & Jimmy Bryant - Flamin' Guitars (1997) [FLAC]\disc 2of4\19 - Stratosphere Boogie.wav

Pre-gap length 0:00:02.70

Peak level 63.9 %
Extraction speed 1.8 X
Track quality 100.0 %
Test CRC 689D428B
Copy CRC 689D428B
Accurately ripped (confidence 2) [C20A78D8]
Copy OK

Track 20

Filename J:\New Rips\Speedy West & Jimmy Bryant - Flamin' Guitars (1997) [FLAC]\disc 2of4\20 - West Of Samoa.wav

Pre-gap length 0:00:02.67

Peak level 61.4 %
Extraction speed 2.0 X
Track quality 100.0 %
Test CRC 797E85A0
Copy CRC 797E85A0
Accurately ripped (confidence 2) [D3D35CBE]
Copy OK

Track 21

Filename J:\New Rips\Speedy West & Jimmy Bryant - Flamin' Guitars (1997) [FLAC]\disc 2of4\21 - Shuffleboard Rag.wav

Pre-gap length 0:00:02.13

Peak level 98.8 %
Extraction speed 1.9 X
Track quality 100.0 %
Test CRC 097770D2
Copy CRC 097770D2
Accurately ripped (confidence 2) [88B0B78A]
Copy OK

Track 22

Filename J:\New Rips\Speedy West & Jimmy Bryant - Flamin' Guitars (1997) [FLAC]\disc 2of4\22 - Steelin' Moonlight.wav

Pre-gap length 0:00:02.42

Peak level 68.6 %
Extraction speed 1.6 X
Track quality 99.9 %
Test CRC 9E4FE439
Copy CRC 9E4FE439
Accurately ripped (confidence 2) [BF56FF10]
Copy OK

Track 23

Filename J:\New Rips\Speedy West & Jimmy Bryant - Flamin' Guitars (1997) [FLAC]\disc 2of4\23 - Caffeine Patrol.wav

Pre-gap length 0:00:02.10

Peak level 86.5 %
Extraction speed 1.8 X
Track quality 100.0 %
Test CRC 0A89204C
Copy CRC 0A89204C
Accurately ripped (confidence 2) [43B2FD34]
Copy OK

Track 24

Filename J:\New Rips\Speedy West & Jimmy Bryant - Flamin' Guitars (1997) [FLAC]\disc 2of4\24 - Yankee Clover.wav

Pre-gap length 0:00:04.20

Peak level 72.7 %
Extraction speed 1.7 X
Track quality 99.9 %
Test CRC 6174ED19
Copy CRC 6174ED19
Accurately ripped (confidence 2) [1D4D4CF8]
Copy OK

Track 25

Filename J:\New Rips\Speedy West & Jimmy Bryant - Flamin' Guitars (1997) [FLAC]\disc 2of4\25 - Pickin' Peppers.wav

Pre-gap length 0:00:02.10

Peak level 82.7 %
Extraction speed 1.9 X
Track quality 100.0 %
Test CRC 858DEAC5
Copy CRC 858DEAC5
Accurately ripped (confidence 2) [AB9DB69F]
Copy OK

Track 26

Filename J:\New Rips\Speedy West & Jimmy Bryant - Flamin' Guitars (1997) [FLAC]\disc 2of4\26 - Chatter Box.wav

Pre-gap length 0:00:03.00

Peak level 71.7 %
Extraction speed 1.8 X
Track quality 100.0 %
Test CRC 1D61729B
Copy CRC 1D61729B
Accurately ripped (confidence 2) [E26723CF]
Copy OK

Track 27

Filename J:\New Rips\Speedy West & Jimmy Bryant - Flamin' Guitars (1997) [FLAC]\disc 2of4\27 - Frettin' Fingers.wav

Pre-gap length 0:00:02.47

Peak level 74.5 %
Extraction speed 1.8 X
Track quality 100.0 %
Test CRC B8FF3390
Copy CRC B8FF3390
Accurately ripped (confidence 2) [647BF811]
Copy OK

Track 28

Filename J:\New Rips\Speedy West & Jimmy Bryant - Flamin' Guitars (1997) [FLAC]\disc 2of4\28 - Pushin' The Blues.wav

Pre-gap length 0:00:01.72

Peak level 75.8 %
Extraction speed 2.0 X
Track quality 100.0 %
Test CRC 1CE18B15
Copy CRC 1CE18B15
Accurately ripped (confidence 2) [0DBCBFDC]
Copy OK

Track 29

Filename J:\New Rips\Speedy West & Jimmy Bryant - Flamin' Guitars (1997) [FLAC]\disc 2of4\29 - Sand Canyon Swing.wav

Pre-gap length 0:00:03.20

Peak level 84.4 %
Extraction speed 1.8 X
Track quality 100.0 %
Test CRC 0B22F76E
Copy CRC 0B22F76E
Accurately ripped (confidence 2) [141E7FFD]
Copy OK

Track 30

Filename J:\New Rips\Speedy West & Jimmy Bryant - Flamin' Guitars (1997) [FLAC]\disc 2of4\30 - Water Baby Blues.wav

Pre-gap length 0:00:02.25

Peak level 90.7 %
Extraction speed 1.8 X
Track quality 100.0 %
Test CRC B5754E5B
Copy CRC B5754E5B
Accurately ripped (confidence 2) [7850608A]
Copy OK

Track 31

Filename J:\New Rips\Speedy West & Jimmy Bryant - Flamin' Guitars (1997) [FLAC]\disc 2of4\31 - Shawnee Trot.wav

Pre-gap length 0:00:02.37

Peak level 81.8 %
Extraction speed 1.9 X
Track quality 100.0 %
Test CRC 0847FA97
Copy CRC 0847FA97
Accurately ripped (confidence 2) [DC44896B]
Copy OK


All tracks accurately ripped

No errors occurred

End of status report

==== Log checksum 2EE15EA17A62106B499CE188530B635BEE2A96B0009A7810B096261C46AAEBF8 ====

Exact Audio Copy V1.0 beta 1 from 15. November 2010

EAC extraction logfile from 17. April 2011, 21:37

Speedy West & Jimmy Bryant / Flamin' Guitars

Used drive : TSSTcorpCDDVDW SH-S203N Adapter: 0 ID: 2

Read mode : Secure
Utilize accurate stream : Yes
Defeat audio cache : Yes
Make use of C2 pointers : No

Read offset correction : 6
Overread into Lead-In and Lead-Out : No
Fill up missing offset samples with silence : Yes
Delete leading and trailing silent blocks : No
Null samples used in CRC calculations : Yes
Used interface : Installed external ASPI interface
Gap handling : Appended to previous track

Used output format : User Defined Encoder
Selected bitrate : 768 kBit/s
Quality : High
Add ID3 tag : No
Command line compressor : C:\Program Files\Exact Audio Copy-NEW\Flac\flac.exe
Additional command line options : -8 -V -T "ARTIST=%a" -T "TITLE=%t" -T "ALBUM=%g" -T "DATE=%y" -T "TRACKNUMBER=%n" -T "TOTALTRACKS=%x" -T "GENRE=%m" -T "ALBUMARTIST=%v" -T "ALBUM ARTIST=%v" -T "COMMENT=EAC V1.01b1, Secure Mode, Test & Copy, AccurateRip, FL


TOC of the extracted CD

Track | Start | Length | Start sector | End sector
––––––––––––––––––––––––––––-
1 | 0:00.00 | 2:20.67 | 0 | 10566
2 | 2:20.67 | 2:27.33 | 10567 | 21624
3 | 4:48.25 | 2:24.47 | 21625 | 32471
4 | 7:12.72 | 2:05.73 | 32472 | 41919
5 | 9:18.70 | 1:12.55 | 41920 | 47374
6 | 10:31.50 | 6:24.62 | 47375 | 76236
7 | 16:56.37 | 2:40.63 | 76237 | 88299
8 | 19:37.25 | 2:53.22 | 88300 | 101296
9 | 22:30.47 | 2:28.50 | 101297 | 112446
10 | 24:59.22 | 2:39.38 | 112447 | 124409
11 | 27:38.60 | 2:34.17 | 124410 | 135976
12 | 30:13.02 | 2:42.68 | 135977 | 148194
13 | 32:55.70 | 2:31.65 | 148195 | 159584
14 | 35:27.60 | 2:23.27 | 159585 | 170336
15 | 37:51.12 | 2:23.50 | 170337 | 181111
16 | 40:14.62 | 2:32.23 | 181112 | 192534
17 | 42:47.10 | 2:09.32 | 192535 | 202241
18 | 44:56.42 | 2:31.08 | 202242 | 213574
19 | 47:27.50 | 2:45.12 | 213575 | 225961
20 | 50:12.62 | 1:56.70 | 225962 | 234731
21 | 52:09.57 | 2:13.03 | 234732 | 244709
22 | 54:22.60 | 2:07.42 | 244710 | 254276
23 | 56:30.27 | 2:59.13 | 254277 | 267714
24 | 59:29.40 | 2:06.10 | 267715 | 277174
25 | 61:35.50 | 2:44.62 | 277175 | 289536
26 | 64:20.37 | 2:30.60 | 289537 | 300846
27 | 66:51.22 | 2:28.13 | 300847 | 311959
28 | 69:19.35 | 2:11.47 | 311960 | 321831
29 | 71:31.07 | 2:30.40 | 321832 | 333121
30 | 74:01.47 | 2:24.28 | 333122 | 343949


Track 1

Filename J:\New Rips\Speedy West & Jimmy Bryant - Flamin' Guitars (1997) [FLAC]\disc 3of4\01 - On The Alamo.wav

Pre-gap length 0:00:02.00

Peak level 77.7 %
Extraction speed 3.4 X
Track quality 100.0 %
Test CRC AA8BD24E
Copy CRC AA8BD24E
Accurately ripped (confidence 2) [780B507C]
Copy OK

Track 2

Filename J:\New Rips\Speedy West & Jimmy Bryant - Flamin' Guitars (1997) [FLAC]\disc 3of4\02 - Rolling Sky.wav

Pre-gap length 0:00:03.25

Peak level 74.7 %
Extraction speed 2.6 X
Track quality 99.9 %
Test CRC B1D8A493
Copy CRC B1D8A493
Accurately ripped (confidence 2) [674CCAF7]
Copy OK

Track 3

Filename J:\New Rips\Speedy West & Jimmy Bryant - Flamin' Guitars (1997) [FLAC]\disc 3of4\03 - The Night Rider.wav

Pre-gap length 0:00:02.38

Peak level 94.1 %
Extraction speed 3.8 X
Track quality 100.0 %
Test CRC 1A3E0334
Copy CRC 1A3E0334
Accurately ripped (confidence 2) [E0B718AC]
Copy OK

Track 4

Filename J:\New Rips\Speedy West & Jimmy Bryant - Flamin' Guitars (1997) [FLAC]\disc 3of4\04 - Hillcrest.wav

Pre-gap length 0:00:02.67

Peak level 100.0 %
Extraction speed 3.8 X
Track quality 100.0 %
Test CRC 349048A8
Copy CRC 349048A8
Accurately ripped (confidence 2) [01248328]
Copy OK

Track 5

Filename J:\New Rips\Speedy West & Jimmy Bryant - Flamin' Guitars (1997) [FLAC]\disc 3of4\05 - China Boy.wav

Pre-gap length 0:00:02.60

Peak level 57.4 %
Extraction speed 2.0 X
Track quality 99.8 %
Test CRC FEA3081E
Copy CRC FEA3081E
Accurately ripped (confidence 2) [A9F59993]
Copy OK

Track 6

Filename J:\New Rips\Speedy West & Jimmy Bryant - Flamin' Guitars (1997) [FLAC]\disc 3of4\06 - China Boy.wav

Peak level 75.2 %
Extraction speed 4.2 X
Track quality 99.9 %
Test CRC FBB0FFEF
Copy CRC FBB0FFEF
Accurately ripped (confidence 2) [FE59C9D5]
Copy OK

Track 7

Filename J:\New Rips\Speedy West & Jimmy Bryant - Flamin' Guitars (1997) [FLAC]\disc 3of4\07 - Hawaiian War Chant.wav

Pre-gap length 0:00:04.05

Peak level 84.9 %
Extraction speed 4.7 X
Track quality 100.0 %
Test CRC B640361B
Copy CRC B640361B
Accurately ripped (confidence 2) [24A14F56]
Copy OK

Track 8

Filename J:\New Rips\Speedy West & Jimmy Bryant - Flamin' Guitars (1997) [FLAC]\disc 3of4\08 - Song Of The Islands.wav

Pre-gap length 0:00:02.05

Peak level 72.7 %
Extraction speed 5.0 X
Track quality 100.0 %
Test CRC CBF5F784
Copy CRC CBF5F784
Accurately ripped (confidence 2) [3705218D]
Copy OK

Track 9

Filename J:\New Rips\Speedy West & Jimmy Bryant - Flamin' Guitars (1997) [FLAC]\disc 3of4\09 - On The Beach Of Waikiki.wav

Pre-gap length 0:00:02.05

Peak level 94.8 %
Extraction speed 5.0 X
Track quality 100.0 %
Test CRC 798BA6B8
Copy CRC 798BA6B8
Accurately ripped (confidence 2) [6A1D52F7]
Copy OK

Track 10

Filename J:\New Rips\Speedy West & Jimmy Bryant - Flamin' Guitars (1997) [FLAC]\disc 3of4\10 - My Tane.wav

Pre-gap length 0:00:03.27

Peak level 61.2 %
Extraction speed 5.2 X
Track quality 100.0 %
Test CRC 93E575B2
Copy CRC 93E575B2
Accurately ripped (confidence 2) [E169B6D6]
Copy OK

Track 11

Filename J:\New Rips\Speedy West & Jimmy Bryant - Flamin' Guitars (1997) [FLAC]\disc 3of4\11 - Drifting And Dreaming.wav

Pre-gap length 0:00:01.50

Peak level 78.9 %
Extraction speed 5.3 X
Track quality 100.0 %
Test CRC DD4BAB52
Copy CRC DD4BAB52
Accurately ripped (confidence 2) [3075BEAF]
Copy OK

Track 12

Filename J:\New Rips\Speedy West & Jimmy Bryant - Flamin' Guitars (1997) [FLAC]\disc 3of4\12 - My Little Grass Shack In Kealakekua Hawaii.wav

Pre-gap length 0:00:01.37

Peak level 90.9 %
Extraction speed 4.4 X
Track quality 100.0 %
Test CRC 3A09CD3A
Copy CRC 3A09CD3A
Accurately ripped (confidence 2) [4D2B13F9]
Copy OK

Track 13

Filename J:\New Rips\Speedy West & Jimmy Bryant - Flamin' Guitars (1997) [FLAC]\disc 3of4\13 - Sweet Hawaiian Chimes.wav

Pre-gap length 0:00:02.60

Peak level 70.6 %
Extraction speed 5.6 X
Track quality 100.0 %
Test CRC 97E613FB
Copy CRC 97E613FB
Accurately ripped (confidence 2) [A3A72F4D]
Copy OK

Track 14

Filename J:\New Rips\Speedy West & Jimmy Bryant - Flamin' Guitars (1997) [FLAC]\disc 3of4\14 - Blue Hawaii.wav

Pre-gap length 0:00:01.30

Peak level 65.4 %
Extraction speed 5.6 X
Track quality 100.0 %
Test CRC 8729C7C9
Copy CRC 8729C7C9
Accurately ripped (confidence 2) [F7AE12DA]
Copy OK

Track 15

Filename J:\New Rips\Speedy West & Jimmy Bryant - Flamin' Guitars (1997) [FLAC]\disc 3of4\15 - Yaaka Hula Hickey Dula.wav

Pre-gap length 0:00:01.63

Peak level 81.2 %
Extraction speed 5.8 X
Track quality 100.0 %
Test CRC A45F3692
Copy CRC A45F3692
Accurately ripped (confidence 2) [7F2E3665]
Copy OK

Track 16

Filename J:\New Rips\Speedy West & Jimmy Bryant - Flamin' Guitars (1997) [FLAC]\disc 3of4\16 - The Moon Of Manakoora.wav

Pre-gap length 0:00:03.25

Peak level 75.2 %
Extraction speed 6.0 X
Track quality 100.0 %
Test CRC 16F10ECD
Copy CRC 16F10ECD
Accurately ripped (confidence 2) [1C869DE8]
Copy OK

Track 17

Filename J:\New Rips\Speedy West & Jimmy Bryant - Flamin' Guitars (1997) [FLAC]\disc 3of4\17 - Ka-Lu-A.wav

Pre-gap length 0:00:01.63

Peak level 82.4 %
Extraction speed 5.8 X
Track quality 100.0 %
Test CRC 7BD1502B
Copy CRC 7BD1502B
Accurately ripped (confidence 2) [22C44117]
Copy OK

Track 18

Filename J:\New Rips\Speedy West & Jimmy Bryant - Flamin' Guitars (1997) [FLAC]\disc 3of4\18 - Luna.wav

Pre-gap length 0:00:03.27

Peak level 86.1 %
Extraction speed 4.2 X
Track quality 99.9 %
Test CRC 12263A62
Copy CRC 12263A62
Accurately ripped (confidence 2) [D96BB09C]
Copy OK

Track 19

Filename J:\New Rips\Speedy West & Jimmy Bryant - Flamin' Guitars (1997) [FLAC]\disc 3of4\19 - Reflections From The Moon.wav

Pre-gap length 0:00:05.35

Peak level 67.7 %
Extraction speed 6.5 X
Track quality 100.0 %
Test CRC EC3295E2
Copy CRC EC3295E2
Accurately ripped (confidence 2) [1A92851F]
Copy OK

Track 20

Filename J:\New Rips\Speedy West & Jimmy Bryant - Flamin' Guitars (1997) [FLAC]\disc 3of4\20 - Space Man In Orbit.wav

Pre-gap length 0:00:01.15

Peak level 80.5 %
Extraction speed 6.0 X
Track quality 100.0 %
Test CRC 74D74E4D
Copy CRC 74D74E4D
Accurately ripped (confidence 2) [CD002A4D]
Copy OK

Track 21

Filename J:\New Rips\Speedy West & Jimmy Bryant - Flamin' Guitars (1997) [FLAC]\disc 3of4\21 - Lazy Summer Evening.wav

Pre-gap length 0:00:02.20

Peak level 59.8 %
Extraction speed 6.2 X
Track quality 100.0 %
Test CRC 18926584
Copy CRC 18926584
Accurately ripped (confidence 2) [72E030B7]
Copy OK

Track 22

Filename J:\New Rips\Speedy West & Jimmy Bryant - Flamin' Guitars (1997) [FLAC]\disc 3of4\22 - Double Or Nothing.wav

Pre-gap length 0:00:01.13

Peak level 82.4 %
Extraction speed 6.3 X
Track quality 100.0 %
Test CRC 7E01F294
Copy CRC 7E01F294
Accurately ripped (confidence 2) [0E73B51D]
Copy OK

Track 23

Filename J:\New Rips\Speedy West & Jimmy Bryant - Flamin' Guitars (1997) [FLAC]\disc 3of4\23 - Afternoon Of A Swan.wav

Pre-gap length 0:00:01.70

Peak level 56.2 %
Extraction speed 6.8 X
Track quality 100.0 %
Test CRC E24B38FF
Copy CRC E24B38FF
Accurately ripped (confidence 2) [B816E8CA]
Copy OK

Track 24

Filename J:\New Rips\Speedy West & Jimmy Bryant - Flamin' Guitars (1997) [FLAC]\disc 3of4\24 - Wild And Woolly West.wav

Pre-gap length 0:00:02.20

Peak level 83.8 %
Extraction speed 6.5 X
Track quality 100.0 %
Test CRC CC8014C0
Copy CRC CC8014C0
Accurately ripped (confidence 2) [75396F6E]
Copy OK

Track 25

Filename J:\New Rips\Speedy West & Jimmy Bryant - Flamin' Guitars (1997) [FLAC]\disc 3of4\25 - Rippling Waters.wav

Pre-gap length 0:00:02.65

Peak level 55.9 %
Extraction speed 7.0 X
Track quality 100.0 %
Test CRC 884A0126
Copy CRC 884A0126
Accurately ripped (confidence 2) [EED12A9E]
Copy OK

Track 26

Filename J:\New Rips\Speedy West & Jimmy Bryant - Flamin' Guitars (1997) [FLAC]\disc 3of4\26 - Totem Pole Dance.wav

Pre-gap length 0:00:01.47

Peak level 67.5 %
Extraction speed 7.0 X
Track quality 100.0 %
Test CRC 75E94520
Copy CRC 75E94520
Accurately ripped (confidence 2) [08E4FE8B]
Copy OK

Track 27

Filename J:\New Rips\Speedy West & Jimmy Bryant - Flamin' Guitars (1997) [FLAC]\disc 3of4\27 - Slow And Easy.wav

Pre-gap length 0:00:03.57

Peak level 68.0 %
Extraction speed 7.0 X
Track quality 100.0 %
Test CRC 2F4EC52D
Copy CRC 2F4EC52D
Accurately ripped (confidence 2) [89E69873]
Copy OK

Track 28

Filename J:\New Rips\Speedy West & Jimmy Bryant - Flamin' Guitars (1997) [FLAC]\disc 3of4\28 - Speedy's Special.wav

Pre-gap length 0:00:01.00

Peak level 79.0 %
Extraction speed 7.0 X
Track quality 100.0 %
Test CRC 4F5162B6
Copy CRC 4F5162B6
Accurately ripped (confidence 2) [F7238181]
Copy OK

Track 29

Filename J:\New Rips\Speedy West & Jimmy Bryant - Flamin' Guitars (1997) [FLAC]\disc 3of4\29 - Sunset At Waikiki.wav

Pre-gap length 0:00:02.25

Peak level 62.3 %
Extraction speed 7.3 X
Track quality 100.0 %
Test CRC 238276BC
Copy CRC 238276BC
Accurately ripped (confidence 2) [5EC9CD3A]
Copy OK

Track 30

Filename J:\New Rips\Speedy West & Jimmy Bryant - Flamin' Guitars (1997) [FLAC]\disc 3of4\30 - Tulsa Twist.wav

Pre-gap length 0:00:01.47

Peak level 81.1 %
Extraction speed 7.3 X
Track quality 100.0 %
Test CRC A837DB98
Copy CRC A837DB98
Accurately ripped (confidence 2) [452A9E57]
Copy OK


All tracks accurately ripped

No errors occurred

End of status report

==== Log checksum 876EEB2A5FE62DF3AC68CEDAD06BF6C6B77499752AABC3F1F37A5B5DCD93EEE1 ====

Exact Audio Copy V1.0 beta 1 from 15. November 2010

EAC extraction logfile from 19. April 2011, 21:50

Speedy West & Jimmy Bryant / Flamin' Guitars

Used drive : TSSTcorpCDDVDW SH-S203N Adapter: 0 ID: 2

Read mode : Secure
Utilize accurate stream : Yes
Defeat audio cache : Yes
Make use of C2 pointers : No

Read offset correction : 6
Overread into Lead-In and Lead-Out : No
Fill up missing offset samples with silence : Yes
Delete leading and trailing silent blocks : No
Null samples used in CRC calculations : Yes
Used interface : Installed external ASPI interface
Gap handling : Appended to previous track

Used output format : User Defined Encoder
Selected bitrate : 768 kBit/s
Quality : High
Add ID3 tag : No
Command line compressor : C:\Program Files\Exact Audio Copy-NEW\Flac\flac.exe
Additional command line options : -8 -V -T "ARTIST=%a" -T "TITLE=%t" -T "ALBUM=%g" -T "DATE=%y" -T "TRACKNUMBER=%n" -T "TOTALTRACKS=%x" -T "GENRE=%m" -T "ALBUMARTIST=%v" -T "ALBUM ARTIST=%v" -T "COMMENT=EAC V1.01b1, Secure Mode, Test & Copy, AccurateRip, FL


TOC of the extracted CD

Track | Start | Length | Start sector | End sector
––––––––––––––––––––––––––––-
1 | 0:00.00 | 2:35.62 | 0 | 11686
2 | 2:35.62 | 2:42.05 | 11687 | 23841
3 | 5:17.67 | 2:36.63 | 23842 | 35604
4 | 7:54.55 | 2:46.20 | 35605 | 48074
5 | 10:41.00 | 2:15.47 | 48075 | 58246
6 | 12:56.47 | 2:47.18 | 58247 | 70789
7 | 15:43.65 | 2:43.00 | 70790 | 83014
8 | 18:26.65 | 2:31.27 | 83015 | 94366
9 | 20:58.17 | 2:20.70 | 94367 | 104936
10 | 23:19.12 | 2:29.43 | 104937 | 116154
11 | 25:48.55 | 2:42.30 | 116155 | 128334
12 | 28:31.10 | 2:28.17 | 128335 | 139451
13 | 30:59.27 | 2:11.58 | 139452 | 149334
14 | 33:11.10 | 2:34.37 | 149335 | 160921
15 | 35:45.47 | 2:25.45 | 160922 | 171841
16 | 38:11.17 | 2:23.15 | 171842 | 182581
17 | 40:34.32 | 2:25.03 | 182582 | 193459
18 | 42:59.35 | 2:04.27 | 193460 | 202786
19 | 45:03.62 | 2:14.65 | 202787 | 212901
20 | 47:18.52 | 2:25.20 | 212902 | 223796
21 | 49:43.72 | 2:40.20 | 223797 | 235816
22 | 52:24.17 | 1:55.50 | 235817 | 244491


Track 1

Filename J:\New Rips\Speedy West & Jimmy Bryant - Flamin' Guitars (1997) [FLAC]\disc 4of4\01 - Candy Kisses.wav

Pre-gap length 0:00:02.00

Peak level 74.6 %
Extraction speed 1.6 X
Track quality 100.0 %
Test CRC 6ACC4E07
Copy CRC 6ACC4E07
Accurately ripped (confidence 2) [CA461EA1]
Copy OK

Track 2

Filename J:\New Rips\Speedy West & Jimmy Bryant - Flamin' Guitars (1997) [FLAC]\disc 4of4\02 - Ain't Nobody's Business But My Own.wav

Pre-gap length 0:00:03.10

Peak level 83.8 %
Extraction speed 1.7 X
Track quality 100.0 %
Test CRC C3BCD1D5
Copy CRC C3BCD1D5
Accurately ripped (confidence 2) [0B9E082B]
Copy OK

Track 3

Filename J:\New Rips\Speedy West & Jimmy Bryant - Flamin' Guitars (1997) [FLAC]\disc 4of4\03 - I'll Never Be Free.wav

Pre-gap length 0:00:02.45

Peak level 81.6 %
Extraction speed 1.8 X
Track quality 100.0 %
Test CRC A4C59FA6
Copy CRC A4C59FA6
Accurately ripped (confidence 2) [79B3DAEA]
Copy OK

Track 4

Filename J:\New Rips\Speedy West & Jimmy Bryant - Flamin' Guitars (1997) [FLAC]\disc 4of4\04 - Wild Card.wav

Pre-gap length 0:00:02.05

Peak level 83.8 %
Extraction speed 2.0 X
Track quality 100.0 %
Test CRC 926FA22D
Copy CRC 926FA22D
Accurately ripped (confidence 2) [1AC5F013]
Copy OK

Track 5

Filename J:\New Rips\Speedy West & Jimmy Bryant - Flamin' Guitars (1997) [FLAC]\disc 4of4\05 - Oakie Boogie.wav

Peak level 80.3 %
Extraction speed 2.0 X
Track quality 100.0 %
Test CRC 49793B32
Copy CRC 49793B32
Accurately ripped (confidence 2) [7275A906]
Copy OK

Track 6

Filename J:\New Rips\Speedy West & Jimmy Bryant - Flamin' Guitars (1997) [FLAC]\disc 4of4\06 - Down South.wav

Pre-gap length 0:00:02.17

Peak level 97.0 %
Extraction speed 2.2 X
Track quality 100.0 %
Test CRC 656CE557
Copy CRC 656CE557
Accurately ripped (confidence 2) [4373E03B]
Copy OK

Track 7

Filename J:\New Rips\Speedy West & Jimmy Bryant - Flamin' Guitars (1997) [FLAC]\disc 4of4\07 - I've Turned A Gadabout.wav

Pre-gap length 0:00:01.68

Peak level 83.0 %
Extraction speed 2.2 X
Track quality 100.0 %
Test CRC 07448089
Copy CRC 07448089
Accurately ripped (confidence 2) [4969971F]
Copy OK

Track 8

Filename J:\New Rips\Speedy West & Jimmy Bryant - Flamin' Guitars (1997) [FLAC]\disc 4of4\08 - Stop Your Gamblin'.wav

Pre-gap length 0:00:03.25

Peak level 81.6 %
Extraction speed 2.3 X
Track quality 100.0 %
Test CRC 48F5C91C
Copy CRC 48F5C91C
Accurately ripped (confidence 2) [1D5BAB9E]
Copy OK

Track 9

Filename J:\New Rips\Speedy West & Jimmy Bryant - Flamin' Guitars (1997) [FLAC]\disc 4of4\09 - There's A Blue Sky Way Out Yonder.wav

Pre-gap length 0:00:01.72

Peak level 74.4 %
Extraction speed 2.3 X
Track quality 100.0 %
Test CRC D6C34379
Copy CRC D6C34379
Accurately ripped (confidence 2) [916794FB]
Copy OK

Track 10

Filename J:\New Rips\Speedy West & Jimmy Bryant - Flamin' Guitars (1997) [FLAC]\disc 4of4\10 - Oakie Boogie.wav

Pre-gap length 0:00:05.25

Peak level 80.0 %
Extraction speed 2.4 X
Track quality 100.0 %
Test CRC F601898D
Copy CRC F601898D
Accurately ripped (confidence 2) [9C4718E8]
Copy OK

Track 11

Filename J:\New Rips\Speedy West & Jimmy Bryant - Flamin' Guitars (1997) [FLAC]\disc 4of4\11 - Twice the Lovin'.wav

Pre-gap length 0:00:02.58

Peak level 79.1 %
Extraction speed 2.5 X
Track quality 100.0 %
Test CRC 267BE810
Copy CRC 267BE810
Accurately ripped (confidence 2) [D488ED26]
Copy OK

Track 12

Filename J:\New Rips\Speedy West & Jimmy Bryant - Flamin' Guitars (1997) [FLAC]\disc 4of4\12 - Crying Steel Guitar Waltz.wav

Pre-gap length 0:00:04.20

Peak level 71.9 %
Extraction speed 2.6 X
Track quality 100.0 %
Test CRC 82B2CA79
Copy CRC 82B2CA79
Accurately ripped (confidence 2) [BAE8C74A]
Copy OK

Track 13

Filename J:\New Rips\Speedy West & Jimmy Bryant - Flamin' Guitars (1997) [FLAC]\disc 4of4\13 - Nobody Else Can Love You Like I Do.wav

Pre-gap length 0:00:01.42

Peak level 92.2 %
Extraction speed 2.6 X
Track quality 100.0 %
Test CRC D9F3AAB5
Copy CRC D9F3AAB5
Accurately ripped (confidence 2) [6C48E085]
Copy OK

Track 14

Filename J:\New Rips\Speedy West & Jimmy Bryant - Flamin' Guitars (1997) [FLAC]\disc 4of4\14 - Keep It a Secret.wav

Pre-gap length 0:00:03.20

Peak level 70.2 %
Extraction speed 2.7 X
Track quality 100.0 %
Test CRC FA68BAC5
Copy CRC FA68BAC5
Accurately ripped (confidence 2) [78A7434D]
Copy OK

Track 15

Filename J:\New Rips\Speedy West & Jimmy Bryant - Flamin' Guitars (1997) [FLAC]\disc 4of4\15 - Y'All Come.wav

Pre-gap length 0:00:02.37

Peak level 70.4 %
Extraction speed 2.8 X
Track quality 100.0 %
Test CRC 75575128
Copy CRC 75575128
Accurately ripped (confidence 2) [5714AFB6]
Copy OK

Track 16

Filename J:\New Rips\Speedy West & Jimmy Bryant - Flamin' Guitars (1997) [FLAC]\disc 4of4\16 - The Boys In The Backroom.wav

Pre-gap length 0:00:02.50

Peak level 82.2 %
Extraction speed 2.8 X
Track quality 100.0 %
Test CRC 87767556
Copy CRC 87767556
Accurately ripped (confidence 2) [8AEB1977]
Copy OK

Track 17

Filename J:\New Rips\Speedy West & Jimmy Bryant - Flamin' Guitars (1997) [FLAC]\disc 4of4\17 - Under The Double Eagle.wav

Pre-gap length 0:00:02.40

Peak level 78.0 %
Extraction speed 2.9 X
Track quality 100.0 %
Test CRC E13BEF49
Copy CRC E13BEF49
Accurately ripped (confidence 2) [ED19B415]
Copy OK

Track 18

Filename J:\New Rips\Speedy West & Jimmy Bryant - Flamin' Guitars (1997) [FLAC]\disc 4of4\18 - Hot Lips.wav

Pre-gap length 0:00:03.13

Peak level 83.4 %
Extraction speed 2.9 X
Track quality 100.0 %
Test CRC 76F6FEEF
Copy CRC 76F6FEEF
Accurately ripped (confidence 2) [834B44EF]
Copy OK

Track 19

Filename J:\New Rips\Speedy West & Jimmy Bryant - Flamin' Guitars (1997) [FLAC]\disc 4of4\19 - Hotter Than A Pistol.wav

Pre-gap length 0:00:03.05

Peak level 76.2 %
Extraction speed 3.0 X
Track quality 100.0 %
Test CRC 2BF6D712
Copy CRC 2BF6D712
Accurately ripped (confidence 2) [1573CDA3]
Copy OK

Track 20

Filename J:\New Rips\Speedy West & Jimmy Bryant - Flamin' Guitars (1997) [FLAC]\disc 4of4\20 - Keystone Kapers.wav

Pre-gap length 0:00:02.52

Peak level 85.4 %
Extraction speed 3.1 X
Track quality 100.0 %
Test CRC 456C2967
Copy CRC 456C2967
Accurately ripped (confidence 2) [A2E7EA8D]
Copy OK

Track 21

Filename J:\New Rips\Speedy West & Jimmy Bryant - Flamin' Guitars (1997) [FLAC]\disc 4of4\21 - Whistle Stop.wav

Pre-gap length 0:00:02.52

Peak level 94.4 %
Extraction speed 3.2 X
Track quality 100.0 %
Test CRC 60533579
Copy CRC 60533579
Accurately ripped (confidence 2) [7E50841D]
Copy OK

Track 22

Filename J:\New Rips\Speedy West & Jimmy Bryant - Flamin' Guitars (1997) [FLAC]\disc 4of4\22 - This Must Be The Place.wav

Pre-gap length 0:00:02.55

Peak level 82.6 %
Extraction speed 3.0 X
Track quality 100.0 %
Test CRC 00A23652
Copy CRC 00A23652
Accurately ripped (confidence 2) [246210F6]
Copy OK


All tracks accurately ripped

No errors occurred

End of status report

==== Log checksum 1A64E407A5EFABA4CC93C491765B3E76D6ACB35E0EFFDBE5F81277CD03463839 ====


Speedy West & Jimmy Bryant - Flamin' Guitars (1997) {4CD Set Bear Family BCD 15956 rec 1949-62}


All thanks goes to the original releaser!