Subcategories

Steve ‘n’ Seagulls - Brothers in Farms (2016)

Posted By: delpotro
Steve ‘n’ Seagulls - Brothers in Farms (2016)

Steve ‘n’ Seagulls - Brothers in Farms (2016)
EAC Rip | FLAC (tracks+log+.cue) - 423 Mb | MP3 CBR 320 kbps - 182 Mb | Covers inlcuded | 00:56:56
Bluegrass, Rock, Cover Band | Label: Spinefarm Records, Universal Music

Steve N Seagulls are, basically, a YouTube lark gone horribly, horribly wrong. In 2014 a bunch of Finnish musicians played a version of AC/DC's Thunderstruck in their barnyard. The video got millions of views in weeks and landed the band on the websites and magazine pages of elite metal media.Since the last album, the band have played 175 shows & toured in 20 countries.
Tracklist:
1. Aces High (04:17)
2. Sad But True (04:07)
3. Wishmaster (04:18)
4. It's a Long Way to the Top (If You Wanna Rock'n'Roll) (03:57)
5. You Could Be Mine (04:33)
6. November Rain (05:03)
7. In Bloom (02:51)
8. Symphony of Destruction (03:41)
9. Fill Up the Tank (03:04)
10. Burn (04:17)
11. The Pretender (04:09)
12. Self Esteem (03:44)
13. Out in the Fields (03:24)
14. Born to Be Wild (05:25)

All tracks, except 9, are cover versions. "Fill Up The Tank" is an original song.
Original artists:
1. Iron Maiden
2. Metallica
3. Nightwish
4. AC/DC
5, 6. Guns N' Roses
7. Nirvana
8. Megadeth
10. Deep Purple
11. Foo Fighters
12. The Offspring
13. Gary Moore and Phil Lynott
14. Steppenwolf


Exact Audio Copy V1.3 from 2. September 2016

EAC extraction logfile from 18. February 2020, 23:28

Steve 'N' Seagulls / Brothers In Farms

Used drive : TSSTcorpCDDVDW TS-H653N Adapter: 1 ID: 0

Read mode : Secure
Utilize accurate stream : Yes
Defeat audio cache : Yes
Make use of C2 pointers : No

Read offset correction : 6
Overread into Lead-In and Lead-Out : No
Fill up missing offset samples with silence : Yes
Delete leading and trailing silent blocks : No
Null samples used in CRC calculations : Yes
Used interface : Native Win32 interface for Win NT & 2000
Gap handling : Appended to previous track

Used output format : User Defined Encoder
Selected bitrate : 1024 kBit/s
Quality : High
Add ID3 tag : No
Command line compressor : C:\Program Files (x86)\Exact Audio Copy\Flac\flac.exe
Additional command line options : -8 -V -T "ARTIST=%artist%" -T "TITLE=%title%" -T "ALBUM=%albumtitle%" -T "DATE=%year%" -T "TRACKNUMBER=%tracknr%" -T "TOTALTRACKS=%numtracks%" -T "GENRE=%genre%" -T "ALBUMARTIST=%albumartist%" -T "ALBUM ARTIST=%albumartist%" -T "COMMENT=EAC Secure Mode, Test & Copy, AccurateRip, FLAC -8" %source%


TOC of the extracted CD

Track | Start | Length | Start sector | End sector
––––––––––––––––––––––––––––-
1 | 0:00.00 | 4:17.54 | 0 | 19328
2 | 4:17.54 | 4:07.33 | 19329 | 37886
3 | 8:25.12 | 4:18.24 | 37887 | 57260
4 | 12:43.36 | 3:57.05 | 57261 | 75040
5 | 16:40.41 | 4:33.65 | 75041 | 95580
6 | 21:14.31 | 5:03.41 | 95581 | 118346
7 | 26:17.72 | 2:51.17 | 118347 | 131188
8 | 29:09.14 | 3:41.65 | 131189 | 147828
9 | 32:51.04 | 3:04.02 | 147829 | 161630
10 | 35:55.06 | 4:17.21 | 161631 | 180926
11 | 40:12.27 | 4:09.57 | 180927 | 199658
12 | 44:22.09 | 3:44.41 | 199659 | 216499
13 | 48:06.50 | 3:24.39 | 216500 | 231838
14 | 51:31.14 | 5:25.44 | 231839 | 256257


Track 1

Filename C:\That is the question\Steve 'N' Seagulls - Brothers In Farms (2016) [FLAC] {2547956057}\01 - Aces High.wav

Pre-gap length 0:00:02.00

Peak level 99.6 %
Extraction speed 3.9 X
Track quality 100.0 %
Test CRC 1E9BED6A
Copy CRC 1E9BED6A
Accurately ripped (confidence 32) [B44A68B2] (AR v2)
Copy OK

Track 2

Filename C:\That is the question\Steve 'N' Seagulls - Brothers In Farms (2016) [FLAC] {2547956057}\02 - Sad But True.wav

Peak level 98.9 %
Extraction speed 4.2 X
Track quality 100.0 %
Test CRC 534C64FB
Copy CRC 534C64FB
Accurately ripped (confidence 32) [EDD968AA] (AR v2)
Copy OK

Track 3

Filename C:\That is the question\Steve 'N' Seagulls - Brothers In Farms (2016) [FLAC] {2547956057}\03 - Wishmaster.wav

Peak level 99.4 %
Extraction speed 3.8 X
Track quality 99.9 %
Test CRC 0CD2C3DD
Copy CRC 0CD2C3DD
Accurately ripped (confidence 32) [416963B7] (AR v2)
Copy OK

Track 4

Filename C:\That is the question\Steve 'N' Seagulls - Brothers In Farms (2016) [FLAC] {2547956057}\04 - It´s A Long Way To The Top.wav

Peak level 100.0 %
Extraction speed 3.8 X
Track quality 99.9 %
Test CRC 871FDCF5
Copy CRC 871FDCF5
Accurately ripped (confidence 32) [EAD517CE] (AR v2)
Copy OK

Track 5

Filename C:\That is the question\Steve 'N' Seagulls - Brothers In Farms (2016) [FLAC] {2547956057}\05 - You Could Be Mine.wav

Peak level 99.0 %
Extraction speed 4.3 X
Track quality 99.9 %
Test CRC 2CA2C1A3
Copy CRC 2CA2C1A3
Accurately ripped (confidence 31) [FC3007C3] (AR v2)
Copy OK

Track 6

Filename C:\That is the question\Steve 'N' Seagulls - Brothers In Farms (2016) [FLAC] {2547956057}\06 - November Rain.wav

Peak level 99.0 %
Extraction speed 5.5 X
Track quality 100.0 %
Test CRC 1548E9C0
Copy CRC 1548E9C0
Accurately ripped (confidence 31) [03036A46] (AR v2)
Copy OK

Track 7

Filename C:\That is the question\Steve 'N' Seagulls - Brothers In Farms (2016) [FLAC] {2547956057}\07 - In Bloom.wav

Peak level 99.0 %
Extraction speed 5.2 X
Track quality 100.0 %
Test CRC 666940C1
Copy CRC 666940C1
Accurately ripped (confidence 31) [E858C5D9] (AR v2)
Copy OK

Track 8

Filename C:\That is the question\Steve 'N' Seagulls - Brothers In Farms (2016) [FLAC] {2547956057}\08 - Symphony Of Destruction.wav

Peak level 100.0 %
Extraction speed 5.8 X
Track quality 100.0 %
Test CRC 5DCA6285
Copy CRC 5DCA6285
Accurately ripped (confidence 31) [BD682C8A] (AR v2)
Copy OK

Track 9

Filename C:\That is the question\Steve 'N' Seagulls - Brothers In Farms (2016) [FLAC] {2547956057}\09 - Fill Up The Tank.wav

Peak level 99.3 %
Extraction speed 5.7 X
Track quality 100.0 %
Test CRC D06E6450
Copy CRC D06E6450
Accurately ripped (confidence 31) [96992FFE] (AR v2)
Copy OK

Track 10

Filename C:\That is the question\Steve 'N' Seagulls - Brothers In Farms (2016) [FLAC] {2547956057}\10 - Burn.wav

Peak level 99.8 %
Extraction speed 5.0 X
Track quality 99.9 %
Test CRC C4EAF505
Copy CRC C4EAF505
Accurately ripped (confidence 31) [16949984] (AR v2)
Copy OK

Track 11

Filename C:\That is the question\Steve 'N' Seagulls - Brothers In Farms (2016) [FLAC] {2547956057}\11 - The Pretender.wav

Peak level 99.2 %
Extraction speed 6.5 X
Track quality 100.0 %
Test CRC AE312FB5
Copy CRC AE312FB5
Accurately ripped (confidence 31) [983FF913] (AR v2)
Copy OK

Track 12

Filename C:\That is the question\Steve 'N' Seagulls - Brothers In Farms (2016) [FLAC] {2547956057}\12 - Self Esteem.wav

Peak level 99.9 %
Extraction speed 6.5 X
Track quality 100.0 %
Test CRC F7DF6B0F
Copy CRC F7DF6B0F
Accurately ripped (confidence 32) [FA65D9B4] (AR v2)
Copy OK

Track 13

Filename C:\That is the question\Steve 'N' Seagulls - Brothers In Farms (2016) [FLAC] {2547956057}\13 - Out In The Fields.wav

Peak level 99.4 %
Extraction speed 5.2 X
Track quality 99.9 %
Test CRC DFB0B422
Copy CRC DFB0B422
Accurately ripped (confidence 30) [9FA1B84C] (AR v2)
Copy OK

Track 14

Filename C:\That is the question\Steve 'N' Seagulls - Brothers In Farms (2016) [FLAC] {2547956057}\14 - Born To Be Wild.wav

Peak level 100.0 %
Extraction speed 7.2 X
Track quality 100.0 %
Test CRC 7497BB5F
Copy CRC 7497BB5F
Accurately ripped (confidence 31) [98F6E80F] (AR v2)
Copy OK


All tracks accurately ripped

No errors occurred

End of status report

–– CUETools DB Plugin V2.1.6

[CTDB TOCID: wEAFhISFqv6CB4AdoybVDZPHkSU-] found
Submit result: wEAFhISFqv6CB4AdoybVDZPHkSU- has been confirmed
Track | CTDB Status
1 | (132/132) Accurately ripped
2 | (131/132) Accurately ripped
3 | (131/132) Accurately ripped
4 | (131/132) Accurately ripped
5 | (129/132) Accurately ripped
6 | (130/132) Accurately ripped
7 | (129/132) Accurately ripped
8 | (131/132) Accurately ripped
9 | (130/132) Accurately ripped
10 | (130/132) Accurately ripped
11 | (130/132) Accurately ripped
12 | (128/132) Accurately ripped
13 | (129/132) Accurately ripped
14 | (129/132) Accurately ripped


==== Log checksum 81FAFD7C68B0F39869213D535B0A330A44306C389FB3744629F6A5E40D0C2509 ====

Thanks to the Original ripper Soliloquy !