Subcategories
Tags
Language
Tags

Teena Marie - John Morales Presents Love Songs & Funky Beats (2021)

Posted By: delpotro
Teena Marie - John Morales Presents Love Songs & Funky Beats (2021)

Teena Marie - John Morales Presents Love Songs & Funky Beats (2021)
EAC Rip | FLAC (tracks+log+.cue) - 906 Mb | MP3 CBR 320 kbps - 321 Mb | Covers included | 02:14:31
Disco, Funk, R'n'B, Female Vocal | Label: BBE Music

Producer extraordinaire John Morales returns to BBE Music, celebrating the life and work of R&B / soul legend Teena Marie with a double album full of brand new remixes, lovingly crafted from the original studio tapes, entitled ‘Love Songs & Funky Beats’.

“Teena is somewhat underrated, and people don’t really know much about her.” Says Morales. “I set out to immerse people in her music and represent what she really did. That meant for me a dive into more than her R&B hits, to dig into her ballads and dance cuts. People know she was talented. I don’t really think they really knew the depth of her abilities, her complete confidence to take it upon herself to do everything – singing, producing, arranging, songwriting. Teena Marie was the total package.”

John Morales had the pleasure of mixing many of Teena Marie’s original records over the years, so it felt natural to dig into the archives and select his favourite cuts to rework, extend and subtly update in his own distinctive style. While by no means a definitive collection of Lady Tee’s expansive musical catalogue, ‘Love Songs & Funky Beats’ represents a fitting tribute to a multifaceted and important voice in popular music, by one of the most storied mix engineers and remixers of our age.

Jumping into the music industry deep end in 1979 with a three-year mentorship from Berry Gordy & Rick James at Motown, Teena Marie then spent seven fertile years with Epic, which yielded her greatest commercial successes (including the classic album ‘Starchild’). After founding an independent label ‘Sarai’, Marie took a ten-year hiatus which ended in 2004 in a deal with hip hop label Cash Money Records; a less unlikely partnership than some might assume, given that Teena was one of the first ‘mainstream’ artists to perform a rap verse, on 1981’s ‘Square Biz’.

Teena Marie Brockert forged a unique path through the industry, an artist in-charge of her own destiny, influencing (and heavily sampled by) both the hip hop and R&B sounds of the 90’s and early 2000’s. Her 1982 lawsuit against Motown records resulted in “The Brockert Initiative”, which has benefitted literally thousands of other artists by making it illegal for record companies to ‘shelve’ artists by keeping them under contract without releasing their material. She continued to tour regularly and deliver commercially successful, expertly sculpted music, right up until her untimely passing in 2010.
Tracklist:
1. I Need Your Lovin' (John Morales M+M Mix) (09:12)
2. It Must Be Magic (John Morales M+M Mix) (07:45)
3. Aladdin's Lamp (John Morales M+M Mix) (06:43)
4. First Class Love (John Morales M+M Mix) (06:34)
5. Now That I Have You (John Morales M+M Mix) (07:20)
6. I'm a Sucker for Your Love (Live in Long Beach, Ca 1981: Alternate Mix / John Morales M+M Mix) (08:57)
7. Behind the Groove (John Morales M+M Mix) (08:34)
8. Love Just Wouldn't Be Right (John Morales M+M Mix) (04:46)
9. Portuguese Love (John Morales M+M Mix) (10:35)
10. Chains (John Morales M+M Mix) (08:36)
11. 365 (John Morales M+M Mix) (06:15)
12. Wasn't I Good to You (John Morales M+M Mix) (04:36)
13. Square Biz (John Morales M+M Mix) (08:06)
14. More Love (John Morales M+M Mix) (06:09)
15. You Got Away (John Morales M+M Mix) (05:53)
16. You're All the Boogie I Need (John Morales M+ M Mix) (06:52)
17. Lonely Desire (John Morales M+ M Mix) (06:09)
18. Fire and Desire (John Morales M+M Mix) (11:22)

Exact Audio Copy V1.3 from 2. September 2016

EAC extraction logfile from 10. May 2021, 12:05

Teena Marie / Love Song & Funky Beats

Used drive : HL-DT-STBD-RE BH16NS55 Adapter: 1 ID: 0

Read mode : Secure
Utilize accurate stream : Yes
Defeat audio cache : Yes
Make use of C2 pointers : No

Read offset correction : 6
Overread into Lead-In and Lead-Out : No
Fill up missing offset samples with silence : Yes
Delete leading and trailing silent blocks : No
Null samples used in CRC calculations : Yes
Used interface : Native Win32 interface for Win NT & 2000
Gap handling : Appended to previous track

Used output format : User Defined Encoder
Selected bitrate : 1024 kBit/s
Quality : High
Add ID3 tag : No
Command line compressor : C:\Program Files (x86)\Exact Audio Copy\Flac\flac.exe
Additional command line options : -8 -V -T "ARTIST=%artist%" -T "TITLE=%title%" -T "ALBUM=%albumtitle%" -T "DATE=%year%" -T "TRACKNUMBER=%tracknr%" -T "GENRE=%genre%" -T "PERFORMER=%albuminterpret%" -T "COMPOSER=%composer%" %haslyrics%–tag-from-file=LYRICS="%lyricsfile%"%haslyrics% -T "ALBUMARTIST=%albumartist%" -T "DISCNUMBER=%cdnumber%" -T "TOTALDISCS=%totalcds%" -T "TOTALTRACKS=%numtracks%" -T "COMMENT=%comment%" %source% -o %dest%


TOC of the extracted CD

Track | Start | Length | Start sector | End sector
––––––––––––––––––––––––––––-
1 | 0:00.00 | 9:15.45 | 0 | 41669
2 | 9:15.45 | 7:44.72 | 41670 | 76541
3 | 17:00.42 | 6:42.40 | 76542 | 106731
4 | 23:43.07 | 6:33.57 | 106732 | 136263
5 | 30:16.64 | 7:20.26 | 136264 | 169289
6 | 37:37.15 | 8:56.41 | 169290 | 209530
7 | 46:33.56 | 8:34.00 | 209531 | 248080
8 | 55:07.56 | 4:46.33 | 248081 | 269563
9 | 59:54.14 | 10:37.03 | 269564 | 317341


Track 1

Filename D:\#cdr\#wav+flac\#New\Teena Marie - Love Song & Funky Beats\cd 1\01. Teena Marie - I Need Your Lovin.wav

Pre-gap length 0:00:02.00

Peak level 99.8 %
Extraction speed 5.2 X
Track quality 100.0 %
Test CRC 67CB0BC4
Copy CRC 67CB0BC4
Track not present in AccurateRip database
Copy OK

Track 2

Filename D:\#cdr\#wav+flac\#New\Teena Marie - Love Song & Funky Beats\cd 1\02. Teena Marie - It Must Be Magic.wav

Pre-gap length 0:00:02.78

Peak level 99.6 %
Extraction speed 6.0 X
Track quality 100.0 %
Test CRC 8B4F20FE
Copy CRC 8B4F20FE
Track not present in AccurateRip database
Copy OK

Track 3

Filename D:\#cdr\#wav+flac\#New\Teena Marie - Love Song & Funky Beats\cd 1\03. Teena Marie - Aladdin`s Lamp.wav

Pre-gap length 0:00:02.78

Peak level 99.3 %
Extraction speed 6.6 X
Track quality 100.0 %
Test CRC 3163A9EB
Copy CRC 3163A9EB
Track not present in AccurateRip database
Copy OK

Track 4

Filename D:\#cdr\#wav+flac\#New\Teena Marie - Love Song & Funky Beats\cd 1\04. Teena Marie - First Class Love.wav

Pre-gap length 0:00:02.78

Peak level 95.0 %
Extraction speed 6.2 X
Track quality 99.9 %
Test CRC 49DE9B96
Copy CRC 49DE9B96
Track not present in AccurateRip database
Copy OK

Track 5

Filename D:\#cdr\#wav+flac\#New\Teena Marie - Love Song & Funky Beats\cd 1\05. Teena Marie - Now That I Have You.wav

Pre-gap length 0:00:02.78

Peak level 99.9 %
Extraction speed 7.7 X
Track quality 100.0 %
Test CRC 7F55E5CA
Copy CRC 7F55E5CA
Track not present in AccurateRip database
Copy OK

Track 6

Filename D:\#cdr\#wav+flac\#New\Teena Marie - Love Song & Funky Beats\cd 1\06. Teena Marie - I`m A Sucker For Your Love-Live In Long Beach Ca..wav

Pre-gap length 0:00:02.78

Peak level 99.8 %
Extraction speed 8.2 X
Track quality 100.0 %
Test CRC 7F45C56E
Copy CRC 7F45C56E
Track not present in AccurateRip database
Copy OK

Track 7

Filename D:\#cdr\#wav+flac\#New\Teena Marie - Love Song & Funky Beats\cd 1\07. Teena Marie - Behind The Groove.wav

Pre-gap length 0:00:02.78

Peak level 99.7 %
Extraction speed 8.8 X
Track quality 100.0 %
Test CRC A1DC1594
Copy CRC A1DC1594
Track not present in AccurateRip database
Copy OK

Track 8

Filename D:\#cdr\#wav+flac\#New\Teena Marie - Love Song & Funky Beats\cd 1\08. Teena Marie - Love Just Wouldn`t Be Right.wav

Pre-gap length 0:00:02.78

Peak level 95.0 %
Extraction speed 9.0 X
Track quality 100.0 %
Test CRC 46120A30
Copy CRC 46120A30
Track not present in AccurateRip database
Copy OK

Track 9

Filename D:\#cdr\#wav+flac\#New\Teena Marie - Love Song & Funky Beats\cd 1\09. Teena Marie - Portuguese Love.wav

Pre-gap length 0:00:02.78

Peak level 99.5 %
Extraction speed 9.7 X
Track quality 100.0 %
Test CRC F59DA2D9
Copy CRC F59DA2D9
Track not present in AccurateRip database
Copy OK


None of the tracks are present in the AccurateRip database

No errors occurred

End of status report

–– CUETools DB Plugin V2.1.6

[CTDB TOCID: 41SEsOWg1wRsykyBv.mRSsTkXS0-] found
Submit result: 41SEsOWg1wRsykyBv.mRSsTkXS0- has been confirmed
Track | CTDB Status
1 | (1/1) Accurately ripped
2 | (1/1) Accurately ripped
3 | (1/1) Accurately ripped
4 | (1/1) Accurately ripped
5 | (1/1) Accurately ripped
6 | (1/1) Accurately ripped
7 | (1/1) Accurately ripped
8 | (1/1) Accurately ripped
9 | (1/1) Accurately ripped


==== Log checksum 841ABDF3782503523244CCCE0A005A70366721D2282D764ACB7737E49584E079 ====

––––––––––––––––––––––––––––––

Exact Audio Copy V1.3 from 2. September 2016

EAC extraction logfile from 10. May 2021, 12:05

Teena Marie / Love Song & Funky Beats

Used drive : HL-DT-STBD-RE BH16NS55 Adapter: 1 ID: 0

Read mode : Secure
Utilize accurate stream : Yes
Defeat audio cache : Yes
Make use of C2 pointers : No

Read offset correction : 6
Overread into Lead-In and Lead-Out : No
Fill up missing offset samples with silence : Yes
Delete leading and trailing silent blocks : No
Null samples used in CRC calculations : Yes
Used interface : Native Win32 interface for Win NT & 2000
Gap handling : Appended to previous track

Used output format : User Defined Encoder
Selected bitrate : 1024 kBit/s
Quality : High
Add ID3 tag : No
Command line compressor : C:\Program Files (x86)\Exact Audio Copy\Flac\flac.exe
Additional command line options : -8 -V -T "ARTIST=%artist%" -T "TITLE=%title%" -T "ALBUM=%albumtitle%" -T "DATE=%year%" -T "TRACKNUMBER=%tracknr%" -T "GENRE=%genre%" -T "PERFORMER=%albuminterpret%" -T "COMPOSER=%composer%" %haslyrics%–tag-from-file=LYRICS="%lyricsfile%"%haslyrics% -T "ALBUMARTIST=%albumartist%" -T "DISCNUMBER=%cdnumber%" -T "TOTALDISCS=%totalcds%" -T "TOTALTRACKS=%numtracks%" -T "COMMENT=%comment%" %source% -o %dest%


TOC of the extracted CD

Track | Start | Length | Start sector | End sector
––––––––––––––––––––––––––––-
1 | 0:00.00 | 9:15.45 | 0 | 41669
2 | 9:15.45 | 7:44.72 | 41670 | 76541
3 | 17:00.42 | 6:42.40 | 76542 | 106731
4 | 23:43.07 | 6:33.57 | 106732 | 136263
5 | 30:16.64 | 7:20.26 | 136264 | 169289
6 | 37:37.15 | 8:56.41 | 169290 | 209530
7 | 46:33.56 | 8:34.00 | 209531 | 248080
8 | 55:07.56 | 4:46.33 | 248081 | 269563
9 | 59:54.14 | 10:37.03 | 269564 | 317341


Track 1

Filename D:\#cdr\#wav+flac\#New\Teena Marie - Love Song & Funky Beats\cd 1\01. Teena Marie - I Need Your Lovin.wav

Pre-gap length 0:00:02.00

Peak level 99.8 %
Extraction speed 5.2 X
Track quality 100.0 %
Test CRC 67CB0BC4
Copy CRC 67CB0BC4
Track not present in AccurateRip database
Copy OK

Track 2

Filename D:\#cdr\#wav+flac\#New\Teena Marie - Love Song & Funky Beats\cd 1\02. Teena Marie - It Must Be Magic.wav

Pre-gap length 0:00:02.78

Peak level 99.6 %
Extraction speed 6.0 X
Track quality 100.0 %
Test CRC 8B4F20FE
Copy CRC 8B4F20FE
Track not present in AccurateRip database
Copy OK

Track 3

Filename D:\#cdr\#wav+flac\#New\Teena Marie - Love Song & Funky Beats\cd 1\03. Teena Marie - Aladdin`s Lamp.wav

Pre-gap length 0:00:02.78

Peak level 99.3 %
Extraction speed 6.6 X
Track quality 100.0 %
Test CRC 3163A9EB
Copy CRC 3163A9EB
Track not present in AccurateRip database
Copy OK

Track 4

Filename D:\#cdr\#wav+flac\#New\Teena Marie - Love Song & Funky Beats\cd 1\04. Teena Marie - First Class Love.wav

Pre-gap length 0:00:02.78

Peak level 95.0 %
Extraction speed 6.2 X
Track quality 99.9 %
Test CRC 49DE9B96
Copy CRC 49DE9B96
Track not present in AccurateRip database
Copy OK

Track 5

Filename D:\#cdr\#wav+flac\#New\Teena Marie - Love Song & Funky Beats\cd 1\05. Teena Marie - Now That I Have You.wav

Pre-gap length 0:00:02.78

Peak level 99.9 %
Extraction speed 7.7 X
Track quality 100.0 %
Test CRC 7F55E5CA
Copy CRC 7F55E5CA
Track not present in AccurateRip database
Copy OK

Track 6

Filename D:\#cdr\#wav+flac\#New\Teena Marie - Love Song & Funky Beats\cd 1\06. Teena Marie - I`m A Sucker For Your Love-Live In Long Beach Ca..wav

Pre-gap length 0:00:02.78

Peak level 99.8 %
Extraction speed 8.2 X
Track quality 100.0 %
Test CRC 7F45C56E
Copy CRC 7F45C56E
Track not present in AccurateRip database
Copy OK

Track 7

Filename D:\#cdr\#wav+flac\#New\Teena Marie - Love Song & Funky Beats\cd 1\07. Teena Marie - Behind The Groove.wav

Pre-gap length 0:00:02.78

Peak level 99.7 %
Extraction speed 8.8 X
Track quality 100.0 %
Test CRC A1DC1594
Copy CRC A1DC1594
Track not present in AccurateRip database
Copy OK

Track 8

Filename D:\#cdr\#wav+flac\#New\Teena Marie - Love Song & Funky Beats\cd 1\08. Teena Marie - Love Just Wouldn`t Be Right.wav

Pre-gap length 0:00:02.78

Peak level 95.0 %
Extraction speed 9.0 X
Track quality 100.0 %
Test CRC 46120A30
Copy CRC 46120A30
Track not present in AccurateRip database
Copy OK

Track 9

Filename D:\#cdr\#wav+flac\#New\Teena Marie - Love Song & Funky Beats\cd 1\09. Teena Marie - Portuguese Love.wav

Pre-gap length 0:00:02.78

Peak level 99.5 %
Extraction speed 9.7 X
Track quality 100.0 %
Test CRC F59DA2D9
Copy CRC F59DA2D9
Track not present in AccurateRip database
Copy OK


None of the tracks are present in the AccurateRip database

No errors occurred

End of status report

–– CUETools DB Plugin V2.1.6

[CTDB TOCID: 41SEsOWg1wRsykyBv.mRSsTkXS0-] found
Submit result: 41SEsOWg1wRsykyBv.mRSsTkXS0- has been confirmed
Track | CTDB Status
1 | (1/1) Accurately ripped
2 | (1/1) Accurately ripped
3 | (1/1) Accurately ripped
4 | (1/1) Accurately ripped
5 | (1/1) Accurately ripped
6 | (1/1) Accurately ripped
7 | (1/1) Accurately ripped
8 | (1/1) Accurately ripped
9 | (1/1) Accurately ripped


==== Log checksum 841ABDF3782503523244CCCE0A005A70366721D2282D764ACB7737E49584E079 ====
Exact Audio Copy V1.3 from 2. September 2016

EAC extraction logfile from 10. May 2021, 13:13

Teena Marie / Love Songs & Funky Beats

Used drive : HL-DT-STBD-RE BH16NS55 Adapter: 1 ID: 0

Read mode : Secure
Utilize accurate stream : Yes
Defeat audio cache : Yes
Make use of C2 pointers : No

Read offset correction : 6
Overread into Lead-In and Lead-Out : No
Fill up missing offset samples with silence : Yes
Delete leading and trailing silent blocks : No
Null samples used in CRC calculations : Yes
Used interface : Native Win32 interface for Win NT & 2000
Gap handling : Appended to previous track

Used output format : User Defined Encoder
Selected bitrate : 1024 kBit/s
Quality : High
Add ID3 tag : No
Command line compressor : C:\Program Files (x86)\Exact Audio Copy\Flac\flac.exe
Additional command line options : -8 -V -T "ARTIST=%artist%" -T "TITLE=%title%" -T "ALBUM=%albumtitle%" -T "DATE=%year%" -T "TRACKNUMBER=%tracknr%" -T "GENRE=%genre%" -T "PERFORMER=%albuminterpret%" -T "COMPOSER=%composer%" %haslyrics%–tag-from-file=LYRICS="%lyricsfile%"%haslyrics% -T "ALBUMARTIST=%albumartist%" -T "DISCNUMBER=%cdnumber%" -T "TOTALDISCS=%totalcds%" -T "TOTALTRACKS=%numtracks%" -T "COMMENT=%comment%" %source% -o %dest%


TOC of the extracted CD

Track | Start | Length | Start sector | End sector
––––––––––––––––––––––––––––-
1 | 0:00.00 | 8:36.42 | 0 | 38741
2 | 8:36.42 | 6:14.60 | 38742 | 66851
3 | 14:51.27 | 4:36.15 | 66852 | 87566
4 | 19:27.42 | 8:06.08 | 87567 | 124024
5 | 27:33.50 | 6:09.20 | 124025 | 151719
6 | 33:42.70 | 5:52.55 | 151720 | 178174
7 | 39:35.50 | 6:52.14 | 178175 | 209088
8 | 46:27.64 | 6:08.55 | 209089 | 236743
9 | 52:36.44 | 11:23.45 | 236744 | 288013


Track 1

Filename D:\#cdr\#wav+flac\#New\Teena Marie - Love Song & Funky Beats\cd 2\01. Teena Marie - Chains.wav

Pre-gap length 0:00:02.00

Peak level 99.6 %
Extraction speed 1.9 X
Track quality 99.9 %
Test CRC 46EC4FE3
Copy CRC 46EC4FE3
Track not present in AccurateRip database
Copy OK

Track 2

Filename D:\#cdr\#wav+flac\#New\Teena Marie - Love Song & Funky Beats\cd 2\02. Teena Marie - 365.wav

Pre-gap length 0:00:02.78

Peak level 99.9 %
Extraction speed 2.1 X
Track quality 99.9 %
Test CRC 1DD04FE8
Copy CRC 1DD04FE8
Track not present in AccurateRip database
Copy OK

Track 3

Filename D:\#cdr\#wav+flac\#New\Teena Marie - Love Song & Funky Beats\cd 2\03. Teena Marie - Wasn't I Good To You.wav

Pre-gap length 0:00:02.78

Peak level 99.9 %
Extraction speed 2.1 X
Track quality 99.9 %
Test CRC 9AD6F407
Copy CRC 9AD6F407
Track not present in AccurateRip database
Copy OK

Track 4

Filename D:\#cdr\#wav+flac\#New\Teena Marie - Love Song & Funky Beats\cd 2\04. Teena Marie - Square Biz.wav

Pre-gap length 0:00:02.78

Peak level 99.9 %
Extraction speed 3.1 X
Track quality 100.0 %
Test CRC B6F87BBE
Copy CRC B6F87BBE
Track not present in AccurateRip database
Copy OK

Track 5

Filename D:\#cdr\#wav+flac\#New\Teena Marie - Love Song & Funky Beats\cd 2\05. Teena Marie - More Love.wav

Pre-gap length 0:00:02.78

Peak level 99.8 %
Extraction speed 3.3 X
Track quality 100.0 %
Test CRC E9A4ECE9
Copy CRC E9A4ECE9
Track not present in AccurateRip database
Copy OK

Track 6

Filename D:\#cdr\#wav+flac\#New\Teena Marie - Love Song & Funky Beats\cd 2\06. Teena Marie - You Got Away.wav

Pre-gap length 0:00:02.78

Peak level 99.9 %
Extraction speed 3.5 X
Track quality 100.0 %
Test CRC E4AA2585
Copy CRC E4AA2585
Track not present in AccurateRip database
Copy OK

Track 7

Filename D:\#cdr\#wav+flac\#New\Teena Marie - Love Song & Funky Beats\cd 2\07. Teena Marie - You're All The Boogie I Need.wav

Pre-gap length 0:00:02.78

Peak level 99.9 %
Extraction speed 3.8 X
Track quality 100.0 %
Test CRC 006F3958
Copy CRC 006F3958
Track not present in AccurateRip database
Copy OK

Track 8

Filename D:\#cdr\#wav+flac\#New\Teena Marie - Love Song & Funky Beats\cd 2\08. Teena Marie - Lonely Desire.wav

Pre-gap length 0:00:02.78

Peak level 99.9 %
Extraction speed 3.8 X
Track quality 100.0 %
Test CRC 8C38E183
Copy CRC 8C38E183
Track not present in AccurateRip database
Copy OK

Track 9

Filename D:\#cdr\#wav+flac\#New\Teena Marie - Love Song & Funky Beats\cd 2\09. Teena Marie, Rick James - Fire And Disire.wav

Pre-gap length 0:00:02.78

Peak level 91.3 %
Extraction speed 3.8 X
Track quality 99.9 %
Test CRC 36E6E91C
Copy CRC 36E6E91C
Track not present in AccurateRip database
Copy OK


None of the tracks are present in the AccurateRip database

No errors occurred

End of status report

–– CUETools DB Plugin V2.1.6

[CTDB TOCID: qEHQ6UmAwe5XLq7Kmf_pz1fj8fY-] found
Submit result: qEHQ6UmAwe5XLq7Kmf_pz1fj8fY- has been confirmed
Track | CTDB Status
1 | (1/1) Accurately ripped
2 | (1/1) Accurately ripped
3 | (1/1) Accurately ripped
4 | (1/1) Accurately ripped
5 | (1/1) Accurately ripped
6 | (1/1) Accurately ripped
7 | (1/1) Accurately ripped
8 | (1/1) Accurately ripped
9 | (1/1) Accurately ripped


==== Log checksum 21F45E9ABAA050F40D7BB1522A112E125596DC14FF659E04E2CC8BA94BE3C9C9 ====

––––––––––––––––––––––––––––––

Exact Audio Copy V1.3 from 2. September 2016

EAC extraction logfile from 10. May 2021, 13:13

Teena Marie / Love Songs & Funky Beats

Used drive : HL-DT-STBD-RE BH16NS55 Adapter: 1 ID: 0

Read mode : Secure
Utilize accurate stream : Yes
Defeat audio cache : Yes
Make use of C2 pointers : No

Read offset correction : 6
Overread into Lead-In and Lead-Out : No
Fill up missing offset samples with silence : Yes
Delete leading and trailing silent blocks : No
Null samples used in CRC calculations : Yes
Used interface : Native Win32 interface for Win NT & 2000
Gap handling : Appended to previous track

Used output format : User Defined Encoder
Selected bitrate : 1024 kBit/s
Quality : High
Add ID3 tag : No
Command line compressor : C:\Program Files (x86)\Exact Audio Copy\Flac\flac.exe
Additional command line options : -8 -V -T "ARTIST=%artist%" -T "TITLE=%title%" -T "ALBUM=%albumtitle%" -T "DATE=%year%" -T "TRACKNUMBER=%tracknr%" -T "GENRE=%genre%" -T "PERFORMER=%albuminterpret%" -T "COMPOSER=%composer%" %haslyrics%–tag-from-file=LYRICS="%lyricsfile%"%haslyrics% -T "ALBUMARTIST=%albumartist%" -T "DISCNUMBER=%cdnumber%" -T "TOTALDISCS=%totalcds%" -T "TOTALTRACKS=%numtracks%" -T "COMMENT=%comment%" %source% -o %dest%


TOC of the extracted CD

Track | Start | Length | Start sector | End sector
––––––––––––––––––––––––––––-
1 | 0:00.00 | 8:36.42 | 0 | 38741
2 | 8:36.42 | 6:14.60 | 38742 | 66851
3 | 14:51.27 | 4:36.15 | 66852 | 87566
4 | 19:27.42 | 8:06.08 | 87567 | 124024
5 | 27:33.50 | 6:09.20 | 124025 | 151719
6 | 33:42.70 | 5:52.55 | 151720 | 178174
7 | 39:35.50 | 6:52.14 | 178175 | 209088
8 | 46:27.64 | 6:08.55 | 209089 | 236743
9 | 52:36.44 | 11:23.45 | 236744 | 288013


Track 1

Filename D:\#cdr\#wav+flac\#New\Teena Marie - Love Song & Funky Beats\cd 2\01. Teena Marie - Chains.wav

Pre-gap length 0:00:02.00

Peak level 99.6 %
Extraction speed 1.9 X
Track quality 99.9 %
Test CRC 46EC4FE3
Copy CRC 46EC4FE3
Track not present in AccurateRip database
Copy OK

Track 2

Filename D:\#cdr\#wav+flac\#New\Teena Marie - Love Song & Funky Beats\cd 2\02. Teena Marie - 365.wav

Pre-gap length 0:00:02.78

Peak level 99.9 %
Extraction speed 2.1 X
Track quality 99.9 %
Test CRC 1DD04FE8
Copy CRC 1DD04FE8
Track not present in AccurateRip database
Copy OK

Track 3

Filename D:\#cdr\#wav+flac\#New\Teena Marie - Love Song & Funky Beats\cd 2\03. Teena Marie - Wasn't I Good To You.wav

Pre-gap length 0:00:02.78

Peak level 99.9 %
Extraction speed 2.1 X
Track quality 99.9 %
Test CRC 9AD6F407
Copy CRC 9AD6F407
Track not present in AccurateRip database
Copy OK

Track 4

Filename D:\#cdr\#wav+flac\#New\Teena Marie - Love Song & Funky Beats\cd 2\04. Teena Marie - Square Biz.wav

Pre-gap length 0:00:02.78

Peak level 99.9 %
Extraction speed 3.1 X
Track quality 100.0 %
Test CRC B6F87BBE
Copy CRC B6F87BBE
Track not present in AccurateRip database
Copy OK

Track 5

Filename D:\#cdr\#wav+flac\#New\Teena Marie - Love Song & Funky Beats\cd 2\05. Teena Marie - More Love.wav

Pre-gap length 0:00:02.78

Peak level 99.8 %
Extraction speed 3.3 X
Track quality 100.0 %
Test CRC E9A4ECE9
Copy CRC E9A4ECE9
Track not present in AccurateRip database
Copy OK

Track 6

Filename D:\#cdr\#wav+flac\#New\Teena Marie - Love Song & Funky Beats\cd 2\06. Teena Marie - You Got Away.wav

Pre-gap length 0:00:02.78

Peak level 99.9 %
Extraction speed 3.5 X
Track quality 100.0 %
Test CRC E4AA2585
Copy CRC E4AA2585
Track not present in AccurateRip database
Copy OK

Track 7

Filename D:\#cdr\#wav+flac\#New\Teena Marie - Love Song & Funky Beats\cd 2\07. Teena Marie - You're All The Boogie I Need.wav

Pre-gap length 0:00:02.78

Peak level 99.9 %
Extraction speed 3.8 X
Track quality 100.0 %
Test CRC 006F3958
Copy CRC 006F3958
Track not present in AccurateRip database
Copy OK

Track 8

Filename D:\#cdr\#wav+flac\#New\Teena Marie - Love Song & Funky Beats\cd 2\08. Teena Marie - Lonely Desire.wav

Pre-gap length 0:00:02.78

Peak level 99.9 %
Extraction speed 3.8 X
Track quality 100.0 %
Test CRC 8C38E183
Copy CRC 8C38E183
Track not present in AccurateRip database
Copy OK

Track 9

Filename D:\#cdr\#wav+flac\#New\Teena Marie - Love Song & Funky Beats\cd 2\09. Teena Marie, Rick James - Fire And Disire.wav

Pre-gap length 0:00:02.78

Peak level 91.3 %
Extraction speed 3.8 X
Track quality 99.9 %
Test CRC 36E6E91C
Copy CRC 36E6E91C
Track not present in AccurateRip database
Copy OK


None of the tracks are present in the AccurateRip database

No errors occurred

End of status report

–– CUETools DB Plugin V2.1.6

[CTDB TOCID: qEHQ6UmAwe5XLq7Kmf_pz1fj8fY-] found
Submit result: qEHQ6UmAwe5XLq7Kmf_pz1fj8fY- has been confirmed
Track | CTDB Status
1 | (1/1) Accurately ripped
2 | (1/1) Accurately ripped
3 | (1/1) Accurately ripped
4 | (1/1) Accurately ripped
5 | (1/1) Accurately ripped
6 | (1/1) Accurately ripped
7 | (1/1) Accurately ripped
8 | (1/1) Accurately ripped
9 | (1/1) Accurately ripped


==== Log checksum 21F45E9ABAA050F40D7BB1522A112E125596DC14FF659E04E2CC8BA94BE3C9C9 ====

Thanks to the Original ripper !