Subcategories
Tags
Language
Tags

The Cranberries - No Need To Argue (Deluxe Edition) (1994/2020)

Posted By: delpotro
The Cranberries - No Need To Argue (Deluxe Edition) (1994/2020)

The Cranberries - No Need To Argue (Deluxe Edition) (1994/2020)
XLD Rip | FLAC (tracks+log+.cue) - 967 Mb | MP3 CBR 320 kbps - 336 Mb | 02:24:09
Alternative Rock, Female Vocal | Label: Island Records

The Cranberries‘ second album No Need to Argue has been remastered and expanded for a double CD and 2LP vinyl release in November. Originally released in 1994, the album was the band’s commercial peak, with global sales in excess of 17 million. No Need to Argue contains the single ‘Zombie’ which topped charts across Europe (although interestingly, only peaked at 14 in the UK) and was seemingly played endlessly on MTV at the time. The two-CD deluxe features, on the first disc, a 2020 remaster of the album (“from the original tapes”), three B-sides (‘Away’, ‘I Don’t Need’ and ‘So Cold In Ireland’), a previously unreleased song ‘Yesterday’s Gone’ (which was recorded unplugged for MTV in New York in 1995), a cover of the Carpenters’ ‘(They Long To Be) Close to You’ and a remix of ‘Zombie’. The second CD in this package features nine unreleased demos and eight live tracks.
Tracklist:
Disc 1
01. Ode To My Family (Remastered 2020)
02. I Can't Be With You (Remastered 2020)
03. Twenty One (Remastered 2020)
04. Zombie (Remastered 2020)
05. Empty (Remastered 2020)
06. Everything I Said (Remastered 2020)
07. The Icicle Melts (Remastered 2020)
08. Disappointment (Remastered 2020)
09. Ridiculous Thoughts (Remastered 2020)
10. Dreaming My Dreams (Remastered 2020)
11. Yeats' Grave (Remastered 2020)
12. Daffodil Lament (Remastered 2020)
13. No Need To Argue (Remastered 2020)
14. Yesterday's Gone (MTV Unplugged)
15. Away (Remastered 2020)
16. I Don't Need (Remastered 2020)
17. So Cold In Ireland (Remastered 2020)
18. (They Long To Be) Close To You
19. Zombie

Disc 2
01. Song To My Family (Magic Shop Demo)
02. So Cold In Ireland (Magic Shop Demo)
03. Empty (Magic Shop Demo)
04. Ridiculous Thoughts (Magic Shop Demo)
05. Everything I Said (Magic Shop Demo)
06. Yeats' Grave (Magic Shop Demo)
07. Serious (Demo)
08. Away (Demo)
09. I Don't Need (Demo)
10. Dreaming My Dreams (Live At Royal Court Theatre, Liverpool, UK / 1994)
11. Daffodil Lament (Live At Royal Court Theatre, Liverpool, UK / 1994)
12. The Icicle Melts (Live At Royal Court Theatre, Liverpool, UK / 1994)
13. No Need To Argue (Live At Royal Court Theatre, Liverpool, UK / 1994)
14. Empty (Live At The Royal Court Theatre, Liverpool, UK / 1994)
15. I Can't Be With You (Live From Milton Keynes)
16. Ridiculous Thoughts (Live From Milton Keynes)
17. Zombie (Live From Milton Keynes)

X Lossless Decoder version 20210101 (153.1)

XLD extraction logfile from 2021-06-21 15:20:12 -0700

The Cranberries / No Need To Argue

Used drive : PLEXTOR BDDVDR PX-B310U (revision 1.07)
Media type : Pressed CD

Ripper mode : XLD Secure Ripper
Disable audio cache : OK for the drive with a cache less than 1375KiB
Make use of C2 pointers : NO
Read offset correction : 6
Max retry count : 100
Gap status : Analyzed, Appended (except HTOA)

TOC of the extracted CD
Track | Start | Length | Start sector | End sector
––––––––––––––––––––––––––––-
1 | 00:00:00 | 04:32:41 | 0 | 20440
2 | 04:32:41 | 03:08:34 | 20441 | 34574
3 | 07:41:00 | 03:10:10 | 34575 | 48834
4 | 10:51:10 | 05:07:61 | 48835 | 71920
5 | 15:58:71 | 03:28:72 | 71921 | 87592
6 | 19:27:68 | 03:55:46 | 87593 | 105263
7 | 23:23:39 | 02:54:46 | 105264 | 118359
8 | 26:18:10 | 04:16:37 | 118360 | 137596
9 | 30:34:47 | 04:33:32 | 137597 | 158103
10 | 35:08:04 | 03:38:30 | 158104 | 174483
11 | 38:46:34 | 03:05:31 | 174484 | 188389
12 | 41:51:65 | 06:08:21 | 188390 | 216010
13 | 48:00:11 | 02:56:00 | 216011 | 229210
14 | 50:56:11 | 04:01:46 | 229211 | 247331
15 | 54:57:57 | 02:40:71 | 247332 | 259402
16 | 57:38:53 | 03:30:63 | 259403 | 275215
17 | 61:09:41 | 04:44:49 | 275216 | 296564
18 | 65:54:15 | 02:41:67 | 296565 | 308706
19 | 68:36:07 | 07:54:58 | 308707 | 344314

AccurateRip Summary (DiscID: 0032b1d4-02c65cf4-1111ee13)
Track 01 : OK (v2, confidence 19/19)
Track 02 : OK (v2, confidence 19/19)
Track 03 : OK (v2, confidence 19/19)
Track 04 : OK (v2, confidence 19/19)
Track 05 : OK (v2, confidence 19/19)
Track 06 : OK (v2, confidence 19/19)
Track 07 : OK (v2, confidence 19/19)
Track 08 : OK (v2, confidence 19/19)
Track 09 : OK (v2, confidence 19/19)
Track 10 : OK (v2, confidence 19/19)
Track 11 : OK (v2, confidence 19/19)
Track 12 : OK (v2, confidence 19/19)
Track 13 : OK (v2, confidence 19/19)
Track 14 : OK (v2, confidence 19/19)
Track 15 : OK (v2, confidence 19/19)
Track 16 : OK (v2, confidence 19/19)
Track 17 : OK (v2, confidence 19/19)
Track 18 : OK (v2, confidence 19/19)
Track 19 : OK (v2, confidence 18/18)
->All tracks accurately ripped.

All Tracks
Album gain : -7.72 dB
Peak : 0.980865
Statistics
Read error : 0
Jitter error (maybe fixed) : 0
Retry sector count : 0
Damaged sector count : 0

Track 01
Filename : /Users/Shared/The Cranberries - No Need To Argue (2020) [FLAC] {Deluxe Edition}/CD01/01 - Ode To My Family.flac
Pre-gap length : 00:02:00

Track gain : -7.81 dB
Peak : 0.949127
CRC32 hash (test run) : DCD781C5
CRC32 hash : DCD781C5
CRC32 hash (skip zero) : 3D72A551
AccurateRip v1 signature : 91F50A8A
AccurateRip v2 signature : 6B0D3D33
->Accurately ripped (v2, confidence 19/19)
Statistics
Read error : 0
Jitter error (maybe fixed) : 0
Retry sector count : 0
Damaged sector count : 0

Track 02
Filename : /Users/Shared/The Cranberries - No Need To Argue (2020) [FLAC] {Deluxe Edition}/CD01/02 - I Can't Be With You.flac

Track gain : -9.67 dB
Peak : 0.952728
CRC32 hash (test run) : 68764CCD
CRC32 hash : 68764CCD
CRC32 hash (skip zero) : 6A59F192
AccurateRip v1 signature : A3E2C186
AccurateRip v2 signature : 52ADB9ED
->Accurately ripped (v2, confidence 19/19)
Statistics
Read error : 0
Jitter error (maybe fixed) : 0
Retry sector count : 0
Damaged sector count : 0

Track 03
Filename : /Users/Shared/The Cranberries - No Need To Argue (2020) [FLAC] {Deluxe Edition}/CD01/03 - Twenty One.flac

Track gain : -6.75 dB
Peak : 0.937195
CRC32 hash (test run) : CB4388C2
CRC32 hash : CB4388C2
CRC32 hash (skip zero) : FB060E2E
AccurateRip v1 signature : 9BFF4BDD
AccurateRip v2 signature : DADCE52E
->Accurately ripped (v2, confidence 19/19)
Statistics
Read error : 0
Jitter error (maybe fixed) : 0
Retry sector count : 0
Damaged sector count : 0

Track 04
Filename : /Users/Shared/The Cranberries - No Need To Argue (2020) [FLAC] {Deluxe Edition}/CD01/04 - Zombie.flac

Track gain : -8.99 dB
Peak : 0.957703
CRC32 hash (test run) : B297273A
CRC32 hash : B297273A
CRC32 hash (skip zero) : F377008C
AccurateRip v1 signature : 548ABB25
AccurateRip v2 signature : 009F34F8
->Accurately ripped (v2, confidence 19/19)
Statistics
Read error : 0
Jitter error (maybe fixed) : 0
Retry sector count : 0
Damaged sector count : 0

Track 05
Filename : /Users/Shared/The Cranberries - No Need To Argue (2020) [FLAC] {Deluxe Edition}/CD01/05 - Empty.flac

Track gain : -6.97 dB
Peak : 0.967987
CRC32 hash (test run) : 462FB327
CRC32 hash : 462FB327
CRC32 hash (skip zero) : 5487CCC6
AccurateRip v1 signature : 734114BC
AccurateRip v2 signature : 9E9C3640
->Accurately ripped (v2, confidence 19/19)
Statistics
Read error : 0
Jitter error (maybe fixed) : 0
Retry sector count : 0
Damaged sector count : 0

Track 06
Filename : /Users/Shared/The Cranberries - No Need To Argue (2020) [FLAC] {Deluxe Edition}/CD01/06 - Everything I Said.flac

Track gain : -7.64 dB
Peak : 0.950043
CRC32 hash (test run) : 00AFEC4A
CRC32 hash : 00AFEC4A
CRC32 hash (skip zero) : 5EBFCEA2
AccurateRip v1 signature : 33AD28A4
AccurateRip v2 signature : 2AF4B777
->Accurately ripped (v2, confidence 19/19)
Statistics
Read error : 0
Jitter error (maybe fixed) : 0
Retry sector count : 0
Damaged sector count : 0

Track 07
Filename : /Users/Shared/The Cranberries - No Need To Argue (2020) [FLAC] {Deluxe Edition}/CD01/07 - The Icicle Melts.flac

Track gain : -9.17 dB
Peak : 0.966766
CRC32 hash (test run) : 53A10CFA
CRC32 hash : 53A10CFA
CRC32 hash (skip zero) : 4EA6F7F8
AccurateRip v1 signature : 916F99DC
AccurateRip v2 signature : 643C6BDC
->Accurately ripped (v2, confidence 19/19)
Statistics
Read error : 0
Jitter error (maybe fixed) : 0
Retry sector count : 0
Damaged sector count : 0

Track 08
Filename : /Users/Shared/The Cranberries - No Need To Argue (2020) [FLAC] {Deluxe Edition}/CD01/08 - Disappointment.flac

Track gain : -7.19 dB
Peak : 0.944000
CRC32 hash (test run) : 89117C19
CRC32 hash : 89117C19
CRC32 hash (skip zero) : 9C4878DD
AccurateRip v1 signature : A0DA4F08
AccurateRip v2 signature : 7E3AF44D
->Accurately ripped (v2, confidence 19/19)
Statistics
Read error : 0
Jitter error (maybe fixed) : 0
Retry sector count : 0
Damaged sector count : 0

Track 09
Filename : /Users/Shared/The Cranberries - No Need To Argue (2020) [FLAC] {Deluxe Edition}/CD01/09 - Ridiculous Thoughts.flac

Track gain : -9.06 dB
Peak : 0.965820
CRC32 hash (test run) : BA818F10
CRC32 hash : BA818F10
CRC32 hash (skip zero) : E260E839
AccurateRip v1 signature : 56CE054E
AccurateRip v2 signature : F7D7E6AD
->Accurately ripped (v2, confidence 19/19)
Statistics
Read error : 0
Jitter error (maybe fixed) : 0
Retry sector count : 0
Damaged sector count : 0

Track 10
Filename : /Users/Shared/The Cranberries - No Need To Argue (2020) [FLAC] {Deluxe Edition}/CD01/10 - Dreaming My Dreams.flac

Track gain : -5.92 dB
Peak : 0.937622
CRC32 hash (test run) : E09EB987
CRC32 hash : E09EB987
CRC32 hash (skip zero) : 50846F2B
AccurateRip v1 signature : 2D5D6B18
AccurateRip v2 signature : E16497F5
->Accurately ripped (v2, confidence 19/19)
Statistics
Read error : 0
Jitter error (maybe fixed) : 0
Retry sector count : 0
Damaged sector count : 0

Track 11
Filename : /Users/Shared/The Cranberries - No Need To Argue (2020) [FLAC] {Deluxe Edition}/CD01/11 - Yeats' Grave.flac

Track gain : -9.53 dB
Peak : 0.957611
CRC32 hash (test run) : 33CB3494
CRC32 hash : 33CB3494
CRC32 hash (skip zero) : 89B7A758
AccurateRip v1 signature : CB4D2092
AccurateRip v2 signature : 1DDCAE76
->Accurately ripped (v2, confidence 19/19)
Statistics
Read error : 0
Jitter error (maybe fixed) : 0
Retry sector count : 0
Damaged sector count : 0

Track 12
Filename : /Users/Shared/The Cranberries - No Need To Argue (2020) [FLAC] {Deluxe Edition}/CD01/12 - Daffodil Lament.flac

Track gain : -7.16 dB
Peak : 0.954681
CRC32 hash (test run) : 55BEE700
CRC32 hash : 55BEE700
CRC32 hash (skip zero) : 5A05660B
AccurateRip v1 signature : 2C855C72
AccurateRip v2 signature : A11F81EF
->Accurately ripped (v2, confidence 19/19)
Statistics
Read error : 0
Jitter error (maybe fixed) : 0
Retry sector count : 0
Damaged sector count : 0

Track 13
Filename : /Users/Shared/The Cranberries - No Need To Argue (2020) [FLAC] {Deluxe Edition}/CD01/13 - No Need To Argue.flac

Track gain : -3.97 dB
Peak : 0.931732
CRC32 hash (test run) : 06271342
CRC32 hash : 06271342
CRC32 hash (skip zero) : 21563C22
AccurateRip v1 signature : 27978E31
AccurateRip v2 signature : E6F81ADD
->Accurately ripped (v2, confidence 19/19)
Statistics
Read error : 0
Jitter error (maybe fixed) : 0
Retry sector count : 0
Damaged sector count : 0

Track 14
Filename : /Users/Shared/The Cranberries - No Need To Argue (2020) [FLAC] {Deluxe Edition}/CD01/14 - Yesterday's Gone (MTV Unplugged).flac

Track gain : -6.35 dB
Peak : 0.933960
CRC32 hash (test run) : B26632F1
CRC32 hash : B26632F1
CRC32 hash (skip zero) : 618D1D14
AccurateRip v1 signature : E1B9E281
AccurateRip v2 signature : 564B5F03
->Accurately ripped (v2, confidence 19/19)
Statistics
Read error : 0
Jitter error (maybe fixed) : 0
Retry sector count : 0
Damaged sector count : 0

Track 15
Filename : /Users/Shared/The Cranberries - No Need To Argue (2020) [FLAC] {Deluxe Edition}/CD01/15 - Away.flac

Track gain : -6.24 dB
Peak : 0.932220
CRC32 hash (test run) : E7A81D3B
CRC32 hash : E7A81D3B
CRC32 hash (skip zero) : E9A23A81
AccurateRip v1 signature : 24698ECD
AccurateRip v2 signature : 907DF0DE
->Accurately ripped (v2, confidence 19/19)
Statistics
Read error : 0
Jitter error (maybe fixed) : 0
Retry sector count : 0
Damaged sector count : 0

Track 16
Filename : /Users/Shared/The Cranberries - No Need To Argue (2020) [FLAC] {Deluxe Edition}/CD01/16 - I Don't Need.flac

Track gain : -9.36 dB
Peak : 0.949402
CRC32 hash (test run) : FA92A943
CRC32 hash : FA92A943
CRC32 hash (skip zero) : C5829D5A
AccurateRip v1 signature : 145F0D9D
AccurateRip v2 signature : F414625E
->Accurately ripped (v2, confidence 19/19)
Statistics
Read error : 0
Jitter error (maybe fixed) : 0
Retry sector count : 0
Damaged sector count : 0

Track 17
Filename : /Users/Shared/The Cranberries - No Need To Argue (2020) [FLAC] {Deluxe Edition}/CD01/17 - So Cold In Ireland.flac

Track gain : -8.72 dB
Peak : 0.947998
CRC32 hash (test run) : 68AA37D8
CRC32 hash : 68AA37D8
CRC32 hash (skip zero) : 584500B0
AccurateRip v1 signature : A741CF80
AccurateRip v2 signature : 4DEF1E07
->Accurately ripped (v2, confidence 19/19)
Statistics
Read error : 0
Jitter error (maybe fixed) : 0
Retry sector count : 0
Damaged sector count : 0

Track 18
Filename : /Users/Shared/The Cranberries - No Need To Argue (2020) [FLAC] {Deluxe Edition}/CD01/18 - (They Long To Be) Close To You.flac

Track gain : -6.90 dB
Peak : 0.935486
CRC32 hash (test run) : 07BB72DF
CRC32 hash : 07BB72DF
CRC32 hash (skip zero) : EF08AE04
AccurateRip v1 signature : 1FEE16DB
AccurateRip v2 signature : FF9BB341
->Accurately ripped (v2, confidence 19/19)
Statistics
Read error : 0
Jitter error (maybe fixed) : 0
Retry sector count : 0
Damaged sector count : 0

Track 19
Filename : /Users/Shared/The Cranberries - No Need To Argue (2020) [FLAC] {Deluxe Edition}/CD01/19 - Zombie (A Camel's Hump Remix By The Orb).flac

Track gain : -3.82 dB
Peak : 0.980865
CRC32 hash (test run) : 189C0BF3
CRC32 hash : 189C0BF3
CRC32 hash (skip zero) : 144626FA
AccurateRip v1 signature : 6EEF11DE
AccurateRip v2 signature : 80FF80CB
->Accurately ripped (v2, confidence 18/18)
Statistics
Read error : 0
Jitter error (maybe fixed) : 0
Retry sector count : 0
Damaged sector count : 0

No errors occurred

End of status report

––-BEGIN XLD SIGNATURE––-
t01LyjMEzrbIqo.ujV8vuTKObCSnIMpb8WlHUWnJm.rPyrU12kwVZhgX4bkrnCIftbWSf89jp1GkiFLdMEkiNf2qrzAql4E0lWNG51q
––-END XLD SIGNATURE––-
X Lossless Decoder version 20210101 (153.1)

XLD extraction logfile from 2021-06-21 15:48:05 -0700

The Cranberries / No Need To Argue

Used drive : PLEXTOR BDDVDR PX-B310U (revision 1.07)
Media type : Pressed CD

Ripper mode : XLD Secure Ripper
Disable audio cache : OK for the drive with a cache less than 1375KiB
Make use of C2 pointers : NO
Read offset correction : 6
Max retry count : 100
Gap status : Analyzed, Appended (except HTOA)

TOC of the extracted CD
Track | Start | Length | Start sector | End sector
––––––––––––––––––––––––––––-
1 | 00:00:00 | 04:35:29 | 0 | 20653
2 | 04:35:29 | 04:38:09 | 20654 | 41512
3 | 09:13:38 | 03:23:18 | 41513 | 56755
4 | 12:36:56 | 04:11:08 | 56756 | 75588
5 | 16:47:64 | 03:57:12 | 75589 | 93375
6 | 20:45:01 | 03:07:05 | 93376 | 107405
7 | 23:52:06 | 02:41:27 | 107406 | 119507
8 | 26:33:33 | 02:26:23 | 119508 | 130480
9 | 28:59:56 | 03:22:32 | 130481 | 145662
10 | 32:22:13 | 04:28:45 | 145663 | 165807
11 | 36:50:58 | 04:55:01 | 165808 | 187933
12 | 41:45:59 | 03:25:45 | 187934 | 203353
13 | 45:11:29 | 03:07:00 | 203354 | 217378
14 | 48:18:29 | 03:36:13 | 217379 | 233591
15 | 51:54:42 | 03:18:24 | 233592 | 248465
16 | 55:12:66 | 06:32:33 | 248466 | 277898
17 | 61:45:24 | 05:53:19 | 277899 | 304392

AccurateRip Summary (DiscID: 0028208b-01f959ab-e00fda11)
Track 01 : OK (v2, confidence 19/19)
Track 02 : OK (v2, confidence 19/19)
Track 03 : OK (v2, confidence 19/19)
Track 04 : OK (v2, confidence 19/19)
Track 05 : OK (v2, confidence 19/19)
Track 06 : OK (v2, confidence 19/19)
Track 07 : OK (v2, confidence 19/19)
Track 08 : OK (v2, confidence 19/19)
Track 09 : OK (v2, confidence 19/19)
Track 10 : OK (v2, confidence 19/19)
Track 11 : OK (v2, confidence 19/19)
Track 12 : OK (v2, confidence 19/19)
Track 13 : OK (v2, confidence 19/19)
Track 14 : OK (v2, confidence 19/19)
Track 15 : OK (v2, confidence 19/19)
Track 16 : OK (v2, confidence 19/19)
Track 17 : OK (v2, confidence 18/18)
->All tracks accurately ripped.

All Tracks
Album gain : -8.34 dB
Peak : 0.994873
Statistics
Read error : 0
Jitter error (maybe fixed) : 0
Retry sector count : 0
Damaged sector count : 0

Track 01
Filename : /Users/Shared/The Cranberries - No Need To Argue (2020) [FLAC] {Deluxe Edition}/CD02/01 - Song To My Family.flac
Pre-gap length : 00:02:00

Track gain : -8.62 dB
Peak : 0.976074
CRC32 hash (test run) : D30928DA
CRC32 hash : D30928DA
CRC32 hash (skip zero) : 78667F4A
AccurateRip v1 signature : 508CBE49
AccurateRip v2 signature : 07A1B67B
->Accurately ripped (v2, confidence 19/19)
Statistics
Read error : 0
Jitter error (maybe fixed) : 0
Retry sector count : 0
Damaged sector count : 0

Track 02
Filename : /Users/Shared/The Cranberries - No Need To Argue (2020) [FLAC] {Deluxe Edition}/CD02/02 - So Cold In Ireland.flac

Track gain : -8.79 dB
Peak : 0.975616
CRC32 hash (test run) : 56FDF33F
CRC32 hash : 56FDF33F
CRC32 hash (skip zero) : D0E6E0F9
AccurateRip v1 signature : 5A69D53A
AccurateRip v2 signature : D52B59D8
->Accurately ripped (v2, confidence 19/19)
Statistics
Read error : 0
Jitter error (maybe fixed) : 0
Retry sector count : 0
Damaged sector count : 0

Track 03
Filename : /Users/Shared/The Cranberries - No Need To Argue (2020) [FLAC] {Deluxe Edition}/CD02/03 - Empty.flac

Track gain : -7.85 dB
Peak : 0.975403
CRC32 hash (test run) : DB1964B0
CRC32 hash : DB1964B0
CRC32 hash (skip zero) : FEB39880
AccurateRip v1 signature : 5859BC0F
AccurateRip v2 signature : 206E2C13
->Accurately ripped (v2, confidence 19/19)
Statistics
Read error : 0
Jitter error (maybe fixed) : 0
Retry sector count : 0
Damaged sector count : 0

Track 04
Filename : /Users/Shared/The Cranberries - No Need To Argue (2020) [FLAC] {Deluxe Edition}/CD02/04 - Ridiculous Thoughts.flac

Track gain : -9.55 dB
Peak : 0.975677
CRC32 hash (test run) : 89E22A41
CRC32 hash : 89E22A41
CRC32 hash (skip zero) : C0F4E994
AccurateRip v1 signature : 732DC7C7
AccurateRip v2 signature : 40047E9F
->Accurately ripped (v2, confidence 19/19)
Statistics
Read error : 0
Jitter error (maybe fixed) : 0
Retry sector count : 0
Damaged sector count : 0

Track 05
Filename : /Users/Shared/The Cranberries - No Need To Argue (2020) [FLAC] {Deluxe Edition}/CD02/05 - Everything I Said.flac

Track gain : -7.93 dB
Peak : 0.975494
CRC32 hash (test run) : 3DB0C3D5
CRC32 hash : 3DB0C3D5
CRC32 hash (skip zero) : 25E0E4DC
AccurateRip v1 signature : 519B1F56
AccurateRip v2 signature : A09B52C8
->Accurately ripped (v2, confidence 19/19)
Statistics
Read error : 0
Jitter error (maybe fixed) : 0
Retry sector count : 0
Damaged sector count : 0

Track 06
Filename : /Users/Shared/The Cranberries - No Need To Argue (2020) [FLAC] {Deluxe Edition}/CD02/06 - Yeats' Grave.flac

Track gain : -8.77 dB
Peak : 0.975616
CRC32 hash (test run) : B3785C20
CRC32 hash : B3785C20
CRC32 hash (skip zero) : 6A1C514B
AccurateRip v1 signature : 59C05531
AccurateRip v2 signature : B9C068B3
->Accurately ripped (v2, confidence 19/19)
Statistics
Read error : 0
Jitter error (maybe fixed) : 0
Retry sector count : 0
Damaged sector count : 0

Track 07
Filename : /Users/Shared/The Cranberries - No Need To Argue (2020) [FLAC] {Deluxe Edition}/CD02/07 - Serious.flac

Track gain : -8.78 dB
Peak : 0.979279
CRC32 hash (test run) : 3DAD851A
CRC32 hash : 3DAD851A
CRC32 hash (skip zero) : 3CACBFBE
AccurateRip v1 signature : 56A50E68
AccurateRip v2 signature : AE3F23E1
->Accurately ripped (v2, confidence 19/19)
Statistics
Read error : 0
Jitter error (maybe fixed) : 0
Retry sector count : 0
Damaged sector count : 0

Track 08
Filename : /Users/Shared/The Cranberries - No Need To Argue (2020) [FLAC] {Deluxe Edition}/CD02/08 - Away.flac

Track gain : -7.48 dB
Peak : 0.977325
CRC32 hash (test run) : DFD05BA5
CRC32 hash : DFD05BA5
CRC32 hash (skip zero) : 86FAFE98
AccurateRip v1 signature : C2AC7EFA
AccurateRip v2 signature : 90E422F1
->Accurately ripped (v2, confidence 19/19)
Statistics
Read error : 0
Jitter error (maybe fixed) : 0
Retry sector count : 0
Damaged sector count : 0

Track 09
Filename : /Users/Shared/The Cranberries - No Need To Argue (2020) [FLAC] {Deluxe Edition}/CD02/09 - I Don't Need.flac

Track gain : -7.83 dB
Peak : 0.979431
CRC32 hash (test run) : 33EE16A6
CRC32 hash : 33EE16A6
CRC32 hash (skip zero) : 76B8657C
AccurateRip v1 signature : 031105F1
AccurateRip v2 signature : E38778AA
->Accurately ripped (v2, confidence 19/19)
Statistics
Read error : 0
Jitter error (maybe fixed) : 0
Retry sector count : 0
Damaged sector count : 0

Track 10
Filename : /Users/Shared/The Cranberries - No Need To Argue (2020) [FLAC] {Deluxe Edition}/CD02/10 - Dreaming My Dreams.flac

Track gain : -5.24 dB
Peak : 0.975372
CRC32 hash (test run) : 4DC7F4B7
CRC32 hash : 4DC7F4B7
CRC32 hash (skip zero) : FE62242E
AccurateRip v1 signature : 2A3779B4
AccurateRip v2 signature : 1BB26260
->Accurately ripped (v2, confidence 19/19)
Statistics
Read error : 0
Jitter error (maybe fixed) : 0
Retry sector count : 0
Damaged sector count : 0

Track 11
Filename : /Users/Shared/The Cranberries - No Need To Argue (2020) [FLAC] {Deluxe Edition}/CD02/11 - Daffodil Lament.flac

Track gain : -8.21 dB
Peak : 0.994873
CRC32 hash (test run) : 0A97D3A5
CRC32 hash : 0A97D3A5
CRC32 hash (skip zero) : 93EC63B5
AccurateRip v1 signature : AD461362
AccurateRip v2 signature : 91C11386
->Accurately ripped (v2, confidence 19/19)
Statistics
Read error : 0
Jitter error (maybe fixed) : 0
Retry sector count : 0
Damaged sector count : 0

Track 12
Filename : /Users/Shared/The Cranberries - No Need To Argue (2020) [FLAC] {Deluxe Edition}/CD02/12 - The Icicle Melts.flac

Track gain : -7.30 dB
Peak : 0.982849
CRC32 hash (test run) : 52030B89
CRC32 hash : 52030B89
CRC32 hash (skip zero) : 17076D1C
AccurateRip v1 signature : F1FBFA9A
AccurateRip v2 signature : 1E6D0D76
->Accurately ripped (v2, confidence 19/19)
Statistics
Read error : 0
Jitter error (maybe fixed) : 0
Retry sector count : 0
Damaged sector count : 0

Track 13
Filename : /Users/Shared/The Cranberries - No Need To Argue (2020) [FLAC] {Deluxe Edition}/CD02/13 - No Need To Argue.flac

Track gain : -3.65 dB
Peak : 0.971985
CRC32 hash (test run) : 0A9444B3
CRC32 hash : 0A9444B3
CRC32 hash (skip zero) : 63AD2B7D
AccurateRip v1 signature : B68F369E
AccurateRip v2 signature : F48C955B
->Accurately ripped (v2, confidence 19/19)
Statistics
Read error : 0
Jitter error (maybe fixed) : 0
Retry sector count : 0
Damaged sector count : 0

Track 14
Filename : /Users/Shared/The Cranberries - No Need To Argue (2020) [FLAC] {Deluxe Edition}/CD02/14 - Empty.flac

Track gain : -7.02 dB
Peak : 0.975220
CRC32 hash (test run) : 9E41C5AC
CRC32 hash : 9E41C5AC
CRC32 hash (skip zero) : 9A94CB7F
AccurateRip v1 signature : 6949DC63
AccurateRip v2 signature : 91AC4E56
->Accurately ripped (v2, confidence 19/19)
Statistics
Read error : 0
Jitter error (maybe fixed) : 0
Retry sector count : 0
Damaged sector count : 0

Track 15
Filename : /Users/Shared/The Cranberries - No Need To Argue (2020) [FLAC] {Deluxe Edition}/CD02/15 - I Can't Be With You (BBC Live Recording).flac

Track gain : -9.61 dB
Peak : 0.975739
CRC32 hash (test run) : 65DD3326
CRC32 hash : 65DD3326
CRC32 hash (skip zero) : 944AF234
AccurateRip v1 signature : E1E32153
AccurateRip v2 signature : 75081BE2
->Accurately ripped (v2, confidence 19/19)
Statistics
Read error : 0
Jitter error (maybe fixed) : 0
Retry sector count : 0
Damaged sector count : 0

Track 16
Filename : /Users/Shared/The Cranberries - No Need To Argue (2020) [FLAC] {Deluxe Edition}/CD02/16 - Ridiculous Thoughts (BBC Live Recording).flac

Track gain : -9.29 dB
Peak : 0.975677
CRC32 hash (test run) : 770E265A
CRC32 hash : 770E265A
CRC32 hash (skip zero) : 196BBCD6
AccurateRip v1 signature : 052EECE0
AccurateRip v2 signature : 7C186CFD
->Accurately ripped (v2, confidence 19/19)
Statistics
Read error : 0
Jitter error (maybe fixed) : 0
Retry sector count : 0
Damaged sector count : 0

Track 17
Filename : /Users/Shared/The Cranberries - No Need To Argue (2020) [FLAC] {Deluxe Edition}/CD02/17 - Zombie (BBC Live Recording).flac

Track gain : -9.38 dB
Peak : 0.975800
CRC32 hash (test run) : C621B70A
CRC32 hash : C621B70A
CRC32 hash (skip zero) : CF500EB2
AccurateRip v1 signature : 62F9117D
AccurateRip v2 signature : BE39A8AD
->Accurately ripped (v2, confidence 18/18)
Statistics
Read error : 0
Jitter error (maybe fixed) : 0
Retry sector count : 0
Damaged sector count : 0

No errors occurred

End of status report

––-BEGIN XLD SIGNATURE––-
PywQZzGRal9_mH03zAfkm5NfccsftNCxkTu4re5jlOTi_NL8f8M3KLMorFNRj5MlHPF4cQchldhnOCBwLfgC44N7Y.oqorfqHTZwuNi
––-END XLD SIGNATURE––-

Thanks to the Original ripper !