Tags
Language
Tags

The Darkness - Live At Hammersmith (2018)

Posted By: delpotro
The Darkness - Live At Hammersmith (2018)

The Darkness - Live At Hammersmith (2018)
EAC Rip | FLAC (tracks+log+.cue) - 571 Mb | MP3 CBR 320 kbps - 175 Mb | 01:15:50
Hard Rock, Glam Metal | Label: Cooking Vinyl

British rockers THE DARKNESS will release a live album, "Live At Hammersmith", on June 15 through Cooking Vinyl. The album captures the bandin sterling form at its London "Tour De Prance" show at the Eventim Hammersmith Apollo on December 10, 2017.

The U.S. leg of "Tour De Prance" runs through May 2 in Dallas, Texas, continuing on to its final stop in Mexico City, Mexico on May 4 in support of critically acclaimed new album "Pinewood Smile". The tour has been blowing minds across the globe, selling out shows in the U.S., Canada and Europe.

"Live At Hammersmith" boasts the band's spectacular back catalogue of five albums across 19 incendiary tracks. In true DARKNESS spandex-clad fashion, the performance features huge riffs, mighty bass faces, hair-raising falsetto, gigantic disco balls and a whole lotta pyro.

Frontman Justin Hawkins says: "THE DARKNESS is untamed. It cannot be caged. Some very clever recording engineers have discovered a way to capture its essence; all that remains is for us to release it back into the wild." He continues: "Life is about experiences, not possessions. This is your opportunity to possess the experience of THE DARKNESS live, as perceived by your ears, leaving your eyes free to scan the road ahead for obstacles, or to watch Emmerdale with the sound off, or to mould clay, or to darn socks, or to look at the beautiful artwork in this magnificent gatefold. Release yourself into THE DARKNESS 'Live At Hammersmith'."

To celebrate the release of "Live At Hammersmith", two songs from the live album are available for streaming now and as instant-grat downloads with pre-orders. The tracks include the swashbuckling "Pinewood Smile" highlight "Buccaneers Of Hispaniola" and the smash hit "I Believe In A Thing Called Love" from THE DARKNESS's four-times-platinum-selling debut album "Permission To Land".

Not resting on its "Tour De Prance" laurels, THE DARKNESS will hit the road again in June playing arenas across Europe in support of the HOLLYWOOD VAMPIRES supergroup featuring Johnny Depp, Alice Cooper and Joe Perry, and will be opening for the legendary QUEEN in July in the U.K.
Tracklist:
01. Open Fire
02. Love Is Only A Feeling
03. Southern Trains
04. Black Shuck
05. One Way Ticket
06. Givin' Up
07. All The Pretty Girls
08. Barbarian
09. Buccaneers Of Hispaniola
10. Friday Night
11. Makin' Out
12. Every Inch Of You
13. Solid Gold
14. Stuck In A Rut
15. Get Your Hands Off My Woman
16. Growing On Me
17. Japanese Prisoner Of Love
18. Christmas Time (Don't Let The Bells End)
19. I Believe In A Thing Called Love

Exact Audio Copy V1.3 from 2. September 2016

EAC extraction logfile from 18. June 2018, 19:14

The Darkness / Live at Hammersmith

Used drive : MATSHITABD-MLT UJ260 Adapter: 1 ID: 0

Read mode : Secure
Utilize accurate stream : Yes
Defeat audio cache : Yes
Make use of C2 pointers : No

Read offset correction : 103
Overread into Lead-In and Lead-Out : No
Fill up missing offset samples with silence : Yes
Delete leading and trailing silent blocks : No
Null samples used in CRC calculations : Yes
Used interface : Native Win32 interface for Win NT & 2000
Gap handling : Appended to previous track

Used output format : User Defined Encoder
Selected bitrate : 1024 kBit/s
Quality : High
Add ID3 tag : No
Command line compressor : C:\Program Files (x86)\Exact Audio Copy\Flac\flac.exe
Additional command line options : -8 -V -T "artist=%artist%" -T "title=%title%" -T "album=%albumtitle%" -T "date=%year%" -T "tracknumber=%tracknr%" -T "genre=%genre%" %source%


TOC of the extracted CD

Track | Start | Length | Start sector | End sector
––––––––––––––––––––––––––––-
1 | 0:00.00 | 4:02.33 | 0 | 18182
2 | 4:02.33 | 4:16.01 | 18183 | 37383
3 | 8:18.34 | 3:22.58 | 37384 | 52591
4 | 11:41.17 | 3:49.58 | 52592 | 69824
5 | 15:31.00 | 4:32.22 | 69825 | 90246
6 | 20:03.22 | 3:43.02 | 90247 | 106973
7 | 23:46.24 | 3:16.17 | 106974 | 121690
8 | 27:02.41 | 4:17.45 | 121691 | 141010
9 | 31:20.11 | 4:02.18 | 141011 | 159178
10 | 35:22.29 | 2:58.07 | 159179 | 172535
11 | 38:20.36 | 3:37.70 | 172536 | 188880
12 | 41:58.31 | 3:19.01 | 188881 | 203806
13 | 45:17.32 | 4:39.30 | 203807 | 224761
14 | 49:56.62 | 4:31.46 | 224762 | 245132
15 | 54:28.33 | 3:45.33 | 245133 | 262040
16 | 58:13.66 | 3:55.42 | 262041 | 279707
17 | 62:09.33 | 4:32.04 | 279708 | 300111
18 | 66:41.37 | 4:51.32 | 300112 | 321968
19 | 71:32.69 | 4:17.40 | 321969 | 341283


Track 1

Filename D:\EAC Rips\The Darkness - Live at Hammersmith [FLAC]\01 Open Fire.wav

Pre-gap length 0:00:02.00

Peak level 100.0 %
Extraction speed 2.5 X
Track quality 100.0 %
Test CRC 3198CDB8
Copy CRC 3198CDB8
Track not present in AccurateRip database
Copy OK

Track 2

Filename D:\EAC Rips\The Darkness - Live at Hammersmith [FLAC]\02 Love is Only a Feeling.wav

Peak level 100.0 %
Extraction speed 2.8 X
Track quality 100.0 %
Test CRC DC2B3050
Copy CRC DC2B3050
Track not present in AccurateRip database
Copy OK

Track 3

Filename D:\EAC Rips\The Darkness - Live at Hammersmith [FLAC]\03 Southern Trains.wav

Peak level 100.0 %
Extraction speed 2.9 X
Track quality 100.0 %
Test CRC CB3AF8B4
Copy CRC CB3AF8B4
Track not present in AccurateRip database
Copy OK

Track 4

Filename D:\EAC Rips\The Darkness - Live at Hammersmith [FLAC]\04 Black Shuck.wav

Peak level 100.0 %
Extraction speed 3.1 X
Track quality 100.0 %
Test CRC A6EF6479
Copy CRC A6EF6479
Track not present in AccurateRip database
Copy OK

Track 5

Filename D:\EAC Rips\The Darkness - Live at Hammersmith [FLAC]\05 One Way Ticket.wav

Peak level 100.0 %
Extraction speed 3.4 X
Track quality 100.0 %
Test CRC FCBEBE31
Copy CRC FCBEBE31
Track not present in AccurateRip database
Copy OK

Track 6

Filename D:\EAC Rips\The Darkness - Live at Hammersmith [FLAC]\06 Givin' Up.wav

Peak level 100.0 %
Extraction speed 3.5 X
Track quality 100.0 %
Test CRC E7F57C7F
Copy CRC E7F57C7F
Track not present in AccurateRip database
Copy OK

Track 7

Filename D:\EAC Rips\The Darkness - Live at Hammersmith [FLAC]\07 All the Pretty Girls.wav

Peak level 100.0 %
Extraction speed 2.6 X
Track quality 99.9 %
Test CRC F5C3BF44
Copy CRC F5C3BF44
Track not present in AccurateRip database
Copy OK

Track 8

Filename D:\EAC Rips\The Darkness - Live at Hammersmith [FLAC]\08 Barbarian.wav

Peak level 100.0 %
Extraction speed 3.0 X
Track quality 99.9 %
Test CRC 852155B0
Copy CRC 852155B0
Track not present in AccurateRip database
Copy OK

Track 9

Filename D:\EAC Rips\The Darkness - Live at Hammersmith [FLAC]\09 Buccaneers of Hispaniola.wav

Peak level 100.0 %
Extraction speed 4.0 X
Track quality 100.0 %
Test CRC D6F32027
Copy CRC D6F32027
Track not present in AccurateRip database
Copy OK

Track 10

Filename D:\EAC Rips\The Darkness - Live at Hammersmith [FLAC]\10 Friday Night.wav

Peak level 100.0 %
Extraction speed 3.9 X
Track quality 100.0 %
Test CRC BE0BFEE7
Copy CRC BE0BFEE7
Track not present in AccurateRip database
Copy OK

Track 11

Filename D:\EAC Rips\The Darkness - Live at Hammersmith [FLAC]\11 Makin' Out.wav

Peak level 100.0 %
Extraction speed 4.2 X
Track quality 100.0 %
Test CRC 9A200118
Copy CRC 9A200118
Track not present in AccurateRip database
Copy OK

Track 12

Filename D:\EAC Rips\The Darkness - Live at Hammersmith [FLAC]\12 Every Inch of You.wav

Peak level 100.0 %
Extraction speed 4.2 X
Track quality 100.0 %
Test CRC 9D303870
Copy CRC 9D303870
Track not present in AccurateRip database
Copy OK

Track 13

Filename D:\EAC Rips\The Darkness - Live at Hammersmith [FLAC]\13 Solid Gold.wav

Peak level 100.0 %
Extraction speed 4.5 X
Track quality 100.0 %
Test CRC F3476B6E
Copy CRC F3476B6E
Track not present in AccurateRip database
Copy OK

Track 14

Filename D:\EAC Rips\The Darkness - Live at Hammersmith [FLAC]\14 Stuck in a Rut.wav

Peak level 100.0 %
Extraction speed 4.6 X
Track quality 100.0 %
Test CRC F931A1D3
Copy CRC F931A1D3
Track not present in AccurateRip database
Copy OK

Track 15

Filename D:\EAC Rips\The Darkness - Live at Hammersmith [FLAC]\15 Get Your Hands Off My Woman.wav

Peak level 100.0 %
Extraction speed 3.5 X
Track quality 99.9 %
Test CRC C6FA76D1
Copy CRC C6FA76D1
Track not present in AccurateRip database
Copy OK

Track 16

Filename D:\EAC Rips\The Darkness - Live at Hammersmith [FLAC]\16 Growing On Me.wav

Peak level 100.0 %
Extraction speed 4.8 X
Track quality 100.0 %
Test CRC 7E19314C
Copy CRC 7E19314C
Track not present in AccurateRip database
Copy OK

Track 17

Filename D:\EAC Rips\The Darkness - Live at Hammersmith [FLAC]\17 Japanese Prisoner of Love.wav

Peak level 100.0 %
Extraction speed 5.0 X
Track quality 100.0 %
Test CRC F3F8E991
Copy CRC F3F8E991
Track not present in AccurateRip database
Copy OK

Track 18

Filename D:\EAC Rips\The Darkness - Live at Hammersmith [FLAC]\18 Christmas Time (Don't Let the Bells End).wav

Peak level 100.0 %
Extraction speed 5.2 X
Track quality 100.0 %
Test CRC 712E10B7
Copy CRC 712E10B7
Track not present in AccurateRip database
Copy OK

Track 19

Filename D:\EAC Rips\The Darkness - Live at Hammersmith [FLAC]\19 I Believe in a Thing Called Love.wav

Peak level 100.0 %
Extraction speed 5.2 X
Track quality 100.0 %
Test CRC 611FD5E3
Copy CRC 611FD5E3
Track not present in AccurateRip database
Copy OK


None of the tracks are present in the AccurateRip database

No errors occurred

End of status report

–– CUETools DB Plugin V2.1.6

[CTDB TOCID: AjgGtF1DW3HjLcZMzUu.45DdZJ8-] disk not present in database
Submit result: AjgGtF1DW3HjLcZMzUu.45DdZJ8- has been uploaded


==== Log checksum DEA9D3F1820D8A6C23E32F449812FDE35D71A8787CCF3F201EF177BD09F64757 ====

Thanks to the Original ripper jplaguna !