Subcategories

U-Men - U-Men (2017)

Posted By: delpotro
U-Men - U-Men (2017)

U-Men - U-Men (2017)
XLD Rip | FLAC (tracks+log+.cue) | 01:30:02 | 608 Mb
Punk Rock, Post-Punk, Art-Punk, Noise Rock, Grunge | Label: Sub Pop Records

The U-Men are one of the best bands I’ve ever seen. They were hypnotic, frenetic, powerful and compelling. It was impossible to resist getting sucked into their weird, darkly absurd world. They effortlessly blended The Sonics, Link Wray, Pere Ubu, and Captain Beefheart. Their shows were loose-limbed, drunken dance parties and no two shows were alike. The U-Men were avant-garage explorers and, most importantly, they fucking rocked. I was lucky enough to live in their hometown and I saw them every chance I could.

From 1983 to 1987, the U-Men were the undisputed kings of the Seattle Underground. No one else came close. They ruled a bleak backwater landscape populated by maybe 200 people. They were the only band that could unify the disparate sub-subcultures and get all 200 of those people to fill a room. Anglophilic, dress-dark Goths; neo-psych MDA acolytes; skate punks who shit in bathtubs at parties; Mod vigilantes who tormented the homeless with pellet guns; college kids who thought college kids were lame; Industrial Artistes; some random guy with a moustache; and eccentrics who insisted that they couldn’t be pigeonholed: all coalesced around the U-Men.

Sub Pop co-founder, Bruce Pavitt released the first record by the U-Men, a 4-song 12” EP on Bombshelter Records. By the time they had recorded songs for another record, Bruce was too broke to release it on his proto-Sub Pop label, so he hooked them up with Gerard Cosloy at Homestead Records. This was a big deal. Homestead had a heavy rep at the time with recent releases by Foetus, Nick Cave, Sonic Youth, and Big Black. I was sure that the release of their second 12”, Stop Spinning, would propel the U-Men into the ranks of those Homestead acts and the worldwide underground would get hip to Seattle’s finest. Following the departure of bassist Jim Tillman, the later incarnation of the band recorded two fantastic singles, and recorded their one full-length album, Step on a Bug, for Black Label which was run out of Fallout Records. They became increasingly disenchanted with the direction the Seattle underground was heading and called it quits in 1989.

The U-Men had nothing to do with Grunge. They were their own unique thing. I loved them and I still miss them. I remember thinking at the time that most of their recordings were a little soft and didn’t capture the power of the band live. Now, thirty years later, their records sound great to me and we are lucky that they exist. I’m stoked that Sub Pop complied these long out-of-print records and scrounged up some unreleased songs so that everyone has a chance to take a trip back to old weird Seattle. —Mark Arm, Seattle, August 2017
Tracklist:
1. Blight (02:36)
2. Flowers DGIH (04:22)
3. Shoot 'Em Down (04:07)
4. Gila (02:18)
5. Trouble Under Water (02:44)
6. Mystery Pain (03:31)
7. Last Lunch (02:08)
8. Clubs (04:19)
9. The Fumes (03:23)
10. Cow Rock (02:43)
11. Green Trumpet (03:52)
12. A Year and a Day (03:52)
13. Ten After One (02:56)
14. They! (03:32)
15. U-Men Stomp (04:12)
16. Solid Action (02:11)
17. Dig It a Hole (02:21)
18. Whistlin' Pete (03:46)
19. 2 X 4 (02:00)
20. A Three Year Old Could Do That (02:34)
21. Juice Party (01:58)
22. Flea Circus (02:56)
23. Too Good to Be Food (02:19)
24. Willie Dong Hurts Dogs (02:03)
25. Papa Doesn't Love His Children Anymore (03:31)
26. Pay the Bubba (02:58)
27. Freezebomb (02:24)
28. That's Wild About Jack (03:34)
29. Bad Little Woman (02:33)
30. Selfish (02:07)

X Lossless Decoder version 20151214 (149.1)

XLD extraction logfile from 2017-11-05 17:37:12 -0500

U-Men / U-Men

Used drive : MATSHITA DVD-R UJ-8A8 (revision HA13)
Media type : Pressed CD

Ripper mode : XLD Secure Ripper
Disable audio cache : OK for the drive with a cache less than 1375KiB
Make use of C2 pointers : NO
Read offset correction : 102
Max retry count : 100
Gap status : Analyzed, Appended (except HTOA)

TOC of the extracted CD
Track | Start | Length | Start sector | End sector
––––––––––––––––––––––––––––-
1 | 00:00:00 | 02:36:45 | 0 | 11744
2 | 02:36:45 | 04:22:41 | 11745 | 31435
3 | 06:59:11 | 04:07:09 | 31436 | 49969
4 | 11:06:20 | 02:18:14 | 49970 | 60333
5 | 13:24:34 | 02:44:42 | 60334 | 72675
6 | 16:09:01 | 03:31:12 | 72676 | 88512
7 | 19:40:13 | 02:07:54 | 88513 | 98091
8 | 21:47:67 | 04:20:03 | 98092 | 117594
9 | 26:07:70 | 03:23:48 | 117595 | 132867
10 | 29:31:43 | 02:43:17 | 132868 | 145109
11 | 32:14:60 | 03:52:10 | 145110 | 162519
12 | 36:06:70 | 03:52:36 | 162520 | 179955
13 | 39:59:31 | 02:56:18 | 179956 | 193173
14 | 42:55:49 | 03:32:52 | 193174 | 209125
15 | 46:28:26 | 04:12:50 | 209126 | 228075
16 | 50:41:01 | 02:11:19 | 228076 | 237919
17 | 52:52:20 | 02:19:06 | 237920 | 248350

AccurateRip Summary
Disc not found in AccurateRip DB.

All Tracks
Album gain : -6.31 dB
Peak : 0.985718
Statistics
Read error : 0
Jitter error (maybe fixed) : 0
Retry sector count : 0
Damaged sector count : 0

Track 01
Filename : /Users/baconfat/Desktop/XLD rips/U-Men - U-Men (2017) [FLAC]/01 Blight.flac
Pre-gap length : 00:02:00

Track gain : -4.98 dB
Peak : 0.970123
CRC32 hash (test run) : 38100E5F
CRC32 hash : 38100E5F
CRC32 hash (skip zero) : 8118379E
AccurateRip v1 signature : A889B6BE
AccurateRip v2 signature : 6766DFE8
->Track not present in AccurateRip database.
Statistics
Read error : 0
Jitter error (maybe fixed) : 0
Retry sector count : 0
Damaged sector count : 0

Track 02
Filename : /Users/baconfat/Desktop/XLD rips/U-Men - U-Men (2017) [FLAC]/02 Flowers Dgih.flac
Pre-gap length : 00:00:53

Track gain : -3.64 dB
Peak : 0.969910
CRC32 hash (test run) : 69FC3DB8
CRC32 hash : 69FC3DB8
CRC32 hash (skip zero) : 61237F80
AccurateRip v1 signature : EC7FC8F5
AccurateRip v2 signature : A687C349
->Track not present in AccurateRip database.
Statistics
Read error : 0
Jitter error (maybe fixed) : 0
Retry sector count : 0
Damaged sector count : 0

Track 03
Filename : /Users/baconfat/Desktop/XLD rips/U-Men - U-Men (2017) [FLAC]/03 Shoot 'em Down.flac
Pre-gap length : 00:00:45

Track gain : -5.34 dB
Peak : 0.970062
CRC32 hash (test run) : FB4F413A
CRC32 hash : FB4F413A
CRC32 hash (skip zero) : 4CE908EE
AccurateRip v1 signature : 4DD1791F
AccurateRip v2 signature : 46E2A700
->Track not present in AccurateRip database.
Statistics
Read error : 0
Jitter error (maybe fixed) : 0
Retry sector count : 0
Damaged sector count : 0

Track 04
Filename : /Users/baconfat/Desktop/XLD rips/U-Men - U-Men (2017) [FLAC]/04 Gila.flac
Pre-gap length : 00:00:16

Track gain : -5.07 dB
Peak : 0.972198
CRC32 hash (test run) : D66D8DFB
CRC32 hash : D66D8DFB
CRC32 hash (skip zero) : 62559DE8
AccurateRip v1 signature : C83D4EB1
AccurateRip v2 signature : 09330F11
->Track not present in AccurateRip database.
Statistics
Read error : 0
Jitter error (maybe fixed) : 0
Retry sector count : 0
Damaged sector count : 0

Track 05
Filename : /Users/baconfat/Desktop/XLD rips/U-Men - U-Men (2017) [FLAC]/05 Trouble Under Water.flac

Track gain : -5.99 dB
Peak : 0.970215
CRC32 hash (test run) : 22163973
CRC32 hash : 22163973
CRC32 hash (skip zero) : B8F8F7F5
AccurateRip v1 signature : 32F53E23
AccurateRip v2 signature : 7F97DB90
->Track not present in AccurateRip database.
Statistics
Read error : 0
Jitter error (maybe fixed) : 0
Retry sector count : 0
Damaged sector count : 0

Track 06
Filename : /Users/baconfat/Desktop/XLD rips/U-Men - U-Men (2017) [FLAC]/06 Mystery Pain.flac
Pre-gap length : 00:00:29

Track gain : -5.55 dB
Peak : 0.970764
CRC32 hash (test run) : 8281669B
CRC32 hash : 8281669B
CRC32 hash (skip zero) : CC712DF2
AccurateRip v1 signature : 621BF663
AccurateRip v2 signature : 43F8DA93
->Track not present in AccurateRip database.
Statistics
Read error : 0
Jitter error (maybe fixed) : 0
Retry sector count : 0
Damaged sector count : 0

Track 07
Filename : /Users/baconfat/Desktop/XLD rips/U-Men - U-Men (2017) [FLAC]/07 Last Lunch.flac

Track gain : -7.21 dB
Peak : 0.976318
CRC32 hash (test run) : B98A59FB
CRC32 hash : B98A59FB
CRC32 hash (skip zero) : 4C1E4119
AccurateRip v1 signature : 6D5397C8
AccurateRip v2 signature : FED6AC76
->Track not present in AccurateRip database.
Statistics
Read error : 0
Jitter error (maybe fixed) : 0
Retry sector count : 0
Damaged sector count : 0

Track 08
Filename : /Users/baconfat/Desktop/XLD rips/U-Men - U-Men (2017) [FLAC]/08 Clubs.flac

Track gain : -6.48 dB
Peak : 0.974518
CRC32 hash (test run) : 1B029081
CRC32 hash : 1B029081
CRC32 hash (skip zero) : C27EE50D
AccurateRip v1 signature : DCF0075F
AccurateRip v2 signature : D387C360
->Track not present in AccurateRip database.
Statistics
Read error : 0
Jitter error (maybe fixed) : 0
Retry sector count : 0
Damaged sector count : 0

Track 09
Filename : /Users/baconfat/Desktop/XLD rips/U-Men - U-Men (2017) [FLAC]/09 The Fumes.flac

Track gain : -5.79 dB
Peak : 0.969666
CRC32 hash (test run) : 20644369
CRC32 hash : 20644369
CRC32 hash (skip zero) : C904E89F
AccurateRip v1 signature : 2E862CFB
AccurateRip v2 signature : E867A6D7
->Track not present in AccurateRip database.
Statistics
Read error : 0
Jitter error (maybe fixed) : 0
Retry sector count : 0
Damaged sector count : 0

Track 10
Filename : /Users/baconfat/Desktop/XLD rips/U-Men - U-Men (2017) [FLAC]/10 Cow Rock.flac
Pre-gap length : 00:00:57

Track gain : -6.47 dB
Peak : 0.974426
CRC32 hash (test run) : 099C4E59
CRC32 hash : 099C4E59
CRC32 hash (skip zero) : 9798FC1A
AccurateRip v1 signature : 0D469597
AccurateRip v2 signature : 7FE7084A
->Track not present in AccurateRip database.
Statistics
Read error : 0
Jitter error (maybe fixed) : 0
Retry sector count : 0
Damaged sector count : 0

Track 11
Filename : /Users/baconfat/Desktop/XLD rips/U-Men - U-Men (2017) [FLAC]/11 Green Trumpet.flac
Pre-gap length : 00:00:27

Track gain : -4.94 dB
Peak : 0.976379
CRC32 hash (test run) : FA7DA9C2
CRC32 hash : FA7DA9C2
CRC32 hash (skip zero) : 624D9660
AccurateRip v1 signature : 268CCA5F
AccurateRip v2 signature : F086F7BF
->Track not present in AccurateRip database.
Statistics
Read error : 0
Jitter error (maybe fixed) : 0
Retry sector count : 0
Damaged sector count : 0

Track 12
Filename : /Users/baconfat/Desktop/XLD rips/U-Men - U-Men (2017) [FLAC]/12 A Year and a Day.flac
Pre-gap length : 00:01:64

Track gain : -4.88 dB
Peak : 0.973907
CRC32 hash (test run) : 5D71D80A
CRC32 hash : 5D71D80A
CRC32 hash (skip zero) : BB91BB67
AccurateRip v1 signature : A7A57953
AccurateRip v2 signature : 390650F1
->Track not present in AccurateRip database.
Statistics
Read error : 0
Jitter error (maybe fixed) : 0
Retry sector count : 0
Damaged sector count : 0

Track 13
Filename : /Users/baconfat/Desktop/XLD rips/U-Men - U-Men (2017) [FLAC]/13 Ten After One.flac
Pre-gap length : 00:02:36

Track gain : -8.17 dB
Peak : 0.978210
CRC32 hash (test run) : E77936DD
CRC32 hash : E77936DD
CRC32 hash (skip zero) : 7BD556F2
AccurateRip v1 signature : 8A38C0F0
AccurateRip v2 signature : FEC31BC2
->Track not present in AccurateRip database.
Statistics
Read error : 0
Jitter error (maybe fixed) : 0
Retry sector count : 0
Damaged sector count : 0

Track 14
Filename : /Users/baconfat/Desktop/XLD rips/U-Men - U-Men (2017) [FLAC]/14 They!.flac

Track gain : -7.06 dB
Peak : 0.972687
CRC32 hash (test run) : AD9B29DF
CRC32 hash : AD9B29DF
CRC32 hash (skip zero) : 43A832EE
AccurateRip v1 signature : 36D7120D
AccurateRip v2 signature : 3F924E3F
->Track not present in AccurateRip database.
Statistics
Read error : 0
Jitter error (maybe fixed) : 0
Retry sector count : 0
Damaged sector count : 0

Track 15
Filename : /Users/baconfat/Desktop/XLD rips/U-Men - U-Men (2017) [FLAC]/15 U-Men Stomp.flac
Pre-gap length : 00:00:62

Track gain : -5.00 dB
Peak : 0.971710
CRC32 hash (test run) : 97E460E4
CRC32 hash : 97E460E4
CRC32 hash (skip zero) : E0449B72
AccurateRip v1 signature : EC1D8A2E
AccurateRip v2 signature : 613B685E
->Track not present in AccurateRip database.
Statistics
Read error : 0
Jitter error (maybe fixed) : 0
Retry sector count : 0
Damaged sector count : 0

Track 16
Filename : /Users/baconfat/Desktop/XLD rips/U-Men - U-Men (2017) [FLAC]/16 Solid Action.flac
Pre-gap length : 00:02:06

Track gain : -5.38 dB
Peak : 0.981964
CRC32 hash (test run) : 9E9E0988
CRC32 hash : 9E9E0988
CRC32 hash (skip zero) : 251E0AF5
AccurateRip v1 signature : C12589F1
AccurateRip v2 signature : C18195CF
->Track not present in AccurateRip database.
Statistics
Read error : 0
Jitter error (maybe fixed) : 0
Retry sector count : 0
Damaged sector count : 0

Track 17
Filename : /Users/baconfat/Desktop/XLD rips/U-Men - U-Men (2017) [FLAC]/17 Dig It a Hole.flac
Pre-gap length : 00:01:26

Track gain : -6.07 dB
Peak : 0.985718
CRC32 hash (test run) : 86FBC5F1
CRC32 hash : 86FBC5F1
CRC32 hash (skip zero) : 2A2DECFA
AccurateRip v1 signature : C540239C
AccurateRip v2 signature : 1D76145D
->Track not present in AccurateRip database.
Statistics
Read error : 0
Jitter error (maybe fixed) : 0
Retry sector count : 0
Damaged sector count : 0

No errors occurred

End of status report

––-BEGIN XLD SIGNATURE––-
eClkhkRPYwLseL_vqZ_UlL619NC64xd4b.wYAiWIq9Kk1qEQ0WFK_EKV2Av4.Pr2MbnBNYpQB70u3wnxlRXLapEIhul0kfTbGfr81mK
––-END XLD SIGNATURE––-
X Lossless Decoder version 20151214 (149.1)

XLD extraction logfile from 2017-11-05 19:17:23 -0500

U-Men / U-Men

Used drive : MATSHITA DVD-R UJ-8A8 (revision HA13)
Media type : Pressed CD

Ripper mode : XLD Secure Ripper
Disable audio cache : OK for the drive with a cache less than 1375KiB
Make use of C2 pointers : NO
Read offset correction : 102
Max retry count : 100
Gap status : Analyzed, Appended (except HTOA)

TOC of the extracted CD
Track | Start | Length | Start sector | End sector
––––––––––––––––––––––––––––-
1 | 00:00:00 | 03:46:64 | 0 | 17013
2 | 03:46:64 | 02:00:49 | 17014 | 26062
3 | 05:47:38 | 02:34:22 | 26063 | 37634
4 | 08:21:60 | 01:58:48 | 37635 | 46532
5 | 10:20:33 | 02:56:44 | 46533 | 59776
6 | 13:17:02 | 02:19:42 | 59777 | 70243
7 | 15:36:44 | 02:03:58 | 70244 | 79526
8 | 17:40:27 | 03:31:24 | 79527 | 95375
9 | 21:11:51 | 03:00:16 | 95376 | 108891
10 | 24:11:67 | 02:24:19 | 108892 | 119710
11 | 26:36:11 | 03:34:62 | 119711 | 135822
12 | 30:10:73 | 02:33:06 | 135823 | 147303
13 | 32:44:04 | 02:07:13 | 147304 | 156841

AccurateRip Summary
Disc not found in AccurateRip DB.

All Tracks
Album gain : -5.50 dB
Peak : 0.985779
Statistics
Read error : 0
Jitter error (maybe fixed) : 0
Retry sector count : 0
Damaged sector count : 0

Track 01
Filename : /Users/baconfat/Desktop/XLD rips/U-Men - U-Men (2017) [FLAC]/01 2 X 4.flac
Pre-gap length : 00:02:00

Track gain : -4.37 dB
Peak : 0.974243
CRC32 hash (test run) : C1A9E331
CRC32 hash : C1A9E331
CRC32 hash (skip zero) : 0B835C4C
AccurateRip v1 signature : 28F9F661
AccurateRip v2 signature : F29F5BC5
->Track not present in AccurateRip database.
Statistics
Read error : 0
Jitter error (maybe fixed) : 0
Retry sector count : 0
Damaged sector count : 0

Track 02
Filename : /Users/baconfat/Desktop/XLD rips/U-Men - U-Men (2017) [FLAC]/02 A Three Year Old Could Do It.flac
Pre-gap length : 00:02:22

Track gain : -4.66 dB
Peak : 0.978363
CRC32 hash (test run) : 60C879E6
CRC32 hash : 60C879E6
CRC32 hash (skip zero) : AB0B5759
AccurateRip v1 signature : E53C2FD3
AccurateRip v2 signature : 9B8FECBB
->Track not present in AccurateRip database.
Statistics
Read error : 0
Jitter error (maybe fixed) : 0
Retry sector count : 0
Damaged sector count : 0

Track 03
Filename : /Users/baconfat/Desktop/XLD rips/U-Men - U-Men (2017) [FLAC]/03 Juice Party.flac
Pre-gap length : 00:01:30

Track gain : -5.70 dB
Peak : 0.970154
CRC32 hash (test run) : AF2B3E27
CRC32 hash : AF2B3E27
CRC32 hash (skip zero) : 6F86DCB8
AccurateRip v1 signature : 047737A1
AccurateRip v2 signature : B9000BDA
->Track not present in AccurateRip database.
Statistics
Read error : 0
Jitter error (maybe fixed) : 0
Retry sector count : 0
Damaged sector count : 0

Track 04
Filename : /Users/baconfat/Desktop/XLD rips/U-Men - U-Men (2017) [FLAC]/04 Flea Circus.flac
Pre-gap length : 00:01:12

Track gain : -6.81 dB
Peak : 0.971161
CRC32 hash (test run) : E68E9838
CRC32 hash : E68E9838
CRC32 hash (skip zero) : 18ED0D39
AccurateRip v1 signature : 7CDF568A
AccurateRip v2 signature : CE7CB673
->Track not present in AccurateRip database.
Statistics
Read error : 0
Jitter error (maybe fixed) : 0
Retry sector count : 0
Damaged sector count : 0

Track 05
Filename : /Users/baconfat/Desktop/XLD rips/U-Men - U-Men (2017) [FLAC]/05 Too Good to be Food.flac
Pre-gap length : 00:01:21

Track gain : -5.17 dB
Peak : 0.969025
CRC32 hash (test run) : AC0A22DC
CRC32 hash : AC0A22DC
CRC32 hash (skip zero) : E5E5205A
AccurateRip v1 signature : BC0394E9
AccurateRip v2 signature : 18FEAEAF
->Track not present in AccurateRip database.
Statistics
Read error : 0
Jitter error (maybe fixed) : 0
Retry sector count : 0
Damaged sector count : 0

Track 06
Filename : /Users/baconfat/Desktop/XLD rips/U-Men - U-Men (2017) [FLAC]/06 Willy Dong Hurts Dogs.flac

Track gain : -4.32 dB
Peak : 0.972107
CRC32 hash (test run) : 861C024F
CRC32 hash : 861C024F
CRC32 hash (skip zero) : 1CC6AF41
AccurateRip v1 signature : D28FACFA
AccurateRip v2 signature : EC257634
->Track not present in AccurateRip database.
Statistics
Read error : 0
Jitter error (maybe fixed) : 0
Retry sector count : 0
Damaged sector count : 0

Track 07
Filename : /Users/baconfat/Desktop/XLD rips/U-Men - U-Men (2017) [FLAC]/07 Papa Doesn't Love His.flac
Pre-gap length : 00:00:31

Track gain : -5.63 dB
Peak : 0.974213
CRC32 hash (test run) : CA490AA8
CRC32 hash : CA490AA8
CRC32 hash (skip zero) : 7E48C275
AccurateRip v1 signature : C08197CB
AccurateRip v2 signature : 8D4BF2DC
->Track not present in AccurateRip database.
Statistics
Read error : 0
Jitter error (maybe fixed) : 0
Retry sector count : 0
Damaged sector count : 0

Track 08
Filename : /Users/baconfat/Desktop/XLD rips/U-Men - U-Men (2017) [FLAC]/08 Children Anymore.flac
Pre-gap length : 00:01:06

Track gain : -2.70 dB
Peak : 0.968018
CRC32 hash (test run) : 1A4F5510
CRC32 hash : 1A4F5510
CRC32 hash (skip zero) : BFAD076E
AccurateRip v1 signature : 0D85AAB8
AccurateRip v2 signature : B0C8C5C0
->Track not present in AccurateRip database.
Statistics
Read error : 0
Jitter error (maybe fixed) : 0
Retry sector count : 0
Damaged sector count : 0

Track 09
Filename : /Users/baconfat/Desktop/XLD rips/U-Men - U-Men (2017) [FLAC]/09 Pay the Bubba.flac
Pre-gap length : 00:01:06

Track gain : -5.24 dB
Peak : 0.974091
CRC32 hash (test run) : DA59DB53
CRC32 hash : DA59DB53
CRC32 hash (skip zero) : F473005A
AccurateRip v1 signature : 9EC9932A
AccurateRip v2 signature : 7A698F5B
->Track not present in AccurateRip database.
Statistics
Read error : 0
Jitter error (maybe fixed) : 0
Retry sector count : 0
Damaged sector count : 0

Track 10
Filename : /Users/baconfat/Desktop/XLD rips/U-Men - U-Men (2017) [FLAC]/10 Freezebomb.flac
Pre-gap length : 00:02:00

Track gain : -6.99 dB
Peak : 0.970947
CRC32 hash (test run) : 12569471
CRC32 hash : 12569471
CRC32 hash (skip zero) : 87521FDB
AccurateRip v1 signature : 38BCEE22
AccurateRip v2 signature : B7464F6A
->Track not present in AccurateRip database.
Statistics
Read error : 0
Jitter error (maybe fixed) : 0
Retry sector count : 0
Damaged sector count : 0

Track 11
Filename : /Users/baconfat/Desktop/XLD rips/U-Men - U-Men (2017) [FLAC]/11 That's Wild About Jack.flac
Pre-gap length : 00:00:19

Track gain : -6.52 dB
Peak : 0.972351
CRC32 hash (test run) : 6F9EFEAB
CRC32 hash : 6F9EFEAB
CRC32 hash (skip zero) : 10F07611
AccurateRip v1 signature : 0944860B
AccurateRip v2 signature : 0EE546B1
->Track not present in AccurateRip database.
Statistics
Read error : 0
Jitter error (maybe fixed) : 0
Retry sector count : 0
Damaged sector count : 0

Track 12
Filename : /Users/baconfat/Desktop/XLD rips/U-Men - U-Men (2017) [FLAC]/12 Bad Little Women.flac
Pre-gap length : 00:01:17

Track gain : -2.92 dB
Peak : 0.985779
CRC32 hash (test run) : 2240D6E9
CRC32 hash : 2240D6E9
CRC32 hash (skip zero) : 0A80D9D4
AccurateRip v1 signature : CBFF84D6
AccurateRip v2 signature : 4F391481
->Track not present in AccurateRip database.
Statistics
Read error : 0
Jitter error (maybe fixed) : 0
Retry sector count : 0
Damaged sector count : 0

Track 13
Filename : /Users/baconfat/Desktop/XLD rips/U-Men - U-Men (2017) [FLAC]/13 Selfish.flac
Pre-gap length : 00:00:10

Track gain : -5.84 dB
Peak : 0.979736
CRC32 hash (test run) : 5D2FB41C
CRC32 hash : 5D2FB41C
CRC32 hash (skip zero) : 3B4B1244
AccurateRip v1 signature : 32E0ABD6
AccurateRip v2 signature : E5FE5C48
->Track not present in AccurateRip database.
Statistics
Read error : 0
Jitter error (maybe fixed) : 0
Retry sector count : 0
Damaged sector count : 0

No errors occurred

End of status report

––-BEGIN XLD SIGNATURE––-
qZDoI_nV4Et4hLSq.rGg9mUaAgGwZWVSTVOl1AciYu7gDxYYfOtdUtoZYEYKiYmf4rxPtIHHrOYeR0gPuod5SdghMQf2lI6apvtYDmW
––-END XLD SIGNATURE––-

Thanks to the Original ripper !