Subcategories

VA - The Best Of 60's (2015) 2CD

Posted By: SuniR
VA - The Best Of 60's (2015) 2CD

VA - The Best Of 60's (2015) 2CD
EAC | FLAC (log,tracks+cue) -> 461 Mb (5% Rec.)
Mp3 CBR320 Kbps -> 195 Mb (5% Rec.) | Scans included
Funk, Soul, Pop, Rock | Label: Minos-EMI / Universal, #:060254750288 9 | 01:16:23

The Best Of 60's. 2 collector's CD with the greatest hits that made history, from 1960 to 1970, include Dusty Spriengfield, The Supremes, The Four Tops, Marvin Gaye, Tom Jones, The Temptations, The Velvet Underground, Nico, The Jackson 5, Johnny Hallyday, The Marvellettes, Smokey Robinson, The Miracles, The Throggs, Jimmy Cliff. Issued with greek newspaper "Real News".

Tracklist:

CD 1:
01. Dusty Springfield - The look of love (03:32)
02. Bobby Hebb - Sunny (02:46)
03. The Supremes - Baby love (02:50)
04. The Four Tops - Reach out , I'll be there (03:01)
05. Marvin Gaye - I heard it through tha grapevine (03:12)
06. The Temptations - My girl (02:57)
07. The Contours - Do you love me (02:53)
08. The Richteous Brothers - Unchained melody (03:38)
09. The Marvelettes - Please Mr Postman (02:30)
10. Mary Wells - My guy (02:49)
11. Smokey Robinson & The Miracles - The tracks of my tears (03:02)
12. The Jackson 5 - Abc (03:00)
13. Bruce Channel - Hey baby (02:22)

CD 2:
01. Dusty Springfield - Wild thing (02:35)
02. Martha Reeves & The Vandellas - Dancing in the street (02:40)
03. Tom Jones - What's new Pussycat (02:06)
04. The Supremes - You keep me hanging' on (03:13)
05. Dusty Springfield - Son of a preacher man (02:26)
06. Edwin Starr - War (03:22)
07. Jimmy Ruffin - What becomes of the brokenhearted (03:03)
08. Jimmy Cliff - Many rivers to cross (03:01)
09. Soeur Sourire - Dominique (02:54)
10. The Velvet Underground & Nico - Femme Fatale (02:39)
11. Johnny Hallyday - Retiens la nuit (02:55)
12. Herve Vilard - Capri c'est fini (03:35)
13. Tom Jones - Delilah (03:22)

Exact Audio Copy V1.0 beta 3 from 29. August 2011

EAC extraction logfile from 9. August 2015, 22:25

Various / The Best Of '60's Cd1

Used drive : TSSTcorpCDDVDW SH-224DB Adapter: 0 ID: 0

Read mode : Secure
Utilize accurate stream : Yes
Defeat audio cache : Yes
Make use of C2 pointers : No

Read offset correction : 6
Overread into Lead-In and Lead-Out : No
Fill up missing offset samples with silence : Yes
Delete leading and trailing silent blocks : No
Null samples used in CRC calculations : Yes
Used interface : Native Win32 interface for Win NT & 2000
Gap handling : Appended to previous track

Used output format : User Defined Encoder
Selected bitrate : 1024 kBit/s
Quality : High
Add ID3 tag : No
Command line compressor : C:\Program Files (x86)\Exact Audio Copy\FLAC\FLAC.EXE
Additional command line options : -8 -V -T "ARTIST=%artist%" -T "TITLE=%title%" -T "ALBUM=%albumtitle%" -T "DATE=%year%" -T "TRACKNUMBER=%tracknr%" -T "GENRE=%genre%" -T "PERFORMER=%albuminterpret%" -T "COMPOSER=%composer%" %haslyrics%–tag-from-file=LYRICS="%lyricsfile%"%haslyrics% -T "ALBUMARTIST=%albumartist%" -T "DISCNUMBER=%cdnumber%" -T "TOTALDISCS=%totalcds%" -T "TOTALTRACKS=%numtracks%" -T "COMMENT=%comment%" %source% -o %dest%


TOC of the extracted CD

Track | Start | Length | Start sector | End sector
––––––––––––––––––––––––––––-
1 | 0:00.00 | 3:31.70 | 0 | 15894
2 | 3:31.70 | 2:46.28 | 15895 | 28372
3 | 6:18.23 | 2:49.60 | 28373 | 41107
4 | 9:08.08 | 3:00.71 | 41108 | 54678
5 | 12:09.04 | 3:12.28 | 54679 | 69106
6 | 15:21.32 | 2:56.70 | 69107 | 82376
7 | 18:18.27 | 2:53.34 | 82377 | 95385
8 | 21:11.61 | 3:37.73 | 95386 | 111733
9 | 24:49.59 | 2:30.05 | 111734 | 122988
10 | 27:19.64 | 2:49.29 | 122989 | 135692
11 | 30:09.18 | 3:02.15 | 135693 | 149357
12 | 33:11.33 | 3:00.13 | 149358 | 162870
13 | 36:11.46 | 2:21.54 | 162871 | 173499


Track 1

Filename C:\Downloads\CD Ripped\01 - The look of love.wav

Pre-gap length 0:00:02.00

Peak level 96.5 %
Extraction speed 1.7 X
Track quality 100.0 %
Test CRC D0A4101B
Copy CRC D0A4101B
Track not present in AccurateRip database
Copy OK

Track 2

Filename C:\Downloads\CD Ripped\02 - Sunny.wav

Pre-gap length 0:00:02.00

Peak level 97.7 %
Extraction speed 1.7 X
Track quality 100.0 %
Test CRC ED27CE74
Copy CRC ED27CE74
Track not present in AccurateRip database
Copy OK

Track 3

Filename C:\Downloads\CD Ripped\03 - Baby love.wav

Pre-gap length 0:00:02.00

Peak level 96.5 %
Extraction speed 1.8 X
Track quality 100.0 %
Test CRC E6EBF092
Copy CRC E6EBF092
Track not present in AccurateRip database
Copy OK

Track 4

Filename C:\Downloads\CD Ripped\04 - Reach out , I'll be there.wav

Pre-gap length 0:00:02.00

Peak level 93.3 %
Extraction speed 1.7 X
Track quality 99.9 %
Test CRC 616AEC8D
Copy CRC 616AEC8D
Track not present in AccurateRip database
Copy OK

Track 5

Filename C:\Downloads\CD Ripped\05 - I heard it through tha grapevine.wav

Pre-gap length 0:00:02.00

Peak level 96.5 %
Extraction speed 2.1 X
Track quality 100.0 %
Test CRC EF9ED925
Copy CRC EF9ED925
Track not present in AccurateRip database
Copy OK

Track 6

Filename C:\Downloads\CD Ripped\06 - My girl.wav

Pre-gap length 0:00:02.00

Peak level 97.7 %
Extraction speed 1.8 X
Track quality 99.9 %
Test CRC 48F301A9
Copy CRC 48F301A9
Track not present in AccurateRip database
Copy OK

Track 7

Filename C:\Downloads\CD Ripped\07 - Do you love me.wav

Pre-gap length 0:00:02.00

Peak level 96.5 %
Extraction speed 2.3 X
Track quality 100.0 %
Test CRC 3DA3DAFF
Copy CRC 3DA3DAFF
Track not present in AccurateRip database
Copy OK

Track 8

Filename C:\Downloads\CD Ripped\08 - Unchained melody.wav

Pre-gap length 0:00:02.00

Peak level 96.5 %
Extraction speed 2.5 X
Track quality 100.0 %
Test CRC 886DA2FD
Copy CRC 886DA2FD
Track not present in AccurateRip database
Copy OK

Track 9

Filename C:\Downloads\CD Ripped\09 - Please Mr Postman.wav

Pre-gap length 0:00:02.00

Peak level 97.7 %
Extraction speed 1.8 X
Track quality 99.9 %
Test CRC 6EEF314E
Copy CRC 6EEF314E
Track not present in AccurateRip database
Copy OK

Track 10

Filename C:\Downloads\CD Ripped\10 - My guy.wav

Pre-gap length 0:00:02.00

Peak level 93.3 %
Extraction speed 2.6 X
Track quality 100.0 %
Test CRC 35954A48
Copy CRC 35954A48
Track not present in AccurateRip database
Copy OK

Track 11

Filename C:\Downloads\CD Ripped\11 - The tracks of my tears.wav

Pre-gap length 0:00:02.00

Peak level 93.3 %
Extraction speed 2.7 X
Track quality 100.0 %
Test CRC 67D94ED8
Copy CRC 67D94ED8
Track not present in AccurateRip database
Copy OK

Track 12

Filename C:\Downloads\CD Ripped\12 - Abc.wav

Pre-gap length 0:00:02.00

Peak level 96.5 %
Extraction speed 2.8 X
Track quality 100.0 %
Test CRC 51EE63DA
Copy CRC 51EE63DA
Track not present in AccurateRip database
Copy OK

Track 13

Filename C:\Downloads\CD Ripped\13 - Hey baby.wav

Pre-gap length 0:00:02.00

Peak level 98.4 %
Extraction speed 2.7 X
Track quality 100.0 %
Test CRC EDC4C9F8
Copy CRC EDC4C9F8
Track not present in AccurateRip database
Copy OK


None of the tracks are present in the AccurateRip database

No errors occurred

End of status report

–– CUETools DB Plugin V2.1.3

[CTDB TOCID: ogc8ZAEjfGFFcdzCIwKoxRC.x9o-] found, Submit result: ogc8ZAEjfGFFcdzCIwKoxRC.x9o- has been confirmed
[22848e86] (1/1) Accurately ripped


==== Log checksum 325B5FED7F2162C0DE4427E83176F34F9E2923DB97DF34B7862331A0FAF95DBE ====

foobar2000 1.3.6 / Dynamic Range Meter 1.1.1
log date: 2018-01-15 19:07:46

––––––––––––––––––––––––––––––––––––––––
Analyzed: Bobby Hebb / The Best Of '60's Cd1 (1)
Bruce Channel / The Best Of '60's Cd1 (2)
Dusty Springfield / The Best Of '60's Cd1 (3)
Marvin Gaye / The Best Of '60's Cd1 (4)
Mary Wells / The Best Of '60's Cd1 (5)
Smokey Robinson & The Miracles / The Best Of '60's Cd1 (6)
The Contours / The Best Of '60's Cd1 (7)
The Four Tops / The Best Of '60's Cd1 (8)
The Jackson 5 / The Best Of '60's Cd1 (9)
The Marvelettes / The Best Of '60's Cd1 (10)
The Richteous Brothers / The Best Of '60's Cd1 (11)
The Supremes / The Best Of '60's Cd1 (12)
The Temptations / The Best Of '60's Cd1 (13)
––––––––––––––––––––––––––––––––––––––––

DR Peak RMS Duration Track
––––––––––––––––––––––––––––––––––––––––
DR9 -0.20 dB -11.38 dB 2:46 02-Sunny
DR9 -0.14 dB -11.81 dB 2:22 13-Hey baby
DR9 -0.30 dB -12.13 dB 3:32 01-The look of love
DR10 -0.30 dB -12.02 dB 3:12 05-I heard it through tha grapevine
DR8 -0.60 dB -10.08 dB 2:49 10-My guy
DR7 -0.60 dB -8.85 dB 3:02 11-The tracks of my tears
DR9 -0.30 dB -11.01 dB 2:53 07-Do you love me
DR7 -0.60 dB -9.34 dB 3:01 04-Reach out , I'll be there
DR9 -0.30 dB -10.13 dB 3:00 12-Abc
DR8 -0.20 dB -9.13 dB 2:30 09-Please Mr Postman
DR10 -0.30 dB -12.49 dB 3:38 08-Unchained melody
DR9 -0.30 dB -10.22 dB 2:50 03-Baby love
DR9 -0.20 dB -10.61 dB 2:57 06-My girl
––––––––––––––––––––––––––––––––––––––––

Number of tracks: 13
Official DR value: DR9

Samplerate: 44100 Hz
Channels: 2
Bits per sample: 16
Bitrate: 615 kbps
Codec: FLAC
================================================================================

Exact Audio Copy V1.0 beta 3 from 29. August 2011

EAC extraction logfile from 9. August 2015, 23:28

Various / The Best Of '60's Cd2

Used drive : TSSTcorpCDDVDW SH-224DB Adapter: 0 ID: 0

Read mode : Secure
Utilize accurate stream : Yes
Defeat audio cache : Yes
Make use of C2 pointers : No

Read offset correction : 6
Overread into Lead-In and Lead-Out : No
Fill up missing offset samples with silence : Yes
Delete leading and trailing silent blocks : No
Null samples used in CRC calculations : Yes
Used interface : Native Win32 interface for Win NT & 2000
Gap handling : Appended to previous track

Used output format : User Defined Encoder
Selected bitrate : 1024 kBit/s
Quality : High
Add ID3 tag : No
Command line compressor : C:\Program Files (x86)\Exact Audio Copy\FLAC\FLAC.EXE
Additional command line options : -8 -V -T "ARTIST=%artist%" -T "TITLE=%title%" -T "ALBUM=%albumtitle%" -T "DATE=%year%" -T "TRACKNUMBER=%tracknr%" -T "GENRE=%genre%" -T "PERFORMER=%albuminterpret%" -T "COMPOSER=%composer%" %haslyrics%–tag-from-file=LYRICS="%lyricsfile%"%haslyrics% -T "ALBUMARTIST=%albumartist%" -T "DISCNUMBER=%cdnumber%" -T "TOTALDISCS=%totalcds%" -T "TOTALTRACKS=%numtracks%" -T "COMMENT=%comment%" %source% -o %dest%


TOC of the extracted CD

Track | Start | Length | Start sector | End sector
––––––––––––––––––––––––––––-
1 | 0:00.00 | 2:35.35 | 0 | 11659
2 | 2:35.35 | 2:40.18 | 11660 | 23677
3 | 5:15.53 | 2:05.47 | 23678 | 33099
4 | 7:21.25 | 3:13.05 | 33100 | 47579
5 | 10:34.30 | 2:26.01 | 47580 | 58530
6 | 13:00.31 | 3:22.08 | 58531 | 73688
7 | 16:22.39 | 3:03.12 | 73689 | 87425
8 | 19:25.51 | 3:01.05 | 87426 | 101005
9 | 22:26.56 | 2:53.69 | 101006 | 114049
10 | 25:20.50 | 2:39.20 | 114050 | 125994
11 | 27:59.70 | 2:54.74 | 125995 | 139118
12 | 30:54.69 | 3:35.33 | 139119 | 155276
13 | 34:30.27 | 3:22.15 | 155277 | 170441


Track 1

Filename C:\Downloads\CD Ripped\01 - Wild thing.wav

Pre-gap length 0:00:02.00

Peak level 96.5 %
Extraction speed 1.5 X
Track quality 100.0 %
Test CRC DA5457CB
Copy CRC DA5457CB
Track not present in AccurateRip database
Copy OK

Track 2

Filename C:\Downloads\CD Ripped\02 - Dancing in the street.wav

Pre-gap length 0:00:02.00

Peak level 93.3 %
Extraction speed 1.6 X
Track quality 100.0 %
Test CRC 7F4B876D
Copy CRC 7F4B876D
Track not present in AccurateRip database
Copy OK

Track 3

Filename C:\Downloads\CD Ripped\03 - What's new Pussycat.wav

Pre-gap length 0:00:02.00

Peak level 94.4 %
Extraction speed 1.7 X
Track quality 100.0 %
Test CRC 35FC37E8
Copy CRC 35FC37E8
Track not present in AccurateRip database
Copy OK

Track 4

Filename C:\Downloads\CD Ripped\04 - You keep me hanging' on.wav

Pre-gap length 0:00:02.00

Peak level 92.2 %
Extraction speed 1.9 X
Track quality 100.0 %
Test CRC 715EB785
Copy CRC 715EB785
Track not present in AccurateRip database
Copy OK

Track 5

Filename C:\Downloads\CD Ripped\05 - Son of a preacher man.wav

Pre-gap length 0:00:02.00

Peak level 96.5 %
Extraction speed 1.9 X
Track quality 100.0 %
Test CRC 43F13EB0
Copy CRC 43F13EB0
Track not present in AccurateRip database
Copy OK

Track 6

Filename C:\Downloads\CD Ripped\06 - War.wav

Pre-gap length 0:00:02.00

Peak level 96.5 %
Extraction speed 2.2 X
Track quality 100.0 %
Test CRC 537C66C9
Copy CRC 537C66C9
Track not present in AccurateRip database
Copy OK

Track 7

Filename C:\Downloads\CD Ripped\07 - What becomes of the brokenhearted.wav

Pre-gap length 0:00:02.00

Peak level 89.1 %
Extraction speed 2.2 X
Track quality 100.0 %
Test CRC 74D73101
Copy CRC 74D73101
Track not present in AccurateRip database
Copy OK

Track 8

Filename C:\Downloads\CD Ripped\08 - Many rivers to cross.wav

Pre-gap length 0:00:02.00

Peak level 98.8 %
Extraction speed 2.3 X
Track quality 100.0 %
Test CRC B64EF622
Copy CRC B64EF622
Track not present in AccurateRip database
Copy OK

Track 9

Filename C:\Downloads\CD Ripped\09 - Dominique.wav

Pre-gap length 0:00:02.00

Peak level 93.4 %
Extraction speed 1.8 X
Track quality 99.9 %
Test CRC A73C075D
Copy CRC A73C075D
Track not present in AccurateRip database
Copy OK

Track 10

Filename C:\Downloads\CD Ripped\10 - Femme Fatale.wav

Pre-gap length 0:00:02.00

Peak level 94.5 %
Extraction speed 1.9 X
Track quality 99.9 %
Test CRC 0CF76689
Copy CRC 0CF76689
Track not present in AccurateRip database
Copy OK

Track 11

Filename C:\Downloads\CD Ripped\11 - Retiens la nuit.wav

Pre-gap length 0:00:02.00

Peak level 96.5 %
Extraction speed 2.5 X
Track quality 100.0 %
Test CRC 42667245
Copy CRC 42667245
Track not present in AccurateRip database
Copy OK

Track 12

Filename C:\Downloads\CD Ripped\12 - Capri c'est fini.wav

Pre-gap length 0:00:02.00

Peak level 99.8 %
Extraction speed 1.9 X
Track quality 99.9 %
Test CRC 0A4BC821
Copy CRC 0A4BC821
Track not present in AccurateRip database
Copy OK

Track 13

Filename C:\Downloads\CD Ripped\13 - Delilah.wav

Pre-gap length 0:00:02.00

Peak level 96.5 %
Extraction speed 2.0 X
Track quality 99.9 %
Test CRC 9B2A257D
Copy CRC 9B2A257D
Track not present in AccurateRip database
Copy OK


None of the tracks are present in the AccurateRip database

No errors occurred

End of status report

–– CUETools DB Plugin V2.1.3

[CTDB TOCID: xVHB1mNbNjLUcFJ1R7D71sNZhdU-] found, Submit result: xVHB1mNbNjLUcFJ1R7D71sNZhdU- has been uploaded
[4e805aaf] (1/1) Differs in 10 samples @35:04:61,35:05:02
You can use CUETools to repair this rip.


==== Log checksum 14A732A6A8FE2B15E0D202E54989DA3D3937CDA90A32282CE406B8DBB0D86DA9 ====

foobar2000 1.3.6 / Dynamic Range Meter 1.1.1
log date: 2018-01-15 19:08:18

––––––––––––––––––––––––––––––––––––––––
Analyzed: Dusty Springfield / The Best Of '60's Cd2 (1-2)
Edwin Starr / The Best Of '60's Cd2 (3)
Herve Vilard / The Best Of '60's Cd2 (4)
Jimmy Cliff / The Best Of '60's Cd2 (5)
Jimmy Ruffin / The Best Of '60's Cd2 (6)
Johnny Hallyday / The Best Of '60's Cd2 (7)
Martha Reeves & The Vandellas / The Best Of '60's Cd2 (8)
Soeur Sourire / The Best Of '60's Cd2 (9)
The Supremes / The Best Of '60's Cd2 (10)
The Velvet Underground & Nico / The Best Of '60's Cd2 (11)
Tom Jones / The Best Of '60's Cd2 (12-13)
––––––––––––––––––––––––––––––––––––––––

DR Peak RMS Duration Track
––––––––––––––––––––––––––––––––––––––––
DR8 -0.30 dB -11.12 dB 2:35 01-Wild thing
DR10 -0.30 dB -12.44 dB 2:26 05-Son of a preacher man
DR8 -0.30 dB -10.30 dB 3:22 06-War
DR11 -0.01 dB -12.66 dB 3:35 12-Capri c'est fini
DR9 -0.10 dB -12.99 dB 3:01 08-Many rivers to cross
DR6 -1.00 dB -8.89 dB 3:03 07-What becomes of the brokenhearted
DR10 -0.30 dB -11.66 dB 2:55 11-Retiens la nuit
DR7 -0.60 dB -9.27 dB 2:40 02-Dancing in the street
DR10 -0.59 dB -12.09 dB 2:54 09-Dominique
DR8 -0.70 dB -9.72 dB 3:13 04-You keep me hanging' on
DR9 -0.49 dB -12.14 dB 2:39 10-Femme Fatale
DR8 -0.50 dB -10.61 dB 2:06 03-What's new Pussycat
DR10 -0.30 dB -11.67 dB 3:22 13-Delilah
––––––––––––––––––––––––––––––––––––––––

Thanks to the original releaser