Tags
Language
Tags

VA - 100 Hits Of The Great Songbirds (2020)

Posted By: delpotro
VA - 100 Hits Of The Great Songbirds (2020)

VA - 100 Hits Of The Great Songbirds (2020)
EAC Rip | FLAC (tracks+log+.cue) - 1,4 Gb | MP3 CBR 320 kbps - 659 Mb | 04:43:57
Vocal Jazz, Female Vocal | Label: Not Now Music

From 'Lady Day' to the 'Queen of Soul', this compilation brings together many of the greatest female voices that have ever graced popular music. This comprehensive 4CD compilation features one hundred original recordings from many of the greatest female voices that have ever graced popular music.From Ella Fitzgerald and Billie Holiday to Judy Garland, Shirley Bassey and Julie Andrews, this compilation brings together all of the very best vocalists.
Tracklist:
CD 1
01. Dinah Washington - What A Difference A Day Made
02. Peggy Lee - Fever
03. Sarah Vaughan - Nice Work If You Can Get It
04. Nina Simone - My Baby Just Cares
05. Shirley Bassey - Let's Fall In Love
06. Billie Holiday - It Had To Be You
07. Etta James - These Foolish Things
08. Cleo Laine - Let's Slip Away
09. Doris Day - Secret Love
10. Kay Starr - I Cry By Night
11. Diahann Carroll - Cheek To Cheek
12. Dakota Staton - September In The Rain
13. Aretha Franklin - How Deep Is The Ocean
14. Diana Dors - Let There Be Love
15. Frances Faye - Miss Otis Regrets
16. Anita O'Day - That Old Feeling
17. Toni Harper - Where Flamingos Fly
18. Dinah Washington - I'm Gonna Laugh You Right Out Of My Life
19. Ann-Margret - Moon River
20. Lena Horne - I Got Rhythm
21. Abbey Lincoln - Exactly Like You
22. Keely Smith - Mr. Wonderful
23. Eartha Kitt - Speak Low
24. Ella Fitzgerald - Always
25. Julie London - Cry Me A River

CD 2
01. Etta James - At Last
02. Billie Holiday - Georgia On My Mind
03. Julie London - Misty
04. Ella Fitzgerald - One For My Baby And One More For The Road
05. Nina Simone - Love Me Or Leave Me
06. Peggy Lee - I'm Beginning To See The Light
07. Dinah Washington - Everybody Loves Somebody
08. Dakota Staton - Give Me The Simple Life
09. Lena Horne - Careless Love
10. Doris Day - Happy Talk
11. Aretha Franklin - Without The One You Love
12. Marian Bruce & Jacy Parker - Like The Likes Of You
13. Anita O'Day - A Blues Serenade
14. Diahann Carroll - There'll Be Some Changes Made
15. Nancy Wilson - Put On A Happy Face
16. Ann-Margret - Begin The Beguine
17. Joy Bryan - My Romance
18. Cleo Laine - A Love Like Ours
19. Shirley Bassey - S' Wonderful
20. Morgana King - Perdido
21. Carmen McRae - Too Much In Love To Care
22. Abbey Lincoln - Just For Me
23. Toni Harper - Saturday Night
24. Carol Sloane - Taking A Chance On Love
25. Sarah Vaughan - Smoke Gets In Your Eyes

CD 3
01. Ella Fitzgerald - Manhattan
02. Doris Day - Dream A Little Dream Of Me
03. Sarah Vaughan - Fly Me To The Moon In Other Words
04. Dinah Washington - A Sunday Kind Of Love
05. Dakota Staton - Moonray
06. June Christy - Is You Is Or Is You Ain't My Baby
07. Billie Holiday - Love For Sale
08. Nancy Wilson - Hello Young Lovers
09. Peggy Lee - I've Got You Under My Skin
10. Aretha Franklin - Just For A Thrill
11. Frances Faye - Summertime
12. Abbey Lincoln - Would I Love You
13. Diana Dors & The Wally Stott Orchestra - Crazy He Calls Me
14. Lena Horne - I Concentrate On You
15. Etta James - Don't Cry Baby
16. Toni Harper - You And The Night And The Music
17. Julie London - Round Midnight
18. Kay Starr - What Do You See In Her?
19. Anita O'Day - The Thrill Is Gone
20. Pearl Bailey - You Waited Too Long
21. Diahann Carroll - Once Is Enough For Me
22. Cleo Laine - I Don't Know Why
23. Joy Bryan - Old Devil Moon
24. Shirley Bassey - A Lovely Way To Spend An Evening
25. Nina Simone - I Loves You Porgy

CD 4
01. Carmen McRae - Take Five
02. Shirley Bassey - They Can't Take That Away From Me
03. Diahann Carroll - Let's Face The Music And Dance
04. Sarah Vaughan - The Best Is Yet To Come
05. Carol Sloane - On The Street Where You Live
06. Ella Fitzgerald - It's Only A Paper Moon
07. Peggy Lee - The Glory Of Love
08. Cleo Laine - Unforgettable
09. Dinah Washington - Bewitched
10. Billie Holiday - He's Funny That Way
11. Doris Day - Oops
12. Kay Starr - I've Grown Accustomed To His Face
13. Julie London - June In January
14. Aretha Franklin - I Apologize
15. Lena Horne - The Lady Is A Tramp
16. June Christy - You Came A Long Way From St. Louis
17. Nina Simone - Stompin' At The Savoy
18. Dakota Staton - They All Laughed
19. Morgana King - Undecided
20. Keely Smith - When Day Is Done
21. Jo Stafford & Paul Weston - Some Enchanted Evening
22. Diana Dors - The Point Of No Return
23. Abbey Lincoln - This Can't Be Love
24. Nancy Wilson - The Masquerade Is Over
25. Judy Garland - Over The Rainbow

Exact Audio Copy V1.3 from 2. September 2016

EAC extraction logfile from 12. March 2021, 15:56

Various Artists / 100 Hits Of The Great Songbirds

Used drive : HL-DT-STBD-RE BH16NS55 Adapter: 1 ID: 0

Read mode : Secure
Utilize accurate stream : Yes
Defeat audio cache : Yes
Make use of C2 pointers : No

Read offset correction : 6
Overread into Lead-In and Lead-Out : No
Fill up missing offset samples with silence : Yes
Delete leading and trailing silent blocks : No
Null samples used in CRC calculations : Yes
Used interface : Native Win32 interface for Win NT & 2000
Gap handling : Appended to previous track

Used output format : User Defined Encoder
Selected bitrate : 1024 kBit/s
Quality : High
Add ID3 tag : No
Command line compressor : C:\Program Files (x86)\Exact Audio Copy\Flac\flac.exe
Additional command line options : -8 -V -T "ARTIST=%artist%" -T "TITLE=%title%" -T "ALBUM=%albumtitle%" -T "DATE=%year%" -T "TRACKNUMBER=%tracknr%" -T "GENRE=%genre%" -T "PERFORMER=%albuminterpret%" -T "COMPOSER=%composer%" %haslyrics%–tag-from-file=LYRICS="%lyricsfile%"%haslyrics% -T "ALBUMARTIST=%albumartist%" -T "DISCNUMBER=%cdnumber%" -T "TOTALDISCS=%totalcds%" -T "TOTALTRACKS=%numtracks%" -T "COMMENT=%comment%" %source% -o %dest%


TOC of the extracted CD

Track | Start | Length | Start sector | End sector
––––––––––––––––––––––––––––-
1 | 0:00.00 | 2:30.64 | 0 | 11313
2 | 2:30.64 | 3:15.30 | 11314 | 25968
3 | 5:46.19 | 2:38.47 | 25969 | 37865
4 | 8:24.66 | 3:43.08 | 37866 | 54598
5 | 12:07.74 | 3:03.12 | 54599 | 68335
6 | 15:11.11 | 4:02.53 | 68336 | 86538
7 | 19:13.64 | 3:56.56 | 86539 | 104294
8 | 23:10.45 | 2:36.45 | 104295 | 116039
9 | 25:47.15 | 3:36.52 | 116040 | 132291
10 | 29:23.67 | 2:47.42 | 132292 | 144858
11 | 32:11.34 | 2:42.51 | 144859 | 157059
12 | 34:54.10 | 2:23.19 | 157060 | 167803
13 | 37:17.29 | 2:45.58 | 167804 | 180236
14 | 40:03.12 | 2:14.27 | 180237 | 190313
15 | 42:17.39 | 2:11.27 | 190314 | 200165
16 | 44:28.66 | 2:28.33 | 200166 | 211298
17 | 46:57.24 | 3:15.09 | 211299 | 225932
18 | 50:12.33 | 2:40.33 | 225933 | 237965
19 | 52:52.66 | 2:29.20 | 237966 | 249160
20 | 55:22.11 | 2:51.25 | 249161 | 262010
21 | 58:13.36 | 2:54.37 | 262011 | 275097
22 | 61:07.73 | 3:35.52 | 275098 | 291274
23 | 64:43.50 | 3:45.23 | 291275 | 308172
24 | 68:28.73 | 3:07.65 | 308173 | 322262
25 | 71:36.63 | 2:55.41 | 322263 | 335428


Track 1

Filename D:\#cdr\#wav+flac\#New\VA - 100 Hits Of The Great Songbirds\cd 1\01. Dinah Washington - What A Difference A Day Made.wav

Pre-gap length 0:00:02.00

Peak level 98.3 %
Extraction speed 4.4 X
Track quality 100.0 %
Test CRC D5E3084A
Copy CRC D5E3084A
Track not present in AccurateRip database
Copy OK

Track 2

Filename D:\#cdr\#wav+flac\#New\VA - 100 Hits Of The Great Songbirds\cd 1\02. Peggy Lee - Fever.wav

Pre-gap length 0:00:01.77

Peak level 98.3 %
Extraction speed 4.9 X
Track quality 100.0 %
Test CRC 035B2AA6
Copy CRC 035B2AA6
Track not present in AccurateRip database
Copy OK

Track 3

Filename D:\#cdr\#wav+flac\#New\VA - 100 Hits Of The Great Songbirds\cd 1\03. Sarah Vaughan - Nice Work If You Can Get It.wav

Pre-gap length 0:00:01.77

Peak level 98.3 %
Extraction speed 5.1 X
Track quality 100.0 %
Test CRC 0C280E55
Copy CRC 0C280E55
Track not present in AccurateRip database
Copy OK

Track 4

Filename D:\#cdr\#wav+flac\#New\VA - 100 Hits Of The Great Songbirds\cd 1\04. Nina Simone - My Baby Just Cares.wav

Pre-gap length 0:00:01.77

Peak level 98.3 %
Extraction speed 4.6 X
Track quality 99.9 %
Test CRC F62BD85E
Copy CRC F62BD85E
Track not present in AccurateRip database
Copy OK

Track 5

Filename D:\#cdr\#wav+flac\#New\VA - 100 Hits Of The Great Songbirds\cd 1\05. Shirley Bassey - Let's Fall In Love.wav

Pre-gap length 0:00:01.77

Peak level 98.6 %
Extraction speed 5.8 X
Track quality 100.0 %
Test CRC A19E3441
Copy CRC A19E3441
Track not present in AccurateRip database
Copy OK

Track 6

Filename D:\#cdr\#wav+flac\#New\VA - 100 Hits Of The Great Songbirds\cd 1\06. Billie Holiday - It Had To Be You.wav

Pre-gap length 0:00:01.77

Peak level 98.3 %
Extraction speed 5.3 X
Track quality 99.9 %
Test CRC EA4241B3
Copy CRC EA4241B3
Track not present in AccurateRip database
Copy OK

Track 7

Filename D:\#cdr\#wav+flac\#New\VA - 100 Hits Of The Great Songbirds\cd 1\07. Etta James - These Foolish Things.wav

Pre-gap length 0:00:01.77

Peak level 98.3 %
Extraction speed 6.6 X
Track quality 100.0 %
Test CRC B781315A
Copy CRC B781315A
Track not present in AccurateRip database
Copy OK

Track 8

Filename D:\#cdr\#wav+flac\#New\VA - 100 Hits Of The Great Songbirds\cd 1\08. Cleo Laine - Let's Slip Away.wav

Pre-gap length 0:00:01.77

Peak level 98.4 %
Extraction speed 6.5 X
Track quality 100.0 %
Test CRC 1FE1DA31
Copy CRC 1FE1DA31
Track not present in AccurateRip database
Copy OK

Track 9

Filename D:\#cdr\#wav+flac\#New\VA - 100 Hits Of The Great Songbirds\cd 1\09. Doris Day - Secret Love.wav

Pre-gap length 0:00:01.77

Peak level 98.3 %
Extraction speed 7.1 X
Track quality 100.0 %
Test CRC E639E554
Copy CRC E639E554
Track not present in AccurateRip database
Copy OK

Track 10

Filename D:\#cdr\#wav+flac\#New\VA - 100 Hits Of The Great Songbirds\cd 1\10. Kay Starr - I Cry By Night.wav

Pre-gap length 0:00:01.77

Peak level 98.4 %
Extraction speed 7.0 X
Track quality 100.0 %
Test CRC C8A5BFF9
Copy CRC C8A5BFF9
Track not present in AccurateRip database
Copy OK

Track 11

Filename D:\#cdr\#wav+flac\#New\VA - 100 Hits Of The Great Songbirds\cd 1\11. Diahann Carroll - Cheek To Cheek.wav

Pre-gap length 0:00:01.77

Peak level 98.6 %
Extraction speed 5.5 X
Track quality 99.9 %
Test CRC EAEE2AB3
Copy CRC EAEE2AB3
Track not present in AccurateRip database
Copy OK

Track 12

Filename D:\#cdr\#wav+flac\#New\VA - 100 Hits Of The Great Songbirds\cd 1\12. Dakota Staton - September In The Rain.wav

Pre-gap length 0:00:01.77

Peak level 98.3 %
Extraction speed 7.1 X
Track quality 100.0 %
Test CRC 66314371
Copy CRC 66314371
Track not present in AccurateRip database
Copy OK

Track 13

Filename D:\#cdr\#wav+flac\#New\VA - 100 Hits Of The Great Songbirds\cd 1\13. Aretha Franklin - How Deep Is The Ocean.wav

Pre-gap length 0:00:01.77

Peak level 98.3 %
Extraction speed 7.6 X
Track quality 100.0 %
Test CRC 7619E9BC
Copy CRC 7619E9BC
Track not present in AccurateRip database
Copy OK

Track 14

Filename D:\#cdr\#wav+flac\#New\VA - 100 Hits Of The Great Songbirds\cd 1\14. Diana Dors - Let There Be Love.wav

Pre-gap length 0:00:01.77

Peak level 98.4 %
Extraction speed 7.3 X
Track quality 100.0 %
Test CRC 4B3306F7
Copy CRC 4B3306F7
Track not present in AccurateRip database
Copy OK

Track 15

Filename D:\#cdr\#wav+flac\#New\VA - 100 Hits Of The Great Songbirds\cd 1\15. Frances Faye - Miss Otis Regrets.wav

Pre-gap length 0:00:01.77

Peak level 98.3 %
Extraction speed 7.5 X
Track quality 100.0 %
Test CRC 3343ACC5
Copy CRC 3343ACC5
Track not present in AccurateRip database
Copy OK

Track 16

Filename D:\#cdr\#wav+flac\#New\VA - 100 Hits Of The Great Songbirds\cd 1\16. Anita O'Day - That Old Feeling.wav

Pre-gap length 0:00:01.77

Peak level 98.3 %
Extraction speed 7.8 X
Track quality 100.0 %
Test CRC 0F579BED
Copy CRC 0F579BED
Track not present in AccurateRip database
Copy OK

Track 17

Filename D:\#cdr\#wav+flac\#New\VA - 100 Hits Of The Great Songbirds\cd 1\17. Toni Harper - Where Flamingos Fly.wav

Pre-gap length 0:00:01.77

Peak level 98.3 %
Extraction speed 8.3 X
Track quality 100.0 %
Test CRC 2C77E04F
Copy CRC 2C77E04F
Track not present in AccurateRip database
Copy OK

Track 18

Filename D:\#cdr\#wav+flac\#New\VA - 100 Hits Of The Great Songbirds\cd 1\18. Dinah Washington - I'm Gonna Laugh You Right Out Of My Life.wav

Pre-gap length 0:00:01.77

Peak level 98.3 %
Extraction speed 8.3 X
Track quality 100.0 %
Test CRC 1CBFB1DD
Copy CRC 1CBFB1DD
Track not present in AccurateRip database
Copy OK

Track 19

Filename D:\#cdr\#wav+flac\#New\VA - 100 Hits Of The Great Songbirds\cd 1\19. Ann-Margret - Moon River.wav

Pre-gap length 0:00:01.77

Peak level 98.3 %
Extraction speed 8.3 X
Track quality 100.0 %
Test CRC DDD75599
Copy CRC DDD75599
Track not present in AccurateRip database
Copy OK

Track 20

Filename D:\#cdr\#wav+flac\#New\VA - 100 Hits Of The Great Songbirds\cd 1\20. Lena Horne - I Got Rhythm.wav

Pre-gap length 0:00:01.77

Peak level 98.5 %
Extraction speed 6.7 X
Track quality 99.9 %
Test CRC 6BB9EB1C
Copy CRC 6BB9EB1C
Track not present in AccurateRip database
Copy OK

Track 21

Filename D:\#cdr\#wav+flac\#New\VA - 100 Hits Of The Great Songbirds\cd 1\21. Abbey Lincoln - Exactly Like You.wav

Pre-gap length 0:00:01.77

Peak level 98.4 %
Extraction speed 8.8 X
Track quality 100.0 %
Test CRC ECB7DB9F
Copy CRC ECB7DB9F
Track not present in AccurateRip database
Copy OK

Track 22

Filename D:\#cdr\#wav+flac\#New\VA - 100 Hits Of The Great Songbirds\cd 1\22. Keely Smith - Mr. Wonderful.wav

Pre-gap length 0:00:01.77

Peak level 98.3 %
Extraction speed 9.3 X
Track quality 100.0 %
Test CRC CF1AE8FA
Copy CRC CF1AE8FA
Track not present in AccurateRip database
Copy OK

Track 23

Filename D:\#cdr\#wav+flac\#New\VA - 100 Hits Of The Great Songbirds\cd 1\23. Eartha Kitt - Speak Low.wav

Pre-gap length 0:00:01.77

Peak level 98.3 %
Extraction speed 9.6 X
Track quality 100.0 %
Test CRC 639C6CFF
Copy CRC 639C6CFF
Track not present in AccurateRip database
Copy OK

Track 24

Filename D:\#cdr\#wav+flac\#New\VA - 100 Hits Of The Great Songbirds\cd 1\24. Ella Fitzgerald - Always.wav

Pre-gap length 0:00:01.77

Peak level 98.3 %
Extraction speed 7.5 X
Track quality 99.9 %
Test CRC 3FA4D0D2
Copy CRC 3FA4D0D2
Track not present in AccurateRip database
Copy OK

Track 25

Filename D:\#cdr\#wav+flac\#New\VA - 100 Hits Of The Great Songbirds\cd 1\25. Julie London - Cry Me A River.wav

Pre-gap length 0:00:01.77

Peak level 98.4 %
Extraction speed 9.3 X
Track quality 100.0 %
Test CRC E2A2045D
Copy CRC E2A2045D
Track not present in AccurateRip database
Copy OK


None of the tracks are present in the AccurateRip database

No errors occurred

End of status report

–– CUETools DB Plugin V2.1.6

[CTDB TOCID: a.uMcsjxPTt1OPreB1PR0Fq8DjY-] disk not present in database
Submit result: a.uMcsjxPTt1OPreB1PR0Fq8DjY- has been uploaded


==== Log checksum A73F603C2C67645B566782F0775E95231C9D1B87432EED660A736F0DE8FD26BA ====

––––––––––––––––––––––––––––––

Exact Audio Copy V1.3 from 2. September 2016

EAC extraction logfile from 12. March 2021, 15:56

Various Artists / 100 Hits Of The Great Songbirds

Used drive : HL-DT-STBD-RE BH16NS55 Adapter: 1 ID: 0

Read mode : Secure
Utilize accurate stream : Yes
Defeat audio cache : Yes
Make use of C2 pointers : No

Read offset correction : 6
Overread into Lead-In and Lead-Out : No
Fill up missing offset samples with silence : Yes
Delete leading and trailing silent blocks : No
Null samples used in CRC calculations : Yes
Used interface : Native Win32 interface for Win NT & 2000
Gap handling : Appended to previous track

Used output format : User Defined Encoder
Selected bitrate : 1024 kBit/s
Quality : High
Add ID3 tag : No
Command line compressor : C:\Program Files (x86)\Exact Audio Copy\Flac\flac.exe
Additional command line options : -8 -V -T "ARTIST=%artist%" -T "TITLE=%title%" -T "ALBUM=%albumtitle%" -T "DATE=%year%" -T "TRACKNUMBER=%tracknr%" -T "GENRE=%genre%" -T "PERFORMER=%albuminterpret%" -T "COMPOSER=%composer%" %haslyrics%–tag-from-file=LYRICS="%lyricsfile%"%haslyrics% -T "ALBUMARTIST=%albumartist%" -T "DISCNUMBER=%cdnumber%" -T "TOTALDISCS=%totalcds%" -T "TOTALTRACKS=%numtracks%" -T "COMMENT=%comment%" %source% -o %dest%


TOC of the extracted CD

Track | Start | Length | Start sector | End sector
––––––––––––––––––––––––––––-
1 | 0:00.00 | 2:30.64 | 0 | 11313
2 | 2:30.64 | 3:15.30 | 11314 | 25968
3 | 5:46.19 | 2:38.47 | 25969 | 37865
4 | 8:24.66 | 3:43.08 | 37866 | 54598
5 | 12:07.74 | 3:03.12 | 54599 | 68335
6 | 15:11.11 | 4:02.53 | 68336 | 86538
7 | 19:13.64 | 3:56.56 | 86539 | 104294
8 | 23:10.45 | 2:36.45 | 104295 | 116039
9 | 25:47.15 | 3:36.52 | 116040 | 132291
10 | 29:23.67 | 2:47.42 | 132292 | 144858
11 | 32:11.34 | 2:42.51 | 144859 | 157059
12 | 34:54.10 | 2:23.19 | 157060 | 167803
13 | 37:17.29 | 2:45.58 | 167804 | 180236
14 | 40:03.12 | 2:14.27 | 180237 | 190313
15 | 42:17.39 | 2:11.27 | 190314 | 200165
16 | 44:28.66 | 2:28.33 | 200166 | 211298
17 | 46:57.24 | 3:15.09 | 211299 | 225932
18 | 50:12.33 | 2:40.33 | 225933 | 237965
19 | 52:52.66 | 2:29.20 | 237966 | 249160
20 | 55:22.11 | 2:51.25 | 249161 | 262010
21 | 58:13.36 | 2:54.37 | 262011 | 275097
22 | 61:07.73 | 3:35.52 | 275098 | 291274
23 | 64:43.50 | 3:45.23 | 291275 | 308172
24 | 68:28.73 | 3:07.65 | 308173 | 322262
25 | 71:36.63 | 2:55.41 | 322263 | 335428


Track 1

Filename D:\#cdr\#wav+flac\#New\VA - 100 Hits Of The Great Songbirds\cd 1\01. Dinah Washington - What A Difference A Day Made.wav

Pre-gap length 0:00:02.00

Peak level 98.3 %
Extraction speed 4.4 X
Track quality 100.0 %
Test CRC D5E3084A
Copy CRC D5E3084A
Track not present in AccurateRip database
Copy OK

Track 2

Filename D:\#cdr\#wav+flac\#New\VA - 100 Hits Of The Great Songbirds\cd 1\02. Peggy Lee - Fever.wav

Pre-gap length 0:00:01.77

Peak level 98.3 %
Extraction speed 4.9 X
Track quality 100.0 %
Test CRC 035B2AA6
Copy CRC 035B2AA6
Track not present in AccurateRip database
Copy OK

Track 3

Filename D:\#cdr\#wav+flac\#New\VA - 100 Hits Of The Great Songbirds\cd 1\03. Sarah Vaughan - Nice Work If You Can Get It.wav

Pre-gap length 0:00:01.77

Peak level 98.3 %
Extraction speed 5.1 X
Track quality 100.0 %
Test CRC 0C280E55
Copy CRC 0C280E55
Track not present in AccurateRip database
Copy OK

Track 4

Filename D:\#cdr\#wav+flac\#New\VA - 100 Hits Of The Great Songbirds\cd 1\04. Nina Simone - My Baby Just Cares.wav

Pre-gap length 0:00:01.77

Peak level 98.3 %
Extraction speed 4.6 X
Track quality 99.9 %
Test CRC F62BD85E
Copy CRC F62BD85E
Track not present in AccurateRip database
Copy OK

Track 5

Filename D:\#cdr\#wav+flac\#New\VA - 100 Hits Of The Great Songbirds\cd 1\05. Shirley Bassey - Let's Fall In Love.wav

Pre-gap length 0:00:01.77

Peak level 98.6 %
Extraction speed 5.8 X
Track quality 100.0 %
Test CRC A19E3441
Copy CRC A19E3441
Track not present in AccurateRip database
Copy OK

Track 6

Filename D:\#cdr\#wav+flac\#New\VA - 100 Hits Of The Great Songbirds\cd 1\06. Billie Holiday - It Had To Be You.wav

Pre-gap length 0:00:01.77

Peak level 98.3 %
Extraction speed 5.3 X
Track quality 99.9 %
Test CRC EA4241B3
Copy CRC EA4241B3
Track not present in AccurateRip database
Copy OK

Track 7

Filename D:\#cdr\#wav+flac\#New\VA - 100 Hits Of The Great Songbirds\cd 1\07. Etta James - These Foolish Things.wav

Pre-gap length 0:00:01.77

Peak level 98.3 %
Extraction speed 6.6 X
Track quality 100.0 %
Test CRC B781315A
Copy CRC B781315A
Track not present in AccurateRip database
Copy OK

Track 8

Filename D:\#cdr\#wav+flac\#New\VA - 100 Hits Of The Great Songbirds\cd 1\08. Cleo Laine - Let's Slip Away.wav

Pre-gap length 0:00:01.77

Peak level 98.4 %
Extraction speed 6.5 X
Track quality 100.0 %
Test CRC 1FE1DA31
Copy CRC 1FE1DA31
Track not present in AccurateRip database
Copy OK

Track 9

Filename D:\#cdr\#wav+flac\#New\VA - 100 Hits Of The Great Songbirds\cd 1\09. Doris Day - Secret Love.wav

Pre-gap length 0:00:01.77

Peak level 98.3 %
Extraction speed 7.1 X
Track quality 100.0 %
Test CRC E639E554
Copy CRC E639E554
Track not present in AccurateRip database
Copy OK

Track 10

Filename D:\#cdr\#wav+flac\#New\VA - 100 Hits Of The Great Songbirds\cd 1\10. Kay Starr - I Cry By Night.wav

Pre-gap length 0:00:01.77

Peak level 98.4 %
Extraction speed 7.0 X
Track quality 100.0 %
Test CRC C8A5BFF9
Copy CRC C8A5BFF9
Track not present in AccurateRip database
Copy OK

Track 11

Filename D:\#cdr\#wav+flac\#New\VA - 100 Hits Of The Great Songbirds\cd 1\11. Diahann Carroll - Cheek To Cheek.wav

Pre-gap length 0:00:01.77

Peak level 98.6 %
Extraction speed 5.5 X
Track quality 99.9 %
Test CRC EAEE2AB3
Copy CRC EAEE2AB3
Track not present in AccurateRip database
Copy OK

Track 12

Filename D:\#cdr\#wav+flac\#New\VA - 100 Hits Of The Great Songbirds\cd 1\12. Dakota Staton - September In The Rain.wav

Pre-gap length 0:00:01.77

Peak level 98.3 %
Extraction speed 7.1 X
Track quality 100.0 %
Test CRC 66314371
Copy CRC 66314371
Track not present in AccurateRip database
Copy OK

Track 13

Filename D:\#cdr\#wav+flac\#New\VA - 100 Hits Of The Great Songbirds\cd 1\13. Aretha Franklin - How Deep Is The Ocean.wav

Pre-gap length 0:00:01.77

Peak level 98.3 %
Extraction speed 7.6 X
Track quality 100.0 %
Test CRC 7619E9BC
Copy CRC 7619E9BC
Track not present in AccurateRip database
Copy OK

Track 14

Filename D:\#cdr\#wav+flac\#New\VA - 100 Hits Of The Great Songbirds\cd 1\14. Diana Dors - Let There Be Love.wav

Pre-gap length 0:00:01.77

Peak level 98.4 %
Extraction speed 7.3 X
Track quality 100.0 %
Test CRC 4B3306F7
Copy CRC 4B3306F7
Track not present in AccurateRip database
Copy OK

Track 15

Filename D:\#cdr\#wav+flac\#New\VA - 100 Hits Of The Great Songbirds\cd 1\15. Frances Faye - Miss Otis Regrets.wav

Pre-gap length 0:00:01.77

Peak level 98.3 %
Extraction speed 7.5 X
Track quality 100.0 %
Test CRC 3343ACC5
Copy CRC 3343ACC5
Track not present in AccurateRip database
Copy OK

Track 16

Filename D:\#cdr\#wav+flac\#New\VA - 100 Hits Of The Great Songbirds\cd 1\16. Anita O'Day - That Old Feeling.wav

Pre-gap length 0:00:01.77

Peak level 98.3 %
Extraction speed 7.8 X
Track quality 100.0 %
Test CRC 0F579BED
Copy CRC 0F579BED
Track not present in AccurateRip database
Copy OK

Track 17

Filename D:\#cdr\#wav+flac\#New\VA - 100 Hits Of The Great Songbirds\cd 1\17. Toni Harper - Where Flamingos Fly.wav

Pre-gap length 0:00:01.77

Peak level 98.3 %
Extraction speed 8.3 X
Track quality 100.0 %
Test CRC 2C77E04F
Copy CRC 2C77E04F
Track not present in AccurateRip database
Copy OK

Track 18

Filename D:\#cdr\#wav+flac\#New\VA - 100 Hits Of The Great Songbirds\cd 1\18. Dinah Washington - I'm Gonna Laugh You Right Out Of My Life.wav

Pre-gap length 0:00:01.77

Peak level 98.3 %
Extraction speed 8.3 X
Track quality 100.0 %
Test CRC 1CBFB1DD
Copy CRC 1CBFB1DD
Track not present in AccurateRip database
Copy OK

Track 19

Filename D:\#cdr\#wav+flac\#New\VA - 100 Hits Of The Great Songbirds\cd 1\19. Ann-Margret - Moon River.wav

Pre-gap length 0:00:01.77

Peak level 98.3 %
Extraction speed 8.3 X
Track quality 100.0 %
Test CRC DDD75599
Copy CRC DDD75599
Track not present in AccurateRip database
Copy OK

Track 20

Filename D:\#cdr\#wav+flac\#New\VA - 100 Hits Of The Great Songbirds\cd 1\20. Lena Horne - I Got Rhythm.wav

Pre-gap length 0:00:01.77

Peak level 98.5 %
Extraction speed 6.7 X
Track quality 99.9 %
Test CRC 6BB9EB1C
Copy CRC 6BB9EB1C
Track not present in AccurateRip database
Copy OK

Track 21

Filename D:\#cdr\#wav+flac\#New\VA - 100 Hits Of The Great Songbirds\cd 1\21. Abbey Lincoln - Exactly Like You.wav

Pre-gap length 0:00:01.77

Peak level 98.4 %
Extraction speed 8.8 X
Track quality 100.0 %
Test CRC ECB7DB9F
Copy CRC ECB7DB9F
Track not present in AccurateRip database
Copy OK

Track 22

Filename D:\#cdr\#wav+flac\#New\VA - 100 Hits Of The Great Songbirds\cd 1\22. Keely Smith - Mr. Wonderful.wav

Pre-gap length 0:00:01.77

Peak level 98.3 %
Extraction speed 9.3 X
Track quality 100.0 %
Test CRC CF1AE8FA
Copy CRC CF1AE8FA
Track not present in AccurateRip database
Copy OK

Track 23

Filename D:\#cdr\#wav+flac\#New\VA - 100 Hits Of The Great Songbirds\cd 1\23. Eartha Kitt - Speak Low.wav

Pre-gap length 0:00:01.77

Peak level 98.3 %
Extraction speed 9.6 X
Track quality 100.0 %
Test CRC 639C6CFF
Copy CRC 639C6CFF
Track not present in AccurateRip database
Copy OK

Track 24

Filename D:\#cdr\#wav+flac\#New\VA - 100 Hits Of The Great Songbirds\cd 1\24. Ella Fitzgerald - Always.wav

Pre-gap length 0:00:01.77

Peak level 98.3 %
Extraction speed 7.5 X
Track quality 99.9 %
Test CRC 3FA4D0D2
Copy CRC 3FA4D0D2
Track not present in AccurateRip database
Copy OK

Track 25

Filename D:\#cdr\#wav+flac\#New\VA - 100 Hits Of The Great Songbirds\cd 1\25. Julie London - Cry Me A River.wav

Pre-gap length 0:00:01.77

Peak level 98.4 %
Extraction speed 9.3 X
Track quality 100.0 %
Test CRC E2A2045D
Copy CRC E2A2045D
Track not present in AccurateRip database
Copy OK


None of the tracks are present in the AccurateRip database

No errors occurred

End of status report

–– CUETools DB Plugin V2.1.6

[CTDB TOCID: a.uMcsjxPTt1OPreB1PR0Fq8DjY-] disk not present in database
Submit result: a.uMcsjxPTt1OPreB1PR0Fq8DjY- has been uploaded


==== Log checksum A73F603C2C67645B566782F0775E95231C9D1B87432EED660A736F0DE8FD26BA ====
Exact Audio Copy V1.3 from 2. September 2016

EAC extraction logfile from 12. March 2021, 16:24

Various Artists / 100 Hits Of The Great Songbirds

Used drive : HL-DT-STBD-RE BH16NS55 Adapter: 1 ID: 0

Read mode : Secure
Utilize accurate stream : Yes
Defeat audio cache : Yes
Make use of C2 pointers : No

Read offset correction : 6
Overread into Lead-In and Lead-Out : No
Fill up missing offset samples with silence : Yes
Delete leading and trailing silent blocks : No
Null samples used in CRC calculations : Yes
Used interface : Native Win32 interface for Win NT & 2000
Gap handling : Appended to previous track

Used output format : User Defined Encoder
Selected bitrate : 1024 kBit/s
Quality : High
Add ID3 tag : No
Command line compressor : C:\Program Files (x86)\Exact Audio Copy\Flac\flac.exe
Additional command line options : -8 -V -T "ARTIST=%artist%" -T "TITLE=%title%" -T "ALBUM=%albumtitle%" -T "DATE=%year%" -T "TRACKNUMBER=%tracknr%" -T "GENRE=%genre%" -T "PERFORMER=%albuminterpret%" -T "COMPOSER=%composer%" %haslyrics%–tag-from-file=LYRICS="%lyricsfile%"%haslyrics% -T "ALBUMARTIST=%albumartist%" -T "DISCNUMBER=%cdnumber%" -T "TOTALDISCS=%totalcds%" -T "TOTALTRACKS=%numtracks%" -T "COMMENT=%comment%" %source% -o %dest%


TOC of the extracted CD

Track | Start | Length | Start sector | End sector
––––––––––––––––––––––––––––-
1 | 0:00.00 | 3:01.57 | 0 | 13631
2 | 3:01.57 | 3:08.51 | 13632 | 27782
3 | 6:10.33 | 3:11.45 | 27783 | 42152
4 | 9:22.03 | 3:57.29 | 42153 | 59956
5 | 13:19.32 | 3:26.46 | 59957 | 75452
6 | 16:46.03 | 1:45.35 | 75453 | 83362
7 | 18:31.38 | 2:26.40 | 83363 | 94352
8 | 20:58.03 | 2:15.38 | 94353 | 104515
9 | 23:13.41 | 2:47.28 | 104516 | 117068
10 | 26:00.69 | 3:00.16 | 117069 | 130584
11 | 29:01.10 | 2:44.45 | 130585 | 142929
12 | 31:45.55 | 2:22.62 | 142930 | 153641
13 | 34:08.42 | 3:02.38 | 153642 | 167329
14 | 37:11.05 | 3:07.04 | 167330 | 181358
15 | 40:18.09 | 1:53.59 | 181359 | 189892
16 | 42:11.68 | 3:21.51 | 189893 | 205018
17 | 45:33.44 | 2:57.58 | 205019 | 218351
18 | 48:31.27 | 2:59.14 | 218352 | 231790
19 | 51:30.41 | 2:14.17 | 231791 | 241857
20 | 53:44.58 | 1:56.60 | 241858 | 250617
21 | 55:41.43 | 2:19.41 | 250618 | 261083
22 | 58:01.09 | 3:34.73 | 261084 | 277206
23 | 61:36.07 | 2:57.66 | 277207 | 290547
24 | 64:33.73 | 2:03.53 | 290548 | 299825
25 | 66:37.51 | 3:59.09 | 299826 | 317759


Track 1

Filename D:\#cdr\#wav+flac\#New\VA - 100 Hits Of The Great Songbirds\cd 2\01. Etta James - At Last.wav

Pre-gap length 0:00:02.00

Peak level 98.3 %
Extraction speed 4.4 X
Track quality 100.0 %
Test CRC 9287D53C
Copy CRC 9287D53C
Track not present in AccurateRip database
Copy OK

Track 2

Filename D:\#cdr\#wav+flac\#New\VA - 100 Hits Of The Great Songbirds\cd 2\02. Billie Holiday - Georgia On My Mind.wav

Pre-gap length 0:00:01.77

Peak level 98.3 %
Extraction speed 4.8 X
Track quality 100.0 %
Test CRC A8A2B01E
Copy CRC A8A2B01E
Track not present in AccurateRip database
Copy OK

Track 3

Filename D:\#cdr\#wav+flac\#New\VA - 100 Hits Of The Great Songbirds\cd 2\03. Julie London - Misty.wav

Pre-gap length 0:00:01.77

Peak level 98.3 %
Extraction speed 5.1 X
Track quality 100.0 %
Test CRC 1E269368
Copy CRC 1E269368
Track not present in AccurateRip database
Copy OK

Track 4

Filename D:\#cdr\#wav+flac\#New\VA - 100 Hits Of The Great Songbirds\cd 2\04. Ella Fitzgerald - One For My Baby And One More For The Road.wav

Pre-gap length 0:00:01.77

Peak level 98.4 %
Extraction speed 4.7 X
Track quality 99.9 %
Test CRC FD3CCB37
Copy CRC FD3CCB37
Track not present in AccurateRip database
Copy OK

Track 5

Filename D:\#cdr\#wav+flac\#New\VA - 100 Hits Of The Great Songbirds\cd 2\05. Nina Simone - Love Me Or Leave Me.wav

Pre-gap length 0:00:01.77

Peak level 98.3 %
Extraction speed 5.8 X
Track quality 100.0 %
Test CRC 22826A30
Copy CRC 22826A30
Track not present in AccurateRip database
Copy OK

Track 6

Filename D:\#cdr\#wav+flac\#New\VA - 100 Hits Of The Great Songbirds\cd 2\06. Peggy Lee - I'm Beginning To See The Light.wav

Pre-gap length 0:00:01.77

Peak level 98.3 %
Extraction speed 5.4 X
Track quality 100.0 %
Test CRC CABAD7A5
Copy CRC CABAD7A5
Track not present in AccurateRip database
Copy OK

Track 7

Filename D:\#cdr\#wav+flac\#New\VA - 100 Hits Of The Great Songbirds\cd 2\07. Dinah Washington - Everybody Loves Somebody.wav

Pre-gap length 0:00:01.77

Peak level 98.3 %
Extraction speed 5.9 X
Track quality 100.0 %
Test CRC F1DB2E90
Copy CRC F1DB2E90
Track not present in AccurateRip database
Copy OK

Track 8

Filename D:\#cdr\#wav+flac\#New\VA - 100 Hits Of The Great Songbirds\cd 2\08. Dakota Staton - Give Me The Simple Life.wav

Pre-gap length 0:00:01.77

Peak level 98.3 %
Extraction speed 6.0 X
Track quality 100.0 %
Test CRC A324D36D
Copy CRC A324D36D
Track not present in AccurateRip database
Copy OK

Track 9

Filename D:\#cdr\#wav+flac\#New\VA - 100 Hits Of The Great Songbirds\cd 2\09. Lena Horne - Careless Love.wav

Pre-gap length 0:00:01.77

Peak level 98.3 %
Extraction speed 6.5 X
Track quality 100.0 %
Test CRC CD5183BD
Copy CRC CD5183BD
Track not present in AccurateRip database
Copy OK

Track 10

Filename D:\#cdr\#wav+flac\#New\VA - 100 Hits Of The Great Songbirds\cd 2\10. Doris Day - Happy Talk.wav

Pre-gap length 0:00:01.77

Peak level 98.3 %
Extraction speed 6.7 X
Track quality 100.0 %
Test CRC C216F2A7
Copy CRC C216F2A7
Track not present in AccurateRip database
Copy OK

Track 11

Filename D:\#cdr\#wav+flac\#New\VA - 100 Hits Of The Great Songbirds\cd 2\11. Aretha Franklin - Without The One You Love.wav

Pre-gap length 0:00:01.77

Peak level 98.7 %
Extraction speed 6.9 X
Track quality 100.0 %
Test CRC DD98C17A
Copy CRC DD98C17A
Track not present in AccurateRip database
Copy OK

Track 12

Filename D:\#cdr\#wav+flac\#New\VA - 100 Hits Of The Great Songbirds\cd 2\12. Marian Bruce & Jacy Parker - Like The Likes Of You.wav

Pre-gap length 0:00:01.77

Peak level 98.3 %
Extraction speed 6.8 X
Track quality 100.0 %
Test CRC 99853B36
Copy CRC 99853B36
Track not present in AccurateRip database
Copy OK

Track 13

Filename D:\#cdr\#wav+flac\#New\VA - 100 Hits Of The Great Songbirds\cd 2\13. Anita O'Day - A Blues Serenade.wav

Pre-gap length 0:00:01.77

Peak level 98.5 %
Extraction speed 7.3 X
Track quality 100.0 %
Test CRC B003DE3A
Copy CRC B003DE3A
Track not present in AccurateRip database
Copy OK

Track 14

Filename D:\#cdr\#wav+flac\#New\VA - 100 Hits Of The Great Songbirds\cd 2\14. Diahann Carroll - There'll Be Some Changes Made.wav

Pre-gap length 0:00:01.77

Peak level 98.3 %
Extraction speed 7.6 X
Track quality 100.0 %
Test CRC C20A1990
Copy CRC C20A1990
Track not present in AccurateRip database
Copy OK

Track 15

Filename D:\#cdr\#wav+flac\#New\VA - 100 Hits Of The Great Songbirds\cd 2\15. Nancy Wilson - Put On A Happy Face.wav

Pre-gap length 0:00:01.77

Peak level 98.3 %
Extraction speed 7.0 X
Track quality 100.0 %
Test CRC A975C9AE
Copy CRC A975C9AE
Track not present in AccurateRip database
Copy OK

Track 16

Filename D:\#cdr\#wav+flac\#New\VA - 100 Hits Of The Great Songbirds\cd 2\16. Ann-Margret - Begin The Beguine.wav

Pre-gap length 0:00:01.77

Peak level 98.4 %
Extraction speed 7.8 X
Track quality 100.0 %
Test CRC FD95CB60
Copy CRC FD95CB60
Track not present in AccurateRip database
Copy OK

Track 17

Filename D:\#cdr\#wav+flac\#New\VA - 100 Hits Of The Great Songbirds\cd 2\17. Joy Bryan - My Romance.wav

Pre-gap length 0:00:01.77

Peak level 98.3 %
Extraction speed 8.0 X
Track quality 100.0 %
Test CRC 9EB103FD
Copy CRC 9EB103FD
Track not present in AccurateRip database
Copy OK

Track 18

Filename D:\#cdr\#wav+flac\#New\VA - 100 Hits Of The Great Songbirds\cd 2\18. Cleo Laine - A Love Like Ours.wav

Pre-gap length 0:00:01.77

Peak level 98.3 %
Extraction speed 8.2 X
Track quality 100.0 %
Test CRC 30CD9074
Copy CRC 30CD9074
Track not present in AccurateRip database
Copy OK

Track 19

Filename D:\#cdr\#wav+flac\#New\VA - 100 Hits Of The Great Songbirds\cd 2\19. Shirley Bassey - S' Wonderful.wav

Pre-gap length 0:00:01.77

Peak level 98.3 %
Extraction speed 7.8 X
Track quality 100.0 %
Test CRC DFBE8898
Copy CRC DFBE8898
Track not present in AccurateRip database
Copy OK

Track 20

Filename D:\#cdr\#wav+flac\#New\VA - 100 Hits Of The Great Songbirds\cd 2\20. Morgana King - Perdido.wav

Pre-gap length 0:00:01.77

Peak level 98.3 %
Extraction speed 7.8 X
Track quality 100.0 %
Test CRC 68E338DD
Copy CRC 68E338DD
Track not present in AccurateRip database
Copy OK

Track 21

Filename D:\#cdr\#wav+flac\#New\VA - 100 Hits Of The Great Songbirds\cd 2\21. Carmen McRae - Too Much In Love To Care.wav

Pre-gap length 0:00:01.77

Peak level 98.3 %
Extraction speed 8.3 X
Track quality 100.0 %
Test CRC 07F98EEB
Copy CRC 07F98EEB
Track not present in AccurateRip database
Copy OK

Track 22

Filename D:\#cdr\#wav+flac\#New\VA - 100 Hits Of The Great Songbirds\cd 2\22. Abbey Lincoln - Just For Me.wav

Pre-gap length 0:00:01.77

Peak level 98.5 %
Extraction speed 9.1 X
Track quality 100.0 %
Test CRC 8E68278A
Copy CRC 8E68278A
Track not present in AccurateRip database
Copy OK

Track 23

Filename D:\#cdr\#wav+flac\#New\VA - 100 Hits Of The Great Songbirds\cd 2\23. Toni Harper - Saturday Night.wav

Pre-gap length 0:00:01.77

Peak level 98.8 %
Extraction speed 9.0 X
Track quality 100.0 %
Test CRC A4130F3B
Copy CRC A4130F3B
Track not present in AccurateRip database
Copy OK

Track 24

Filename D:\#cdr\#wav+flac\#New\VA - 100 Hits Of The Great Songbirds\cd 2\24. Carol Sloane - Taking A Chance On Love.wav

Pre-gap length 0:00:01.77

Peak level 98.3 %
Extraction speed 8.5 X
Track quality 100.0 %
Test CRC 5A341429
Copy CRC 5A341429
Track not present in AccurateRip database
Copy OK

Track 25

Filename D:\#cdr\#wav+flac\#New\VA - 100 Hits Of The Great Songbirds\cd 2\25. Sarah Vaughan - Smoke Gets In Your Eyes.wav

Pre-gap length 0:00:01.77

Peak level 98.3 %
Extraction speed 9.6 X
Track quality 100.0 %
Test CRC 96C365C4
Copy CRC 96C365C4
Track not present in AccurateRip database
Copy OK


None of the tracks are present in the AccurateRip database

No errors occurred

End of status report

–– CUETools DB Plugin V2.1.6

[CTDB TOCID: GbFmVkbSDGAVmYEyj9rvzSE6oQg-] disk not present in database
Submit result: GbFmVkbSDGAVmYEyj9rvzSE6oQg- has been uploaded


==== Log checksum 556F4F591CA06C52DD2ECEC77FEFD4BEED541D04763B3F68C6E088B444B05C0C ====

––––––––––––––––––––––––––––––

Exact Audio Copy V1.3 from 2. September 2016

EAC extraction logfile from 12. March 2021, 16:24

Various Artists / 100 Hits Of The Great Songbirds

Used drive : HL-DT-STBD-RE BH16NS55 Adapter: 1 ID: 0

Read mode : Secure
Utilize accurate stream : Yes
Defeat audio cache : Yes
Make use of C2 pointers : No

Read offset correction : 6
Overread into Lead-In and Lead-Out : No
Fill up missing offset samples with silence : Yes
Delete leading and trailing silent blocks : No
Null samples used in CRC calculations : Yes
Used interface : Native Win32 interface for Win NT & 2000
Gap handling : Appended to previous track

Used output format : User Defined Encoder
Selected bitrate : 1024 kBit/s
Quality : High
Add ID3 tag : No
Command line compressor : C:\Program Files (x86)\Exact Audio Copy\Flac\flac.exe
Additional command line options : -8 -V -T "ARTIST=%artist%" -T "TITLE=%title%" -T "ALBUM=%albumtitle%" -T "DATE=%year%" -T "TRACKNUMBER=%tracknr%" -T "GENRE=%genre%" -T "PERFORMER=%albuminterpret%" -T "COMPOSER=%composer%" %haslyrics%–tag-from-file=LYRICS="%lyricsfile%"%haslyrics% -T "ALBUMARTIST=%albumartist%" -T "DISCNUMBER=%cdnumber%" -T "TOTALDISCS=%totalcds%" -T "TOTALTRACKS=%numtracks%" -T "COMMENT=%comment%" %source% -o %dest%


TOC of the extracted CD

Track | Start | Length | Start sector | End sector
––––––––––––––––––––––––––––-
1 | 0:00.00 | 3:01.57 | 0 | 13631
2 | 3:01.57 | 3:08.51 | 13632 | 27782
3 | 6:10.33 | 3:11.45 | 27783 | 42152
4 | 9:22.03 | 3:57.29 | 42153 | 59956
5 | 13:19.32 | 3:26.46 | 59957 | 75452
6 | 16:46.03 | 1:45.35 | 75453 | 83362
7 | 18:31.38 | 2:26.40 | 83363 | 94352
8 | 20:58.03 | 2:15.38 | 94353 | 104515
9 | 23:13.41 | 2:47.28 | 104516 | 117068
10 | 26:00.69 | 3:00.16 | 117069 | 130584
11 | 29:01.10 | 2:44.45 | 130585 | 142929
12 | 31:45.55 | 2:22.62 | 142930 | 153641
13 | 34:08.42 | 3:02.38 | 153642 | 167329
14 | 37:11.05 | 3:07.04 | 167330 | 181358
15 | 40:18.09 | 1:53.59 | 181359 | 189892
16 | 42:11.68 | 3:21.51 | 189893 | 205018
17 | 45:33.44 | 2:57.58 | 205019 | 218351
18 | 48:31.27 | 2:59.14 | 218352 | 231790
19 | 51:30.41 | 2:14.17 | 231791 | 241857
20 | 53:44.58 | 1:56.60 | 241858 | 250617
21 | 55:41.43 | 2:19.41 | 250618 | 261083
22 | 58:01.09 | 3:34.73 | 261084 | 277206
23 | 61:36.07 | 2:57.66 | 277207 | 290547
24 | 64:33.73 | 2:03.53 | 290548 | 299825
25 | 66:37.51 | 3:59.09 | 299826 | 317759


Track 1

Filename D:\#cdr\#wav+flac\#New\VA - 100 Hits Of The Great Songbirds\cd 2\01. Etta James - At Last.wav

Pre-gap length 0:00:02.00

Peak level 98.3 %
Extraction speed 4.4 X
Track quality 100.0 %
Test CRC 9287D53C
Copy CRC 9287D53C
Track not present in AccurateRip database
Copy OK

Track 2

Filename D:\#cdr\#wav+flac\#New\VA - 100 Hits Of The Great Songbirds\cd 2\02. Billie Holiday - Georgia On My Mind.wav

Pre-gap length 0:00:01.77

Peak level 98.3 %
Extraction speed 4.8 X
Track quality 100.0 %
Test CRC A8A2B01E
Copy CRC A8A2B01E
Track not present in AccurateRip database
Copy OK

Track 3

Filename D:\#cdr\#wav+flac\#New\VA - 100 Hits Of The Great Songbirds\cd 2\03. Julie London - Misty.wav

Pre-gap length 0:00:01.77

Peak level 98.3 %
Extraction speed 5.1 X
Track quality 100.0 %
Test CRC 1E269368
Copy CRC 1E269368
Track not present in AccurateRip database
Copy OK

Track 4

Filename D:\#cdr\#wav+flac\#New\VA - 100 Hits Of The Great Songbirds\cd 2\04. Ella Fitzgerald - One For My Baby And One More For The Road.wav

Pre-gap length 0:00:01.77

Peak level 98.4 %
Extraction speed 4.7 X
Track quality 99.9 %
Test CRC FD3CCB37
Copy CRC FD3CCB37
Track not present in AccurateRip database
Copy OK

Track 5

Filename D:\#cdr\#wav+flac\#New\VA - 100 Hits Of The Great Songbirds\cd 2\05. Nina Simone - Love Me Or Leave Me.wav

Pre-gap length 0:00:01.77

Peak level 98.3 %
Extraction speed 5.8 X
Track quality 100.0 %
Test CRC 22826A30
Copy CRC 22826A30
Track not present in AccurateRip database
Copy OK

Track 6

Filename D:\#cdr\#wav+flac\#New\VA - 100 Hits Of The Great Songbirds\cd 2\06. Peggy Lee - I'm Beginning To See The Light.wav

Pre-gap length 0:00:01.77

Peak level 98.3 %
Extraction speed 5.4 X
Track quality 100.0 %
Test CRC CABAD7A5
Copy CRC CABAD7A5
Track not present in AccurateRip database
Copy OK

Track 7

Filename D:\#cdr\#wav+flac\#New\VA - 100 Hits Of The Great Songbirds\cd 2\07. Dinah Washington - Everybody Loves Somebody.wav

Pre-gap length 0:00:01.77

Peak level 98.3 %
Extraction speed 5.9 X
Track quality 100.0 %
Test CRC F1DB2E90
Copy CRC F1DB2E90
Track not present in AccurateRip database
Copy OK

Track 8

Filename D:\#cdr\#wav+flac\#New\VA - 100 Hits Of The Great Songbirds\cd 2\08. Dakota Staton - Give Me The Simple Life.wav

Pre-gap length 0:00:01.77

Peak level 98.3 %
Extraction speed 6.0 X
Track quality 100.0 %
Test CRC A324D36D
Copy CRC A324D36D
Track not present in AccurateRip database
Copy OK

Track 9

Filename D:\#cdr\#wav+flac\#New\VA - 100 Hits Of The Great Songbirds\cd 2\09. Lena Horne - Careless Love.wav

Pre-gap length 0:00:01.77

Peak level 98.3 %
Extraction speed 6.5 X
Track quality 100.0 %
Test CRC CD5183BD
Copy CRC CD5183BD
Track not present in AccurateRip database
Copy OK

Track 10

Filename D:\#cdr\#wav+flac\#New\VA - 100 Hits Of The Great Songbirds\cd 2\10. Doris Day - Happy Talk.wav

Pre-gap length 0:00:01.77

Peak level 98.3 %
Extraction speed 6.7 X
Track quality 100.0 %
Test CRC C216F2A7
Copy CRC C216F2A7
Track not present in AccurateRip database
Copy OK

Track 11

Filename D:\#cdr\#wav+flac\#New\VA - 100 Hits Of The Great Songbirds\cd 2\11. Aretha Franklin - Without The One You Love.wav

Pre-gap length 0:00:01.77

Peak level 98.7 %
Extraction speed 6.9 X
Track quality 100.0 %
Test CRC DD98C17A
Copy CRC DD98C17A
Track not present in AccurateRip database
Copy OK

Track 12

Filename D:\#cdr\#wav+flac\#New\VA - 100 Hits Of The Great Songbirds\cd 2\12. Marian Bruce & Jacy Parker - Like The Likes Of You.wav

Pre-gap length 0:00:01.77

Peak level 98.3 %
Extraction speed 6.8 X
Track quality 100.0 %
Test CRC 99853B36
Copy CRC 99853B36
Track not present in AccurateRip database
Copy OK

Track 13

Filename D:\#cdr\#wav+flac\#New\VA - 100 Hits Of The Great Songbirds\cd 2\13. Anita O'Day - A Blues Serenade.wav

Pre-gap length 0:00:01.77

Peak level 98.5 %
Extraction speed 7.3 X
Track quality 100.0 %
Test CRC B003DE3A
Copy CRC B003DE3A
Track not present in AccurateRip database
Copy OK

Track 14

Filename D:\#cdr\#wav+flac\#New\VA - 100 Hits Of The Great Songbirds\cd 2\14. Diahann Carroll - There'll Be Some Changes Made.wav

Pre-gap length 0:00:01.77

Peak level 98.3 %
Extraction speed 7.6 X
Track quality 100.0 %
Test CRC C20A1990
Copy CRC C20A1990
Track not present in AccurateRip database
Copy OK

Track 15

Filename D:\#cdr\#wav+flac\#New\VA - 100 Hits Of The Great Songbirds\cd 2\15. Nancy Wilson - Put On A Happy Face.wav

Pre-gap length 0:00:01.77

Peak level 98.3 %
Extraction speed 7.0 X
Track quality 100.0 %
Test CRC A975C9AE
Copy CRC A975C9AE
Track not present in AccurateRip database
Copy OK

Track 16

Filename D:\#cdr\#wav+flac\#New\VA - 100 Hits Of The Great Songbirds\cd 2\16. Ann-Margret - Begin The Beguine.wav

Pre-gap length 0:00:01.77

Peak level 98.4 %
Extraction speed 7.8 X
Track quality 100.0 %
Test CRC FD95CB60
Copy CRC FD95CB60
Track not present in AccurateRip database
Copy OK

Track 17

Filename D:\#cdr\#wav+flac\#New\VA - 100 Hits Of The Great Songbirds\cd 2\17. Joy Bryan - My Romance.wav

Pre-gap length 0:00:01.77

Peak level 98.3 %
Extraction speed 8.0 X
Track quality 100.0 %
Test CRC 9EB103FD
Copy CRC 9EB103FD
Track not present in AccurateRip database
Copy OK

Track 18

Filename D:\#cdr\#wav+flac\#New\VA - 100 Hits Of The Great Songbirds\cd 2\18. Cleo Laine - A Love Like Ours.wav

Pre-gap length 0:00:01.77

Peak level 98.3 %
Extraction speed 8.2 X
Track quality 100.0 %
Test CRC 30CD9074
Copy CRC 30CD9074
Track not present in AccurateRip database
Copy OK

Track 19

Filename D:\#cdr\#wav+flac\#New\VA - 100 Hits Of The Great Songbirds\cd 2\19. Shirley Bassey - S' Wonderful.wav

Pre-gap length 0:00:01.77

Peak level 98.3 %
Extraction speed 7.8 X
Track quality 100.0 %
Test CRC DFBE8898
Copy CRC DFBE8898
Track not present in AccurateRip database
Copy OK

Track 20

Filename D:\#cdr\#wav+flac\#New\VA - 100 Hits Of The Great Songbirds\cd 2\20. Morgana King - Perdido.wav

Pre-gap length 0:00:01.77

Peak level 98.3 %
Extraction speed 7.8 X
Track quality 100.0 %
Test CRC 68E338DD
Copy CRC 68E338DD
Track not present in AccurateRip database
Copy OK

Track 21

Filename D:\#cdr\#wav+flac\#New\VA - 100 Hits Of The Great Songbirds\cd 2\21. Carmen McRae - Too Much In Love To Care.wav

Pre-gap length 0:00:01.77

Peak level 98.3 %
Extraction speed 8.3 X
Track quality 100.0 %
Test CRC 07F98EEB
Copy CRC 07F98EEB
Track not present in AccurateRip database
Copy OK

Track 22

Filename D:\#cdr\#wav+flac\#New\VA - 100 Hits Of The Great Songbirds\cd 2\22. Abbey Lincoln - Just For Me.wav

Pre-gap length 0:00:01.77

Peak level 98.5 %
Extraction speed 9.1 X
Track quality 100.0 %
Test CRC 8E68278A
Copy CRC 8E68278A
Track not present in AccurateRip database
Copy OK

Track 23

Filename D:\#cdr\#wav+flac\#New\VA - 100 Hits Of The Great Songbirds\cd 2\23. Toni Harper - Saturday Night.wav

Pre-gap length 0:00:01.77

Peak level 98.8 %
Extraction speed 9.0 X
Track quality 100.0 %
Test CRC A4130F3B
Copy CRC A4130F3B
Track not present in AccurateRip database
Copy OK

Track 24

Filename D:\#cdr\#wav+flac\#New\VA - 100 Hits Of The Great Songbirds\cd 2\24. Carol Sloane - Taking A Chance On Love.wav

Pre-gap length 0:00:01.77

Peak level 98.3 %
Extraction speed 8.5 X
Track quality 100.0 %
Test CRC 5A341429
Copy CRC 5A341429
Track not present in AccurateRip database
Copy OK

Track 25

Filename D:\#cdr\#wav+flac\#New\VA - 100 Hits Of The Great Songbirds\cd 2\25. Sarah Vaughan - Smoke Gets In Your Eyes.wav

Pre-gap length 0:00:01.77

Peak level 98.3 %
Extraction speed 9.6 X
Track quality 100.0 %
Test CRC 96C365C4
Copy CRC 96C365C4
Track not present in AccurateRip database
Copy OK


None of the tracks are present in the AccurateRip database

No errors occurred

End of status report

–– CUETools DB Plugin V2.1.6

[CTDB TOCID: GbFmVkbSDGAVmYEyj9rvzSE6oQg-] disk not present in database
Submit result: GbFmVkbSDGAVmYEyj9rvzSE6oQg- has been uploaded


==== Log checksum 556F4F591CA06C52DD2ECEC77FEFD4BEED541D04763B3F68C6E088B444B05C0C ====
Exact Audio Copy V1.3 from 2. September 2016

EAC extraction logfile from 12. March 2021, 16:53

Various Artists / 100 Hits Of The Great Songbirds

Used drive : HL-DT-STBD-RE BH16NS55 Adapter: 1 ID: 0

Read mode : Secure
Utilize accurate stream : Yes
Defeat audio cache : Yes
Make use of C2 pointers : No

Read offset correction : 6
Overread into Lead-In and Lead-Out : No
Fill up missing offset samples with silence : Yes
Delete leading and trailing silent blocks : No
Null samples used in CRC calculations : Yes
Used interface : Native Win32 interface for Win NT & 2000
Gap handling : Appended to previous track

Used output format : User Defined Encoder
Selected bitrate : 1024 kBit/s
Quality : High
Add ID3 tag : No
Command line compressor : C:\Program Files (x86)\Exact Audio Copy\Flac\flac.exe
Additional command line options : -8 -V -T "ARTIST=%artist%" -T "TITLE=%title%" -T "ALBUM=%albumtitle%" -T "DATE=%year%" -T "TRACKNUMBER=%tracknr%" -T "GENRE=%genre%" -T "PERFORMER=%albuminterpret%" -T "COMPOSER=%composer%" %haslyrics%–tag-from-file=LYRICS="%lyricsfile%"%haslyrics% -T "ALBUMARTIST=%albumartist%" -T "DISCNUMBER=%cdnumber%" -T "TOTALDISCS=%totalcds%" -T "TOTALTRACKS=%numtracks%" -T "COMMENT=%comment%" %source% -o %dest%


TOC of the extracted CD

Track | Start | Length | Start sector | End sector
––––––––––––––––––––––––––––-
1 | 0:00.00 | 2:51.01 | 0 | 12825
2 | 2:51.01 | 3:39.24 | 12826 | 29274
3 | 6:30.25 | 2:53.38 | 29275 | 42287
4 | 9:23.63 | 2:30.12 | 42288 | 53549
5 | 11:54.00 | 2:41.67 | 53550 | 65691
6 | 14:35.67 | 2:47.31 | 65692 | 78247
7 | 17:23.23 | 2:57.53 | 78248 | 91575
8 | 20:21.01 | 2:05.68 | 91576 | 101018
9 | 22:26.69 | 2:31.28 | 101019 | 112371
10 | 24:58.22 | 2:30.43 | 112372 | 123664
11 | 27:28.65 | 2:46.62 | 123665 | 136176
12 | 30:15.52 | 2:24.11 | 136177 | 146987
13 | 32:39.63 | 2:54.15 | 146988 | 160052
14 | 35:34.03 | 2:40.62 | 160053 | 172114
15 | 38:14.65 | 2:20.65 | 172115 | 182679
16 | 40:35.55 | 2:09.55 | 182680 | 192409
17 | 42:45.35 | 2:53.71 | 192410 | 205455
18 | 45:39.31 | 2:39.69 | 205456 | 217449
19 | 48:19.25 | 2:16.12 | 217450 | 227661
20 | 50:35.37 | 2:44.29 | 227662 | 239990
21 | 53:19.66 | 2:52.01 | 239991 | 252891
22 | 56:11.67 | 2:37.39 | 252892 | 264705
23 | 58:49.31 | 4:05.38 | 264706 | 283118
24 | 62:54.69 | 3:20.23 | 283119 | 298141
25 | 66:15.17 | 4:11.64 | 298142 | 317030


Track 1

Filename D:\#cdr\#wav+flac\#New\VA - 100 Hits Of The Great Songbirds\cd 3\01. Ella Fitzgerald - Manhattan.wav

Pre-gap length 0:00:02.00

Peak level 98.3 %
Extraction speed 4.3 X
Track quality 100.0 %
Test CRC 795A9B18
Copy CRC 795A9B18
Track not present in AccurateRip database
Copy OK

Track 2

Filename D:\#cdr\#wav+flac\#New\VA - 100 Hits Of The Great Songbirds\cd 3\02. Doris Day - Dream A Little Dream Of Me.wav

Pre-gap length 0:00:01.77

Peak level 98.8 %
Extraction speed 4.9 X
Track quality 100.0 %
Test CRC 8AC7B08D
Copy CRC 8AC7B08D
Track not present in AccurateRip database
Copy OK

Track 3

Filename D:\#cdr\#wav+flac\#New\VA - 100 Hits Of The Great Songbirds\cd 3\03. Sarah Vaughan - Fly Me To The Moon In Other Words.wav

Pre-gap length 0:00:01.77

Peak level 98.3 %
Extraction speed 5.0 X
Track quality 100.0 %
Test CRC 470550AF
Copy CRC 470550AF
Track not present in AccurateRip database
Copy OK

Track 4

Filename D:\#cdr\#wav+flac\#New\VA - 100 Hits Of The Great Songbirds\cd 3\04. Dinah Washington - A Sunday Kind Of Love.wav

Pre-gap length 0:00:01.77

Peak level 98.2 %
Extraction speed 5.2 X
Track quality 100.0 %
Test CRC 8EC391F7
Copy CRC 8EC391F7
Track not present in AccurateRip database
Copy OK

Track 5

Filename D:\#cdr\#wav+flac\#New\VA - 100 Hits Of The Great Songbirds\cd 3\05. Dakota Staton - Moonray.wav

Pre-gap length 0:00:01.77

Peak level 98.3 %
Extraction speed 5.5 X
Track quality 100.0 %
Test CRC C2FB388D
Copy CRC C2FB388D
Track not present in AccurateRip database
Copy OK

Track 6

Filename D:\#cdr\#wav+flac\#New\VA - 100 Hits Of The Great Songbirds\cd 3\06. June Christy - Is You Is Or Is You Ain't My Baby.wav

Pre-gap length 0:00:01.77

Peak level 98.3 %
Extraction speed 5.7 X
Track quality 100.0 %
Test CRC 7F3CD7E2
Copy CRC 7F3CD7E2
Track not present in AccurateRip database
Copy OK

Track 7

Filename D:\#cdr\#wav+flac\#New\VA - 100 Hits Of The Great Songbirds\cd 3\07. Billie Holiday - Love For Sale.wav

Pre-gap length 0:00:01.77

Peak level 98.3 %
Extraction speed 6.0 X
Track quality 100.0 %
Test CRC 8627A735
Copy CRC 8627A735
Track not present in AccurateRip database
Copy OK

Track 8

Filename D:\#cdr\#wav+flac\#New\VA - 100 Hits Of The Great Songbirds\cd 3\08. Nancy Wilson - Hello Young Lovers.wav

Pre-gap length 0:00:01.77

Peak level 98.3 %
Extraction speed 5.8 X
Track quality 100.0 %
Test CRC AE180578
Copy CRC AE180578
Track not present in AccurateRip database
Copy OK

Track 9

Filename D:\#cdr\#wav+flac\#New\VA - 100 Hits Of The Great Songbirds\cd 3\09. Peggy Lee - I've Got You Under My Skin.wav

Pre-gap length 0:00:01.77

Peak level 98.3 %
Extraction speed 4.7 X
Track quality 99.9 %
Test CRC 6696DD75
Copy CRC 6696DD75
Track not present in AccurateRip database
Copy OK

Track 10

Filename D:\#cdr\#wav+flac\#New\VA - 100 Hits Of The Great Songbirds\cd 3\10. Aretha Franklin - Just For A Thrill.wav

Pre-gap length 0:00:01.77

Peak level 98.5 %
Extraction speed 6.4 X
Track quality 100.0 %
Test CRC 8164CD80
Copy CRC 8164CD80
Track not present in AccurateRip database
Copy OK

Track 11

Filename D:\#cdr\#wav+flac\#New\VA - 100 Hits Of The Great Songbirds\cd 3\11. Frances Faye - Summertime.wav

Pre-gap length 0:00:01.77

Peak level 98.3 %
Extraction speed 6.7 X
Track quality 100.0 %
Test CRC 3B3D71C0
Copy CRC 3B3D71C0
Track not present in AccurateRip database
Copy OK

Track 12

Filename D:\#cdr\#wav+flac\#New\VA - 100 Hits Of The Great Songbirds\cd 3\12. Abbey Lincoln - Would I Love You.wav

Pre-gap length 0:00:01.77

Peak level 98.3 %
Extraction speed 6.7 X
Track quality 100.0 %
Test CRC B772E3B0
Copy CRC B772E3B0
Track not present in AccurateRip database
Copy OK

Track 13

Filename D:\#cdr\#wav+flac\#New\VA - 100 Hits Of The Great Songbirds\cd 3\13. Diana Dors & The Wally Stott Orchestra - Crazy He Calls Me.wav

Pre-gap length 0:00:01.77

Peak level 98.3 %
Extraction speed 7.1 X
Track quality 100.0 %
Test CRC A9F0CC17
Copy CRC A9F0CC17
Track not present in AccurateRip database
Copy OK

Track 14

Filename D:\#cdr\#wav+flac\#New\VA - 100 Hits Of The Great Songbirds\cd 3\14. Lena Horne - I Concentrate On You.wav

Pre-gap length 0:00:01.77

Peak level 98.4 %
Extraction speed 7.3 X
Track quality 100.0 %
Test CRC 9E2AC378
Copy CRC 9E2AC378
Track not present in AccurateRip database
Copy OK

Track 15

Filename D:\#cdr\#wav+flac\#New\VA - 100 Hits Of The Great Songbirds\cd 3\15. Etta James - Don't Cry Baby.wav

Pre-gap length 0:00:01.77

Peak level 98.6 %
Extraction speed 7.1 X
Track quality 100.0 %
Test CRC 5B98736B
Copy CRC 5B98736B
Track not present in AccurateRip database
Copy OK

Track 16

Filename D:\#cdr\#wav+flac\#New\VA - 100 Hits Of The Great Songbirds\cd 3\16. Toni Harper - You And The Night And The Music.wav

Pre-gap length 0:00:01.77

Peak level 98.8 %
Extraction speed 7.3 X
Track quality 100.0 %
Test CRC 1290A8A1
Copy CRC 1290A8A1
Track not present in AccurateRip database
Copy OK

Track 17

Filename D:\#cdr\#wav+flac\#New\VA - 100 Hits Of The Great Songbirds\cd 3\17. Julie London - Round Midnight.wav

Pre-gap length 0:00:01.77

Peak level 98.3 %
Extraction speed 6.1 X
Track quality 99.9 %
Test CRC 188E06B0
Copy CRC 188E06B0
Track not present in AccurateRip database
Copy OK

Track 18

Filename D:\#cdr\#wav+flac\#New\VA - 100 Hits Of The Great Songbirds\cd 3\18. Kay Starr - What Do You See In Her.wav

Pre-gap length 0:00:01.77

Peak level 98.4 %
Extraction speed 7.9 X
Track quality 100.0 %
Test CRC 334DC4BD
Copy CRC 334DC4BD
Track not present in AccurateRip database
Copy OK

Track 19

Filename D:\#cdr\#wav+flac\#New\VA - 100 Hits Of The Great Songbirds\cd 3\19. Anita O'Day - The Thrill Is Gone.wav

Pre-gap length 0:00:01.77

Peak level 98.4 %
Extraction speed 7.8 X
Track quality 100.0 %
Test CRC 92E7CA67
Copy CRC 92E7CA67
Track not present in AccurateRip database
Copy OK

Track 20

Filename D:\#cdr\#wav+flac\#New\VA - 100 Hits Of The Great Songbirds\cd 3\20. Pearl Bailey - You Waited Too Long.wav

Pre-gap length 0:00:01.77

Peak level 98.3 %
Extraction speed 8.2 X
Track quality 100.0 %
Test CRC DA5DDA76
Copy CRC DA5DDA76
Track not present in AccurateRip database
Copy OK

Track 21

Filename D:\#cdr\#wav+flac\#New\VA - 100 Hits Of The Great Songbirds\cd 3\21. Diahann Carroll - Once Is Enough For Me.wav

Pre-gap length 0:00:01.77

Peak level 98.3 %
Extraction speed 8.4 X
Track quality 100.0 %
Test CRC 19A21EC3
Copy CRC 19A21EC3
Track not present in AccurateRip database
Copy OK

Track 22

Filename D:\#cdr\#wav+flac\#New\VA - 100 Hits Of The Great Songbirds\cd 3\22. Cleo Laine - I Don't Know Why.wav

Pre-gap length 0:00:01.77

Peak level 98.3 %
Extraction speed 8.5 X
Track quality 100.0 %
Test CRC 43B157ED
Copy CRC 43B157ED
Track not present in AccurateRip database
Copy OK

Track 23

Filename D:\#cdr\#wav+flac\#New\VA - 100 Hits Of The Great Songbirds\cd 3\23. Joy Bryan - Old Devil Moon.wav

Pre-gap length 0:00:01.77

Peak level 98.3 %
Extraction speed 9.4 X
Track quality 100.0 %
Test CRC 54E3ACA7
Copy CRC 54E3ACA7
Track not present in AccurateRip database
Copy OK

Track 24

Filename D:\#cdr\#wav+flac\#New\VA - 100 Hits Of The Great Songbirds\cd 3\24. Shirley Bassey - A Lovely Way To Spend An Evening.wav

Pre-gap length 0:00:01.77

Peak level 98.3 %
Extraction speed 9.1 X
Track quality 100.0 %
Test CRC 3EE3EF7E
Copy CRC 3EE3EF7E
Track not present in AccurateRip database
Copy OK

Track 25

Filename D:\#cdr\#wav+flac\#New\VA - 100 Hits Of The Great Songbirds\cd 3\25. Nina Simone - I Loves You Porgy.wav

Pre-gap length 0:00:01.77

Peak level 98.3 %
Extraction speed 9.7 X
Track quality 100.0 %
Test CRC C906ED43
Copy CRC C906ED43
Track not present in AccurateRip database
Copy OK


None of the tracks are present in the AccurateRip database

No errors occurred

End of status report

–– CUETools DB Plugin V2.1.6

[CTDB TOCID: F0fDq7BHbxTcZGks.J28DHoh8B4-] disk not present in database
Submit result: F0fDq7BHbxTcZGks.J28DHoh8B4- has been uploaded


==== Log checksum 6D4E0E80A33FAD6DCBB2F1B88F893663B1D88B67D7930D755CCD780544336A95 ====

––––––––––––––––––––––––––––––

Exact Audio Copy V1.3 from 2. September 2016

EAC extraction logfile from 12. March 2021, 16:54

Various Artists / 100 Hits Of The Great Songbirds

Used drive : HL-DT-STBD-RE BH16NS55 Adapter: 1 ID: 0

Read mode : Secure
Utilize accurate stream : Yes
Defeat audio cache : Yes
Make use of C2 pointers : No

Read offset correction : 6
Overread into Lead-In and Lead-Out : No
Fill up missing offset samples with silence : Yes
Delete leading and trailing silent blocks : No
Null samples used in CRC calculations : Yes
Used interface : Native Win32 interface for Win NT & 2000
Gap handling : Appended to previous track

Used output format : User Defined Encoder
Selected bitrate : 1024 kBit/s
Quality : High
Add ID3 tag : No
Command line compressor : C:\Program Files (x86)\Exact Audio Copy\Flac\flac.exe
Additional command line options : -8 -V -T "ARTIST=%artist%" -T "TITLE=%title%" -T "ALBUM=%albumtitle%" -T "DATE=%year%" -T "TRACKNUMBER=%tracknr%" -T "GENRE=%genre%" -T "PERFORMER=%albuminterpret%" -T "COMPOSER=%composer%" %haslyrics%–tag-from-file=LYRICS="%lyricsfile%"%haslyrics% -T "ALBUMARTIST=%albumartist%" -T "DISCNUMBER=%cdnumber%" -T "TOTALDISCS=%totalcds%" -T "TOTALTRACKS=%numtracks%" -T "COMMENT=%comment%" %source% -o %dest%


TOC of the extracted CD

Track | Start | Length | Start sector | End sector
––––––––––––––––––––––––––––-
1 | 0:00.00 | 2:51.01 | 0 | 12825
2 | 2:51.01 | 3:39.24 | 12826 | 29274
3 | 6:30.25 | 2:53.38 | 29275 | 42287
4 | 9:23.63 | 2:30.12 | 42288 | 53549
5 | 11:54.00 | 2:41.67 | 53550 | 65691
6 | 14:35.67 | 2:47.31 | 65692 | 78247
7 | 17:23.23 | 2:57.53 | 78248 | 91575
8 | 20:21.01 | 2:05.68 | 91576 | 101018
9 | 22:26.69 | 2:31.28 | 101019 | 112371
10 | 24:58.22 | 2:30.43 | 112372 | 123664
11 | 27:28.65 | 2:46.62 | 123665 | 136176
12 | 30:15.52 | 2:24.11 | 136177 | 146987
13 | 32:39.63 | 2:54.15 | 146988 | 160052
14 | 35:34.03 | 2:40.62 | 160053 | 172114
15 | 38:14.65 | 2:20.65 | 172115 | 182679
16 | 40:35.55 | 2:09.55 | 182680 | 192409
17 | 42:45.35 | 2:53.71 | 192410 | 205455
18 | 45:39.31 | 2:39.69 | 205456 | 217449
19 | 48:19.25 | 2:16.12 | 217450 | 227661
20 | 50:35.37 | 2:44.29 | 227662 | 239990
21 | 53:19.66 | 2:52.01 | 239991 | 252891
22 | 56:11.67 | 2:37.39 | 252892 | 264705
23 | 58:49.31 | 4:05.38 | 264706 | 283118
24 | 62:54.69 | 3:20.23 | 283119 | 298141
25 | 66:15.17 | 4:11.64 | 298142 | 317030


Track 1

Filename D:\#cdr\#wav+flac\#New\VA - 100 Hits Of The Great Songbirds\cd 3\01. Ella Fitzgerald - Manhattan.wav

Pre-gap length 0:00:02.00

Peak level 98.3 %
Extraction speed 4.3 X
Track quality 100.0 %
Test CRC 795A9B18
Copy CRC 795A9B18
Track not present in AccurateRip database
Copy OK

Track 2

Filename D:\#cdr\#wav+flac\#New\VA - 100 Hits Of The Great Songbirds\cd 3\02. Doris Day - Dream A Little Dream Of Me.wav

Pre-gap length 0:00:01.77

Peak level 98.8 %
Extraction speed 4.9 X
Track quality 100.0 %
Test CRC 8AC7B08D
Copy CRC 8AC7B08D
Track not present in AccurateRip database
Copy OK

Track 3

Filename D:\#cdr\#wav+flac\#New\VA - 100 Hits Of The Great Songbirds\cd 3\03. Sarah Vaughan - Fly Me To The Moon In Other Words.wav

Pre-gap length 0:00:01.77

Peak level 98.3 %
Extraction speed 5.0 X
Track quality 100.0 %
Test CRC 470550AF
Copy CRC 470550AF
Track not present in AccurateRip database
Copy OK

Track 4

Filename D:\#cdr\#wav+flac\#New\VA - 100 Hits Of The Great Songbirds\cd 3\04. Dinah Washington - A Sunday Kind Of Love.wav

Pre-gap length 0:00:01.77

Peak level 98.2 %
Extraction speed 5.2 X
Track quality 100.0 %
Test CRC 8EC391F7
Copy CRC 8EC391F7
Track not present in AccurateRip database
Copy OK

Track 5

Filename D:\#cdr\#wav+flac\#New\VA - 100 Hits Of The Great Songbirds\cd 3\05. Dakota Staton - Moonray.wav

Pre-gap length 0:00:01.77

Peak level 98.3 %
Extraction speed 5.5 X
Track quality 100.0 %
Test CRC C2FB388D
Copy CRC C2FB388D
Track not present in AccurateRip database
Copy OK

Track 6

Filename D:\#cdr\#wav+flac\#New\VA - 100 Hits Of The Great Songbirds\cd 3\06. June Christy - Is You Is Or Is You Ain't My Baby.wav

Pre-gap length 0:00:01.77

Peak level 98.3 %
Extraction speed 5.7 X
Track quality 100.0 %
Test CRC 7F3CD7E2
Copy CRC 7F3CD7E2
Track not present in AccurateRip database
Copy OK

Track 7

Filename D:\#cdr\#wav+flac\#New\VA - 100 Hits Of The Great Songbirds\cd 3\07. Billie Holiday - Love For Sale.wav

Pre-gap length 0:00:01.77

Peak level 98.3 %
Extraction speed 6.0 X
Track quality 100.0 %
Test CRC 8627A735
Copy CRC 8627A735
Track not present in AccurateRip database
Copy OK

Track 8

Filename D:\#cdr\#wav+flac\#New\VA - 100 Hits Of The Great Songbirds\cd 3\08. Nancy Wilson - Hello Young Lovers.wav

Pre-gap length 0:00:01.77

Peak level 98.3 %
Extraction speed 5.8 X
Track quality 100.0 %
Test CRC AE180578
Copy CRC AE180578
Track not present in AccurateRip database
Copy OK

Track 9

Filename D:\#cdr\#wav+flac\#New\VA - 100 Hits Of The Great Songbirds\cd 3\09. Peggy Lee - I've Got You Under My Skin.wav

Pre-gap length 0:00:01.77

Peak level 98.3 %
Extraction speed 4.7 X
Track quality 99.9 %
Test CRC 6696DD75
Copy CRC 6696DD75
Track not present in AccurateRip database
Copy OK

Track 10

Filename D:\#cdr\#wav+flac\#New\VA - 100 Hits Of The Great Songbirds\cd 3\10. Aretha Franklin - Just For A Thrill.wav

Pre-gap length 0:00:01.77

Peak level 98.5 %
Extraction speed 6.4 X
Track quality 100.0 %
Test CRC 8164CD80
Copy CRC 8164CD80
Track not present in AccurateRip database
Copy OK

Track 11

Filename D:\#cdr\#wav+flac\#New\VA - 100 Hits Of The Great Songbirds\cd 3\11. Frances Faye - Summertime.wav

Pre-gap length 0:00:01.77

Peak level 98.3 %
Extraction speed 6.7 X
Track quality 100.0 %
Test CRC 3B3D71C0
Copy CRC 3B3D71C0
Track not present in AccurateRip database
Copy OK

Track 12

Filename D:\#cdr\#wav+flac\#New\VA - 100 Hits Of The Great Songbirds\cd 3\12. Abbey Lincoln - Would I Love You.wav

Pre-gap length 0:00:01.77

Peak level 98.3 %
Extraction speed 6.7 X
Track quality 100.0 %
Test CRC B772E3B0
Copy CRC B772E3B0
Track not present in AccurateRip database
Copy OK

Track 13

Filename D:\#cdr\#wav+flac\#New\VA - 100 Hits Of The Great Songbirds\cd 3\13. Diana Dors & The Wally Stott Orchestra - Crazy He Calls Me.wav

Pre-gap length 0:00:01.77

Peak level 98.3 %
Extraction speed 7.1 X
Track quality 100.0 %
Test CRC A9F0CC17
Copy CRC A9F0CC17
Track not present in AccurateRip database
Copy OK

Track 14

Filename D:\#cdr\#wav+flac\#New\VA - 100 Hits Of The Great Songbirds\cd 3\14. Lena Horne - I Concentrate On You.wav

Pre-gap length 0:00:01.77

Peak level 98.4 %
Extraction speed 7.3 X
Track quality 100.0 %
Test CRC 9E2AC378
Copy CRC 9E2AC378
Track not present in AccurateRip database
Copy OK

Track 15

Filename D:\#cdr\#wav+flac\#New\VA - 100 Hits Of The Great Songbirds\cd 3\15. Etta James - Don't Cry Baby.wav

Pre-gap length 0:00:01.77

Peak level 98.6 %
Extraction speed 7.1 X
Track quality 100.0 %
Test CRC 5B98736B
Copy CRC 5B98736B
Track not present in AccurateRip database
Copy OK

Track 16

Filename D:\#cdr\#wav+flac\#New\VA - 100 Hits Of The Great Songbirds\cd 3\16. Toni Harper - You And The Night And The Music.wav

Pre-gap length 0:00:01.77

Peak level 98.8 %
Extraction speed 7.3 X
Track quality 100.0 %
Test CRC 1290A8A1
Copy CRC 1290A8A1
Track not present in AccurateRip database
Copy OK

Track 17

Filename D:\#cdr\#wav+flac\#New\VA - 100 Hits Of The Great Songbirds\cd 3\17. Julie London - Round Midnight.wav

Pre-gap length 0:00:01.77

Peak level 98.3 %
Extraction speed 6.1 X
Track quality 99.9 %
Test CRC 188E06B0
Copy CRC 188E06B0
Track not present in AccurateRip database
Copy OK

Track 18

Filename D:\#cdr\#wav+flac\#New\VA - 100 Hits Of The Great Songbirds\cd 3\18. Kay Starr - What Do You See In Her.wav

Pre-gap length 0:00:01.77

Peak level 98.4 %
Extraction speed 7.9 X
Track quality 100.0 %
Test CRC 334DC4BD
Copy CRC 334DC4BD
Track not present in AccurateRip database
Copy OK

Track 19

Filename D:\#cdr\#wav+flac\#New\VA - 100 Hits Of The Great Songbirds\cd 3\19. Anita O'Day - The Thrill Is Gone.wav

Pre-gap length 0:00:01.77

Peak level 98.4 %
Extraction speed 7.8 X
Track quality 100.0 %
Test CRC 92E7CA67
Copy CRC 92E7CA67
Track not present in AccurateRip database
Copy OK

Track 20

Filename D:\#cdr\#wav+flac\#New\VA - 100 Hits Of The Great Songbirds\cd 3\20. Pearl Bailey - You Waited Too Long.wav

Pre-gap length 0:00:01.77

Peak level 98.3 %
Extraction speed 8.2 X
Track quality 100.0 %
Test CRC DA5DDA76
Copy CRC DA5DDA76
Track not present in AccurateRip database
Copy OK

Track 21

Filename D:\#cdr\#wav+flac\#New\VA - 100 Hits Of The Great Songbirds\cd 3\21. Diahann Carroll - Once Is Enough For Me.wav

Pre-gap length 0:00:01.77

Peak level 98.3 %
Extraction speed 8.4 X
Track quality 100.0 %
Test CRC 19A21EC3
Copy CRC 19A21EC3
Track not present in AccurateRip database
Copy OK

Track 22

Filename D:\#cdr\#wav+flac\#New\VA - 100 Hits Of The Great Songbirds\cd 3\22. Cleo Laine - I Don't Know Why.wav

Pre-gap length 0:00:01.77

Peak level 98.3 %
Extraction speed 8.5 X
Track quality 100.0 %
Test CRC 43B157ED
Copy CRC 43B157ED
Track not present in AccurateRip database
Copy OK

Track 23

Filename D:\#cdr\#wav+flac\#New\VA - 100 Hits Of The Great Songbirds\cd 3\23. Joy Bryan - Old Devil Moon.wav

Pre-gap length 0:00:01.77

Peak level 98.3 %
Extraction speed 9.4 X
Track quality 100.0 %
Test CRC 54E3ACA7
Copy CRC 54E3ACA7
Track not present in AccurateRip database
Copy OK

Track 24

Filename D:\#cdr\#wav+flac\#New\VA - 100 Hits Of The Great Songbirds\cd 3\24. Shirley Bassey - A Lovely Way To Spend An Evening.wav

Pre-gap length 0:00:01.77

Peak level 98.3 %
Extraction speed 9.1 X
Track quality 100.0 %
Test CRC 3EE3EF7E
Copy CRC 3EE3EF7E
Track not present in AccurateRip database
Copy OK

Track 25

Filename D:\#cdr\#wav+flac\#New\VA - 100 Hits Of The Great Songbirds\cd 3\25. Nina Simone - I Loves You Porgy.wav

Pre-gap length 0:00:01.77

Peak level 98.3 %
Extraction speed 9.7 X
Track quality 100.0 %
Test CRC C906ED43
Copy CRC C906ED43
Track not present in AccurateRip database
Copy OK


None of the tracks are present in the AccurateRip database

No errors occurred

End of status report

–– CUETools DB Plugin V2.1.6

[CTDB TOCID: F0fDq7BHbxTcZGks.J28DHoh8B4-] disk not present in database
Submit result: F0fDq7BHbxTcZGks.J28DHoh8B4- has been uploaded


==== Log checksum 6AD30A36035E1911FDDE5238403FC086B08B48B9226A1BC94FFD5242031AA60C ====
Exact Audio Copy V1.3 from 2. September 2016

EAC extraction logfile from 12. March 2021, 17:21

Various Artists / 100 Hits Of The Great Songbirds

Used drive : HL-DT-STBD-RE BH16NS55 Adapter: 1 ID: 0

Read mode : Secure
Utilize accurate stream : Yes
Defeat audio cache : Yes
Make use of C2 pointers : No

Read offset correction : 6
Overread into Lead-In and Lead-Out : No
Fill up missing offset samples with silence : Yes
Delete leading and trailing silent blocks : No
Null samples used in CRC calculations : Yes
Used interface : Native Win32 interface for Win NT & 2000
Gap handling : Appended to previous track

Used output format : User Defined Encoder
Selected bitrate : 1024 kBit/s
Quality : High
Add ID3 tag : No
Command line compressor : C:\Program Files (x86)\Exact Audio Copy\Flac\flac.exe
Additional command line options : -8 -V -T "ARTIST=%artist%" -T "TITLE=%title%" -T "ALBUM=%albumtitle%" -T "DATE=%year%" -T "TRACKNUMBER=%tracknr%" -T "GENRE=%genre%" -T "PERFORMER=%albuminterpret%" -T "COMPOSER=%composer%" %haslyrics%–tag-from-file=LYRICS="%lyricsfile%"%haslyrics% -T "ALBUMARTIST=%albumartist%" -T "DISCNUMBER=%cdnumber%" -T "TOTALDISCS=%totalcds%" -T "TOTALTRACKS=%numtracks%" -T "COMMENT=%comment%" %source% -o %dest%


TOC of the extracted CD

Track | Start | Length | Start sector | End sector
––––––––––––––––––––––––––––-
1 | 0:00.00 | 2:16.54 | 0 | 10253
2 | 2:16.54 | 3:11.43 | 10254 | 24621
3 | 5:28.22 | 2:39.32 | 24622 | 36578
4 | 8:07.54 | 2:51.74 | 36579 | 49477
5 | 10:59.53 | 2:38.51 | 49478 | 61378
6 | 13:38.29 | 2:37.30 | 61379 | 73183
7 | 16:15.59 | 2:37.21 | 73184 | 84979
8 | 18:53.05 | 2:57.61 | 84980 | 98315
9 | 21:50.66 | 2:19.05 | 98316 | 108745
10 | 24:09.71 | 3:16.23 | 108746 | 123468
11 | 27:26.19 | 2:25.06 | 123469 | 134349
12 | 29:51.25 | 2:17.44 | 134350 | 144668
13 | 32:08.69 | 2:05.67 | 144669 | 154110
14 | 34:14.61 | 2:49.45 | 154111 | 166830
15 | 37:04.31 | 2:58.00 | 166831 | 180180
16 | 40:02.31 | 2:17.19 | 180181 | 190474
17 | 42:19.50 | 2:09.05 | 190475 | 200154
18 | 44:28.55 | 2:10.46 | 200155 | 209950
19 | 46:39.26 | 2:46.16 | 209951 | 222416
20 | 49:25.42 | 3:52.35 | 222417 | 239851
21 | 53:18.02 | 3:13.20 | 239852 | 254346
22 | 56:31.22 | 2:19.02 | 254347 | 264773
23 | 58:50.24 | 2:22.59 | 264774 | 275482
24 | 61:13.08 | 4:18.22 | 275483 | 294854
25 | 65:31.30 | 2:49.48 | 294855 | 307577


Track 1

Filename D:\#cdr\#wav+flac\#New\VA - 100 Hits Of The Great Songbirds\cd 4\01. Carmen McRae - Take Five.wav

Pre-gap length 0:00:02.00

Peak level 98.3 %
Extraction speed 4.2 X
Track quality 100.0 %
Test CRC 1FB1785C
Copy CRC 1FB1785C
Track not present in AccurateRip database
Copy OK

Track 2

Filename D:\#cdr\#wav+flac\#New\VA - 100 Hits Of The Great Songbirds\cd 4\02. Shirley Bassey - They Can't Take That Away From Me.wav

Pre-gap length 0:00:01.77

Peak level 98.4 %
Extraction speed 3.8 X
Track quality 99.9 %
Test CRC B76FEB97
Copy CRC B76FEB97
Track not present in AccurateRip database
Copy OK

Track 3

Filename D:\#cdr\#wav+flac\#New\VA - 100 Hits Of The Great Songbirds\cd 4\03. Diahann Carroll - Let's Face The Music And Dance.wav

Pre-gap length 0:00:01.77

Peak level 98.3 %
Extraction speed 5.0 X
Track quality 100.0 %
Test CRC BD1A124E
Copy CRC BD1A124E
Track not present in AccurateRip database
Copy OK

Track 4

Filename D:\#cdr\#wav+flac\#New\VA - 100 Hits Of The Great Songbirds\cd 4\04. Sarah Vaughan - The Best Is Yet To Come.wav

Pre-gap length 0:00:01.77

Peak level 98.3 %
Extraction speed 4.1 X
Track quality 99.9 %
Test CRC CFE50C9E
Copy CRC CFE50C9E
Track not present in AccurateRip database
Copy OK

Track 5

Filename D:\#cdr\#wav+flac\#New\VA - 100 Hits Of The Great Songbirds\cd 4\05. Carol Sloane - On The Street Where You Live.wav

Pre-gap length 0:00:01.77

Peak level 98.3 %
Extraction speed 4.2 X
Track quality 99.9 %
Test CRC A22A2C31
Copy CRC A22A2C31
Track not present in AccurateRip database
Copy OK

Track 6

Filename D:\#cdr\#wav+flac\#New\VA - 100 Hits Of The Great Songbirds\cd 4\06. Ella Fitzgerald - It's Only A Paper Moon.wav

Pre-gap length 0:00:01.77

Peak level 98.3 %
Extraction speed 5.7 X
Track quality 100.0 %
Test CRC C7484664
Copy CRC C7484664
Track not present in AccurateRip database
Copy OK

Track 7

Filename D:\#cdr\#wav+flac\#New\VA - 100 Hits Of The Great Songbirds\cd 4\07. Peggy Lee - The Glory Of Love.wav

Pre-gap length 0:00:01.77

Peak level 98.4 %
Extraction speed 5.9 X
Track quality 100.0 %
Test CRC 2D2FF462
Copy CRC 2D2FF462
Track not present in AccurateRip database
Copy OK

Track 8

Filename D:\#cdr\#wav+flac\#New\VA - 100 Hits Of The Great Songbirds\cd 4\08. Cleo Laine - Unforgettable.wav

Pre-gap length 0:00:01.77

Peak level 97.5 %
Extraction speed 6.3 X
Track quality 100.0 %
Test CRC 5C022286
Copy CRC 5C022286
Track not present in AccurateRip database
Copy OK

Track 9

Filename D:\#cdr\#wav+flac\#New\VA - 100 Hits Of The Great Songbirds\cd 4\09. Dinah Washington - Bewitched.wav

Pre-gap length 0:00:01.77

Peak level 98.3 %
Extraction speed 6.3 X
Track quality 100.0 %
Test CRC C3003B0E
Copy CRC C3003B0E
Track not present in AccurateRip database
Copy OK

Track 10

Filename D:\#cdr\#wav+flac\#New\VA - 100 Hits Of The Great Songbirds\cd 4\10. Billie Holiday - He's Funny That Way.wav

Pre-gap length 0:00:01.77

Peak level 98.3 %
Extraction speed 6.8 X
Track quality 100.0 %
Test CRC C0DDA5C9
Copy CRC C0DDA5C9
Track not present in AccurateRip database
Copy OK

Track 11

Filename D:\#cdr\#wav+flac\#New\VA - 100 Hits Of The Great Songbirds\cd 4\11. Doris Day - Oops.wav

Pre-gap length 0:00:01.77

Peak level 98.4 %
Extraction speed 5.0 X
Track quality 99.9 %
Test CRC C81A921A
Copy CRC C81A921A
Track not present in AccurateRip database
Copy OK

Track 12

Filename D:\#cdr\#wav+flac\#New\VA - 100 Hits Of The Great Songbirds\cd 4\12. Kay Starr - I've Grown Accustomed To His Face.wav

Pre-gap length 0:00:01.77

Peak level 98.3 %
Extraction speed 6.8 X
Track quality 100.0 %
Test CRC ADA08882
Copy CRC ADA08882
Track not present in AccurateRip database
Copy OK

Track 13

Filename D:\#cdr\#wav+flac\#New\VA - 100 Hits Of The Great Songbirds\cd 4\13. Julie London - June In January.wav

Pre-gap length 0:00:01.77

Peak level 98.6 %
Extraction speed 6.9 X
Track quality 100.0 %
Test CRC 81BB4520
Copy CRC 81BB4520
Track not present in AccurateRip database
Copy OK

Track 14

Filename D:\#cdr\#wav+flac\#New\VA - 100 Hits Of The Great Songbirds\cd 4\14. Aretha Franklin - I Apologize.wav

Pre-gap length 0:00:01.77

Peak level 98.4 %
Extraction speed 7.4 X
Track quality 100.0 %
Test CRC 96C5863C
Copy CRC 96C5863C
Track not present in AccurateRip database
Copy OK

Track 15

Filename D:\#cdr\#wav+flac\#New\VA - 100 Hits Of The Great Songbirds\cd 4\15. Lena Horne - The Lady Is A Tramp.wav

Pre-gap length 0:00:01.77

Peak level 98.4 %
Extraction speed 7.7 X
Track quality 100.0 %
Test CRC 5323C4C6
Copy CRC 5323C4C6
Track not present in AccurateRip database
Copy OK

Track 16

Filename D:\#cdr\#wav+flac\#New\VA - 100 Hits Of The Great Songbirds\cd 4\16. June Christy - You Came A Long Way From St. Louis.wav

Pre-gap length 0:00:01.77

Peak level 98.3 %
Extraction speed 7.5 X
Track quality 100.0 %
Test CRC 825E321F
Copy CRC 825E321F
Track not present in AccurateRip database
Copy OK

Track 17

Filename D:\#cdr\#wav+flac\#New\VA - 100 Hits Of The Great Songbirds\cd 4\17. Nina Simone - Stompin' At The Savoy.wav

Pre-gap length 0:00:01.77

Peak level 98.1 %
Extraction speed 7.5 X
Track quality 100.0 %
Test CRC 88195404
Copy CRC 88195404
Track not present in AccurateRip database
Copy OK

Track 18

Filename D:\#cdr\#wav+flac\#New\VA - 100 Hits Of The Great Songbirds\cd 4\18. Dakota Staton - They All Laughed.wav

Pre-gap length 0:00:01.77

Peak level 98.4 %
Extraction speed 7.6 X
Track quality 100.0 %
Test CRC B2902DBF
Copy CRC B2902DBF
Track not present in AccurateRip database
Copy OK

Track 19

Filename D:\#cdr\#wav+flac\#New\VA - 100 Hits Of The Great Songbirds\cd 4\19. Morgana King - Undecided.wav

Pre-gap length 0:00:01.77

Peak level 98.3 %
Extraction speed 8.2 X
Track quality 100.0 %
Test CRC 7361C34C
Copy CRC 7361C34C
Track not present in AccurateRip database
Copy OK

Track 20

Filename D:\#cdr\#wav+flac\#New\VA - 100 Hits Of The Great Songbirds\cd 4\20. Keely Smith - When Day Is Done.wav

Pre-gap length 0:00:01.77

Peak level 98.4 %
Extraction speed 8.8 X
Track quality 100.0 %
Test CRC 734C6AC3
Copy CRC 734C6AC3
Track not present in AccurateRip database
Copy OK

Track 21

Filename D:\#cdr\#wav+flac\#New\VA - 100 Hits Of The Great Songbirds\cd 4\21. Jo Stafford & Paul Weston - Some Enchanted Evening.wav

Pre-gap length 0:00:01.77

Peak level 98.3 %
Extraction speed 8.6 X
Track quality 100.0 %
Test CRC 254449BD
Copy CRC 254449BD
Track not present in AccurateRip database
Copy OK

Track 22

Filename D:\#cdr\#wav+flac\#New\VA - 100 Hits Of The Great Songbirds\cd 4\22. Diana Dors - The Point Of No Return.wav

Pre-gap length 0:00:01.77

Peak level 98.5 %
Extraction speed 8.4 X
Track quality 100.0 %
Test CRC 495EC576
Copy CRC 495EC576
Track not present in AccurateRip database
Copy OK

Track 23

Filename D:\#cdr\#wav+flac\#New\VA - 100 Hits Of The Great Songbirds\cd 4\23. Abbey Lincoln - This Can't Be Love.wav

Pre-gap length 0:00:01.77

Peak level 98.3 %
Extraction speed 8.5 X
Track quality 100.0 %
Test CRC D969A363
Copy CRC D969A363
Track not present in AccurateRip database
Copy OK

Track 24

Filename D:\#cdr\#wav+flac\#New\VA - 100 Hits Of The Great Songbirds\cd 4\24. Nancy Wilson - The Masquerade Is Over.wav

Pre-gap length 0:00:01.77

Peak level 98.3 %
Extraction speed 7.9 X
Track quality 99.9 %
Test CRC 37765693
Copy CRC 37765693
Track not present in AccurateRip database
Copy OK

Track 25

Filename D:\#cdr\#wav+flac\#New\VA - 100 Hits Of The Great Songbirds\cd 4\25. Judy Garland - Over The Rainbow.wav

Pre-gap length 0:00:01.77

Peak level 98.3 %
Extraction speed 6.8 X
Track quality 99.9 %
Test CRC 1DAB22B5
Copy CRC 1DAB22B5
Track not present in AccurateRip database
Copy OK


None of the tracks are present in the AccurateRip database

No errors occurred

End of status report

–– CUETools DB Plugin V2.1.6

[CTDB TOCID: vUFR_YwQgDBVWI1ei_mtZf0Au2o-] disk not present in database
Submit result: vUFR_YwQgDBVWI1ei_mtZf0Au2o- has been uploaded


==== Log checksum 5918011A0D34BAEDBE071ED65CBEF0A834DE13845A5DF6E8750E95DDE27F62C2 ====

––––––––––––––––––––––––––––––

Exact Audio Copy V1.3 from 2. September 2016

EAC extraction logfile from 12. March 2021, 17:21

Various Artists / 100 Hits Of The Great Songbirds

Used drive : HL-DT-STBD-RE BH16NS55 Adapter: 1 ID: 0

Read mode : Secure
Utilize accurate stream : Yes
Defeat audio cache : Yes
Make use of C2 pointers : No

Read offset correction : 6
Overread into Lead-In and Lead-Out : No
Fill up missing offset samples with silence : Yes
Delete leading and trailing silent blocks : No
Null samples used in CRC calculations : Yes
Used interface : Native Win32 interface for Win NT & 2000
Gap handling : Appended to previous track

Used output format : User Defined Encoder
Selected bitrate : 1024 kBit/s
Quality : High
Add ID3 tag : No
Command line compressor : C:\Program Files (x86)\Exact Audio Copy\Flac\flac.exe
Additional command line options : -8 -V -T "ARTIST=%artist%" -T "TITLE=%title%" -T "ALBUM=%albumtitle%" -T "DATE=%year%" -T "TRACKNUMBER=%tracknr%" -T "GENRE=%genre%" -T "PERFORMER=%albuminterpret%" -T "COMPOSER=%composer%" %haslyrics%–tag-from-file=LYRICS="%lyricsfile%"%haslyrics% -T "ALBUMARTIST=%albumartist%" -T "DISCNUMBER=%cdnumber%" -T "TOTALDISCS=%totalcds%" -T "TOTALTRACKS=%numtracks%" -T "COMMENT=%comment%" %source% -o %dest%


TOC of the extracted CD

Track | Start | Length | Start sector | End sector
––––––––––––––––––––––––––––-
1 | 0:00.00 | 2:16.54 | 0 | 10253
2 | 2:16.54 | 3:11.43 | 10254 | 24621
3 | 5:28.22 | 2:39.32 | 24622 | 36578
4 | 8:07.54 | 2:51.74 | 36579 | 49477
5 | 10:59.53 | 2:38.51 | 49478 | 61378
6 | 13:38.29 | 2:37.30 | 61379 | 73183
7 | 16:15.59 | 2:37.21 | 73184 | 84979
8 | 18:53.05 | 2:57.61 | 84980 | 98315
9 | 21:50.66 | 2:19.05 | 98316 | 108745
10 | 24:09.71 | 3:16.23 | 108746 | 123468
11 | 27:26.19 | 2:25.06 | 123469 | 134349
12 | 29:51.25 | 2:17.44 | 134350 | 144668
13 | 32:08.69 | 2:05.67 | 144669 | 154110
14 | 34:14.61 | 2:49.45 | 154111 | 166830
15 | 37:04.31 | 2:58.00 | 166831 | 180180
16 | 40:02.31 | 2:17.19 | 180181 | 190474
17 | 42:19.50 | 2:09.05 | 190475 | 200154
18 | 44:28.55 | 2:10.46 | 200155 | 209950
19 | 46:39.26 | 2:46.16 | 209951 | 222416
20 | 49:25.42 | 3:52.35 | 222417 | 239851
21 | 53:18.02 | 3:13.20 | 239852 | 254346
22 | 56:31.22 | 2:19.02 | 254347 | 264773
23 | 58:50.24 | 2:22.59 | 264774 | 275482
24 | 61:13.08 | 4:18.22 | 275483 | 294854
25 | 65:31.30 | 2:49.48 | 294855 | 307577


Track 1

Filename D:\#cdr\#wav+flac\#New\VA - 100 Hits Of The Great Songbirds\cd 4\01. Carmen McRae - Take Five.wav

Pre-gap length 0:00:02.00

Peak level 98.3 %
Extraction speed 4.2 X
Track quality 100.0 %
Test CRC 1FB1785C
Copy CRC 1FB1785C
Track not present in AccurateRip database
Copy OK

Track 2

Filename D:\#cdr\#wav+flac\#New\VA - 100 Hits Of The Great Songbirds\cd 4\02. Shirley Bassey - They Can't Take That Away From Me.wav

Pre-gap length 0:00:01.77

Peak level 98.4 %
Extraction speed 3.8 X
Track quality 99.9 %
Test CRC B76FEB97
Copy CRC B76FEB97
Track not present in AccurateRip database
Copy OK

Track 3

Filename D:\#cdr\#wav+flac\#New\VA - 100 Hits Of The Great Songbirds\cd 4\03. Diahann Carroll - Let's Face The Music And Dance.wav

Pre-gap length 0:00:01.77

Peak level 98.3 %
Extraction speed 5.0 X
Track quality 100.0 %
Test CRC BD1A124E
Copy CRC BD1A124E
Track not present in AccurateRip database
Copy OK

Track 4

Filename D:\#cdr\#wav+flac\#New\VA - 100 Hits Of The Great Songbirds\cd 4\04. Sarah Vaughan - The Best Is Yet To Come.wav

Pre-gap length 0:00:01.77

Peak level 98.3 %
Extraction speed 4.1 X
Track quality 99.9 %
Test CRC CFE50C9E
Copy CRC CFE50C9E
Track not present in AccurateRip database
Copy OK

Track 5

Filename D:\#cdr\#wav+flac\#New\VA - 100 Hits Of The Great Songbirds\cd 4\05. Carol Sloane - On The Street Where You Live.wav

Pre-gap length 0:00:01.77

Peak level 98.3 %
Extraction speed 4.2 X
Track quality 99.9 %
Test CRC A22A2C31
Copy CRC A22A2C31
Track not present in AccurateRip database
Copy OK

Track 6

Filename D:\#cdr\#wav+flac\#New\VA - 100 Hits Of The Great Songbirds\cd 4\06. Ella Fitzgerald - It's Only A Paper Moon.wav

Pre-gap length 0:00:01.77

Peak level 98.3 %
Extraction speed 5.7 X
Track quality 100.0 %
Test CRC C7484664
Copy CRC C7484664
Track not present in AccurateRip database
Copy OK

Track 7

Filename D:\#cdr\#wav+flac\#New\VA - 100 Hits Of The Great Songbirds\cd 4\07. Peggy Lee - The Glory Of Love.wav

Pre-gap length 0:00:01.77

Peak level 98.4 %
Extraction speed 5.9 X
Track quality 100.0 %
Test CRC 2D2FF462
Copy CRC 2D2FF462
Track not present in AccurateRip database
Copy OK

Track 8

Filename D:\#cdr\#wav+flac\#New\VA - 100 Hits Of The Great Songbirds\cd 4\08. Cleo Laine - Unforgettable.wav

Pre-gap length 0:00:01.77

Peak level 97.5 %
Extraction speed 6.3 X
Track quality 100.0 %
Test CRC 5C022286
Copy CRC 5C022286
Track not present in AccurateRip database
Copy OK

Track 9

Filename D:\#cdr\#wav+flac\#New\VA - 100 Hits Of The Great Songbirds\cd 4\09. Dinah Washington - Bewitched.wav

Pre-gap length 0:00:01.77

Peak level 98.3 %
Extraction speed 6.3 X
Track quality 100.0 %
Test CRC C3003B0E
Copy CRC C3003B0E
Track not present in AccurateRip database
Copy OK

Track 10

Filename D:\#cdr\#wav+flac\#New\VA - 100 Hits Of The Great Songbirds\cd 4\10. Billie Holiday - He's Funny That Way.wav

Pre-gap length 0:00:01.77

Peak level 98.3 %
Extraction speed 6.8 X
Track quality 100.0 %
Test CRC C0DDA5C9
Copy CRC C0DDA5C9
Track not present in AccurateRip database
Copy OK

Track 11

Filename D:\#cdr\#wav+flac\#New\VA - 100 Hits Of The Great Songbirds\cd 4\11. Doris Day - Oops.wav

Pre-gap length 0:00:01.77

Peak level 98.4 %
Extraction speed 5.0 X
Track quality 99.9 %
Test CRC C81A921A
Copy CRC C81A921A
Track not present in AccurateRip database
Copy OK

Track 12

Filename D:\#cdr\#wav+flac\#New\VA - 100 Hits Of The Great Songbirds\cd 4\12. Kay Starr - I've Grown Accustomed To His Face.wav

Pre-gap length 0:00:01.77

Peak level 98.3 %
Extraction speed 6.8 X
Track quality 100.0 %
Test CRC ADA08882
Copy CRC ADA08882
Track not present in AccurateRip database
Copy OK

Track 13

Filename D:\#cdr\#wav+flac\#New\VA - 100 Hits Of The Great Songbirds\cd 4\13. Julie London - June In January.wav

Pre-gap length 0:00:01.77

Peak level 98.6 %
Extraction speed 6.9 X
Track quality 100.0 %
Test CRC 81BB4520
Copy CRC 81BB4520
Track not present in AccurateRip database
Copy OK

Track 14

Filename D:\#cdr\#wav+flac\#New\VA - 100 Hits Of The Great Songbirds\cd 4\14. Aretha Franklin - I Apologize.wav

Pre-gap length 0:00:01.77

Peak level 98.4 %
Extraction speed 7.4 X
Track quality 100.0 %
Test CRC 96C5863C
Copy CRC 96C5863C
Track not present in AccurateRip database
Copy OK

Track 15

Filename D:\#cdr\#wav+flac\#New\VA - 100 Hits Of The Great Songbirds\cd 4\15. Lena Horne - The Lady Is A Tramp.wav

Pre-gap length 0:00:01.77

Peak level 98.4 %
Extraction speed 7.7 X
Track quality 100.0 %
Test CRC 5323C4C6
Copy CRC 5323C4C6
Track not present in AccurateRip database
Copy OK

Track 16

Filename D:\#cdr\#wav+flac\#New\VA - 100 Hits Of The Great Songbirds\cd 4\16. June Christy - You Came A Long Way From St. Louis.wav

Pre-gap length 0:00:01.77

Peak level 98.3 %
Extraction speed 7.5 X
Track quality 100.0 %
Test CRC 825E321F
Copy CRC 825E321F
Track not present in AccurateRip database
Copy OK

Track 17

Filename D:\#cdr\#wav+flac\#New\VA - 100 Hits Of The Great Songbirds\cd 4\17. Nina Simone - Stompin' At The Savoy.wav

Pre-gap length 0:00:01.77

Peak level 98.1 %
Extraction speed 7.5 X
Track quality 100.0 %
Test CRC 88195404
Copy CRC 88195404
Track not present in AccurateRip database
Copy OK

Track 18

Filename D:\#cdr\#wav+flac\#New\VA - 100 Hits Of The Great Songbirds\cd 4\18. Dakota Staton - They All Laughed.wav

Pre-gap length 0:00:01.77

Peak level 98.4 %
Extraction speed 7.6 X
Track quality 100.0 %
Test CRC B2902DBF
Copy CRC B2902DBF
Track not present in AccurateRip database
Copy OK

Track 19

Filename D:\#cdr\#wav+flac\#New\VA - 100 Hits Of The Great Songbirds\cd 4\19. Morgana King - Undecided.wav

Pre-gap length 0:00:01.77

Peak level 98.3 %
Extraction speed 8.2 X
Track quality 100.0 %
Test CRC 7361C34C
Copy CRC 7361C34C
Track not present in AccurateRip database
Copy OK

Track 20

Filename D:\#cdr\#wav+flac\#New\VA - 100 Hits Of The Great Songbirds\cd 4\20. Keely Smith - When Day Is Done.wav

Pre-gap length 0:00:01.77

Peak level 98.4 %
Extraction speed 8.8 X
Track quality 100.0 %
Test CRC 734C6AC3
Copy CRC 734C6AC3
Track not present in AccurateRip database
Copy OK

Track 21

Filename D:\#cdr\#wav+flac\#New\VA - 100 Hits Of The Great Songbirds\cd 4\21. Jo Stafford & Paul Weston - Some Enchanted Evening.wav

Pre-gap length 0:00:01.77

Peak level 98.3 %
Extraction speed 8.6 X
Track quality 100.0 %
Test CRC 254449BD
Copy CRC 254449BD
Track not present in AccurateRip database
Copy OK

Track 22

Filename D:\#cdr\#wav+flac\#New\VA - 100 Hits Of The Great Songbirds\cd 4\22. Diana Dors - The Point Of No Return.wav

Pre-gap length 0:00:01.77

Peak level 98.5 %
Extraction speed 8.4 X
Track quality 100.0 %
Test CRC 495EC576
Copy CRC 495EC576
Track not present in AccurateRip database
Copy OK

Track 23

Filename D:\#cdr\#wav+flac\#New\VA - 100 Hits Of The Great Songbirds\cd 4\23. Abbey Lincoln - This Can't Be Love.wav

Pre-gap length 0:00:01.77

Peak level 98.3 %
Extraction speed 8.5 X
Track quality 100.0 %
Test CRC D969A363
Copy CRC D969A363
Track not present in AccurateRip database
Copy OK

Track 24

Filename D:\#cdr\#wav+flac\#New\VA - 100 Hits Of The Great Songbirds\cd 4\24. Nancy Wilson - The Masquerade Is Over.wav

Pre-gap length 0:00:01.77

Peak level 98.3 %
Extraction speed 7.9 X
Track quality 99.9 %
Test CRC 37765693
Copy CRC 37765693
Track not present in AccurateRip database
Copy OK

Track 25

Filename D:\#cdr\#wav+flac\#New\VA - 100 Hits Of The Great Songbirds\cd 4\25. Judy Garland - Over The Rainbow.wav

Pre-gap length 0:00:01.77

Peak level 98.3 %
Extraction speed 6.8 X
Track quality 99.9 %
Test CRC 1DAB22B5
Copy CRC 1DAB22B5
Track not present in AccurateRip database
Copy OK


None of the tracks are present in the AccurateRip database

No errors occurred

End of status report

–– CUETools DB Plugin V2.1.6

[CTDB TOCID: vUFR_YwQgDBVWI1ei_mtZf0Au2o-] disk not present in database
Submit result: vUFR_YwQgDBVWI1ei_mtZf0Au2o- has been uploaded


==== Log checksum 5918011A0D34BAEDBE071ED65CBEF0A834DE13845A5DF6E8750E95DDE27F62C2 ====

Thanks to the Original ripper !