Tags
Language
Tags

VA - A Capella Black Gospel: Look How the World Has Made a Change 1940-1969 (2020)

Posted By: delpotro
VA - A Capella Black Gospel: Look How the World Has Made a Change 1940-1969 (2020)

VA - A Capella Black Gospel: Look How the World Has Made a Change 1940-1969 (2020)
EAC Rip | FLAC (tracks+log+.cue) - 729 Mb | MP3 CBR 320 kbps - 531 Mb | 03:51:36
Gospel, A Capella | Label: NarroWay

This recent gospel compilation from Swedish producer and collector Per Notini is a three disc, 84 track set focused exclusively on a capella singing without any instrumental accompaniment. Featuring many well-known quartets such as the Fairfield Four and Soul Stirrers as well as lesser known artists, the set traces stylistic changes over a thirty year period, concluding in 1969 before the ‘contemporary’ gospel era. These groups created some of the most inventive and progressive African American vocal music of the post-war period, which had a profound effect on later R&B and soul artists, not to mention artists across all other genres.

Presented in alphabetical order by group, rather than chronological, listeners can more readily compare and contrast artists from different regions of the country. Coverage extends from coast to coast, with the West Coast represented by groups such as McNeil Choir, Luvenia Nash Singers, Pilgrim Travelers, Brother Green’s Southern Sons, Revelators, Rising Star Gospel Singers, and the Sunlight Jubilee Singers of Alameda; Southern-based group include the Famous Blue Jay Singers of Alabama, Heavenly Gospel Singers, Golden Eagles, Sunshine Quartet, Silver Leaf Quartet, Sunny South Singers, and Georgia Peach; Midwest groups include the Melody Gospel Singers of Chicago (who perform the title track), Elite Jewels, Harp Tones of Cincinnati, and the Flying Clouds of Detroit; and from the Northeast are the Coleman Brothers and Original Kings of Harmony.

Quite a few of the recordings on this compilation are considered gospel rarities, released as singles on labels such as Kno-Mar, Pepper, Scoop, Sara and Ohio, and many have never been reissued. Major labels (Aladdin, King, Decca, Savoy, Mercury, etc.) are also well represented, so a portion of these tracks are likely included on many other collections, but it’s the curation of a capella selections that makes this set unique.

In the liner notes, author Ray Templeton explains how, in the absence of instruments, these performers had to work much harder to creative a distinctive sound, which required “assiduous practice, rigorous vocal technique, harmony and dynamics, honed by tireless rehearsal and keen competition.” Across the three decades of releases presented here, one can trace the “continuous innovation and development” of these vocal groups, culminating in the outstanding achievements of quartets such as the Spirit of Memphis and Flying Clouds of Detroit. A Capella Black Gospel: Look How the World Has Made a Change, 1940-1969 is highly recommended for those who wish to study these unaccompanied voices singing in the service of the Lord. –Brenda Nelson-Strauss, Black Grooves
Tracklist:
Disc 1:
1. Camp Meetin' Choir - I'm Gonna Walk Right In And Make Myself At Home
2. Camp Meetin' Choir - Search My Heart
3. Charming Bells - Jesus Hits Like The Atom Bomb
4. Charming Bells - Hallelujah
5. Christian Leaders Quartet - If You Love God, Serve Him
6. Elite Jewels - Ride On, King Jesus
7. Ever-Ready Singers - I'm A Pilgrim And A Stranger
8. Ever-Ready Singers - Two Wings
9. Evangelist Singers - The World Is In A Bad Condition
10. Fairfield Four - Jesus In Heaven
11. Famous Blue Jay Singers - Jesus Met The Woman At The Well
12. Famous Blue Jay Singers - Jesus Gave Me Water
13. Famous Jubilee Singers - Sweet Little Jesus Boy
14. Fantastic Silveraires - Steal Away
15. Flying Clouds Of Detroit - I, John Saw A Mighty Number
16. Flying Clouds Of Detroit - When Jesus Comes
17. Georgia Peach with Reliable Jubilee Singers - I Don't Know Why
18. Georgia Peach with Reliable Jubilee Singers - Give Me Strength, Lord And I'll Carry On
19. Golden Eagles - Anytime Anywhere
20. Golden Gospels - Old Timey Way
21. Golden Gospels - New Home
22. Gospel Vocalaires - I'll Be Satisfied
23. Brother Green's Southern Sons - I'll Make It Somehow
24. Harmoneers - Before This Time Another Year
25. Harp Tones - I Made It
26. Heavenly Gospel Singers - Standing On The Highway
27. Heavenly Gospel Singers - My Life Is In His Hands
28. Heavenly Kings - I'm So Glad I Found The Lord
29. Heavenly Kings - Every Living Thing

Disc 2:
1. Jubileers - Daniel Was A Witness For My Lord
2. Jubileers - Jesus Gonna Make Up Your Dyin' Bed
3. Keys Of Heaven - Movin' In
4. Keys Of Heaven - Something Within Me
5. Knights Of Glory - I Don't Mind
6. L & N Gospel Singers - Lord, You Been So Good To Me
7. Loving Five Gospel Singers - Baptism Of Christ
8. McNeil Choir - Soon I Will Be Done
9. Masters Of Harmony - In The Garden
10. Masters Of Harmony - My Lord What A Morning
11. Melody Gospel Singers Of Chicago - Look How The World Has Made A Change
12. Luvenia Nash Singers - Great Gettin' Up Morning
13. National Clouds Of Joy - Does Jesus Care
14. National Clouds Of Joy - Don't Cry
15. New Salem Harmonizers - Nothin' Else Can Help
16. National Independent Singers Of Atlanta, Ga. - I Got Good Religion
17. Nightingales - One Of These Days
18. Original Kings Of Harmony - I Got A Mother Done Gone
19. Pilgrim Travelers - I Love The Lord
20. Pilgrim Travelers - Just A Little Talk With Jesus
21. Progressive Four - I Ain't Ready To Die
22. Reliable Jubilee Singers - Jesus, Lover Of My Soul
23. Revelators - Free At Last
24. Rising Star Gospel Singers - Thou Servant's Prayer
25. Rising Star Gospel Singers - I Want Wings
26. Rising Star Gospel Singers - What A Time
27. Seven Star Juniors - Don't Know What I'd Do
28. Seven Star Juniors - What A Time

Disc 3:
1. Silver Leaf Quartet Of Florida - I Love The Name Jesus
2. Silvertone Jubilee Singers - Tell Me Where Shall I Be
3. Skylarks - Stand By Me
4. Skylarks - Something About My Lord Mighty Sweet
5. Smith Jubilee Singers - Journey To The Sky
6. Smith Jubilee Singers - Steal Away
7. Five Soul Stirrers - Freedom After 'While
8. Soul Stirrers - Golden Bells
9. Soul Stirrers - One Day
10. Soul Stirrers - He Knows How Much We Can Bear
11. Soul Stirrers - Some Day
12. Southern Sons - I'm Living Humble
13. Southern Sons - Pray
14. Southern Echoes - Sweeping Through That City
15. Spiritual Blind Boys - Heal The Sick(Life's Evening Sun)
16. Spiritual Harmonizers - The Lord Is Still In Business
17. Sun Light Jubilee Singers - Yes, God Is Real
18. Sunny South Singers - Lordy, Lord
19. Sunset Jubilee Singers - John On The Island
20. Sunset Jubilee Singers - Trouble Not The Woman
21. Sunshine Quartette - You Better Run
22. Traveling Four - Too Late
23. Traveling Four - Wake Up
24. Volunteers - Travelin' Shoes
25. Brother Henry Lee Williams - Bless The Lord
26. Wingmen Quartet - Seeking For A City
27. Wing Over Jordan Choir - You Got To Stand Your Test In Judgement

Exact Audio Copy V1.6 from 23. October 2020

EAC extraction logfile from 10. October 2021, 13:25

Various artists / A Capella Black Gospel: Look How the World Has Made a Change 1940-1969

Used drive : ASUS DRW-24D5MT Adapter: 1 ID: 0

Read mode : Secure
Utilize accurate stream : Yes
Defeat audio cache : Yes
Make use of C2 pointers : No

Read offset correction : 6
Overread into Lead-In and Lead-Out : No
Fill up missing offset samples with silence : Yes
Delete leading and trailing silent blocks : No
Null samples used in CRC calculations : Yes
Used interface : Native Win32 interface for Win NT & 2000
Gap handling : Appended to previous track

Used output format : User Defined Encoder
Selected bitrate : 896 kBit/s
Quality : High
Add ID3 tag : No
Command line compressor : C:\Program Files (x86)\Exact Audio Copy\FLAC\FLAC.EXE
Additional command line options : -6 -V -T "ARTIST=%artist%" -T "TITLE=%title%" -T "ALBUM=%albumtitle%" -T "DATE=%year%" -T "TRACKNUMBER=%tracknr%" -T "GENRE=%genre%" -T "COMMENT=%comment%" -T "BAND=%albuminterpret%" -T "ALBUMARTIST=%albuminterpret%" -T "COMPOSER=%composer%" %haslyrics%–tag-from-file=LYRICS="%lyricsfile%"%haslyrics% -T "DISCNUMBER=%cdnumber%" -T "TOTALDISCS=%totalcds%" -T "TOTALTRACKS=%numtracks%" %hascover%–picture="%coverfile%"%hascover% %source% -o %dest%


TOC of the extracted CD

Track | Start | Length | Start sector | End sector
––––––––––––––––––––––––––––-
1 | 0:00.00 | 2:12.52 | 0 | 9951
2 | 2:12.52 | 2:24.17 | 9952 | 20768
3 | 4:36.69 | 2:45.64 | 20769 | 33207
4 | 7:22.58 | 2:57.61 | 33208 | 46543
5 | 10:20.44 | 2:58.18 | 46544 | 59911
6 | 13:18.62 | 3:03.34 | 59912 | 73670
7 | 16:22.21 | 2:28.56 | 73671 | 84826
8 | 18:51.02 | 2:22.68 | 84827 | 95544
9 | 21:13.70 | 2:39.61 | 95545 | 107530
10 | 23:53.56 | 2:53.43 | 107531 | 120548
11 | 26:47.24 | 2:29.29 | 120549 | 131752
12 | 29:16.53 | 2:43.48 | 131753 | 144025
13 | 32:00.26 | 3:05.37 | 144026 | 157937
14 | 35:05.63 | 2:43.00 | 157938 | 170162
15 | 37:48.63 | 2:43.42 | 170163 | 182429
16 | 40:32.30 | 2:50.13 | 182430 | 195192
17 | 43:22.43 | 2:39.42 | 195193 | 207159
18 | 46:02.10 | 3:02.17 | 207160 | 220826
19 | 49:04.27 | 2:23.60 | 220827 | 231611
20 | 51:28.12 | 3:09.60 | 231612 | 245846
21 | 54:37.72 | 3:13.34 | 245847 | 260355
22 | 57:51.31 | 1:38.24 | 260356 | 267729
23 | 59:29.55 | 2:32.00 | 267730 | 279129
24 | 62:01.55 | 2:59.18 | 279130 | 292572
25 | 65:00.73 | 2:40.25 | 292573 | 304597
26 | 67:41.23 | 3:09.16 | 304598 | 318788
27 | 70:50.39 | 2:29.05 | 318789 | 329968
28 | 73:19.44 | 2:57.29 | 329969 | 343272
29 | 76:16.73 | 2:20.63 | 343273 | 353835


Track 1

Filename E:\Torrent\Compilations\Narro Way\VA (2020) [PN-1605-1606-1607] A Capella Black Gospel - Look How the World Has Made a Change 1940-1969\CD 1\01. The Camp Meeting Choir of Winston-Salem, N.C. - I'm Gonna Walk Right in and Make Myself at Home.wa

Pre-gap length 0:00:02.00

Peak level 94.2 %
Extraction speed 1.0 X
Track quality 100.0 %
Test CRC 21778E00
Copy CRC 21778E00
Track not present in AccurateRip database
Copy OK

Track 2

Filename E:\Torrent\Compilations\Narro Way\VA (2020) [PN-1605-1606-1607] A Capella Black Gospel - Look How the World Has Made a Change 1940-1969\CD 1\02. The Camp Meeting Choir of Winston-Salem, N.C. - Search My Heart.wav

Pre-gap length 0:00:04.00

Peak level 99.0 %
Extraction speed 1.1 X
Track quality 100.0 %
Test CRC D08FA73A
Copy CRC D08FA73A
Track not present in AccurateRip database
Copy OK

Track 3

Filename E:\Torrent\Compilations\Narro Way\VA (2020) [PN-1605-1606-1607] A Capella Black Gospel - Look How the World Has Made a Change 1940-1969\CD 1\03. The Charming Bells - Jesus Hits Like the Atom Bomb.wav

Pre-gap length 0:00:04.00

Peak level 98.6 %
Extraction speed 1.2 X
Track quality 100.0 %
Test CRC 5A6DC46D
Copy CRC 5A6DC46D
Track not present in AccurateRip database
Copy OK

Track 4

Filename E:\Torrent\Compilations\Narro Way\VA (2020) [PN-1605-1606-1607] A Capella Black Gospel - Look How the World Has Made a Change 1940-1969\CD 1\04. The Charming Bells - Hallelujah.wav

Pre-gap length 0:00:04.00

Peak level 98.8 %
Extraction speed 1.3 X
Track quality 100.0 %
Test CRC 34F67DB6
Copy CRC 34F67DB6
Track not present in AccurateRip database
Copy OK

Track 5

Filename E:\Torrent\Compilations\Narro Way\VA (2020) [PN-1605-1606-1607] A Capella Black Gospel - Look How the World Has Made a Change 1940-1969\CD 1\05. The Christian Leaders Quartet - If You Love God, Serve Him.wav

Pre-gap length 0:00:04.00

Peak level 98.7 %
Extraction speed 1.4 X
Track quality 100.0 %
Test CRC 34BCA159
Copy CRC 34BCA159
Track not present in AccurateRip database
Copy OK

Track 6

Filename E:\Torrent\Compilations\Narro Way\VA (2020) [PN-1605-1606-1607] A Capella Black Gospel - Look How the World Has Made a Change 1940-1969\CD 1\06. The Elite Jewels - Ride On, King Jesus.wav

Pre-gap length 0:00:04.00

Peak level 98.8 %
Extraction speed 1.4 X
Track quality 100.0 %
Test CRC 44D6A71C
Copy CRC 44D6A71C
Track not present in AccurateRip database
Copy OK

Track 7

Filename E:\Torrent\Compilations\Narro Way\VA (2020) [PN-1605-1606-1607] A Capella Black Gospel - Look How the World Has Made a Change 1940-1969\CD 1\07. The Ever-Ready Singers - I'm a Pilgrim and a Stranger.wav

Pre-gap length 0:00:04.00

Peak level 98.8 %
Extraction speed 1.2 X
Track quality 99.9 %
Test CRC 101C7908
Copy CRC 101C7908
Track not present in AccurateRip database
Copy OK

Track 8

Filename E:\Torrent\Compilations\Narro Way\VA (2020) [PN-1605-1606-1607] A Capella Black Gospel - Look How the World Has Made a Change 1940-1969\CD 1\08. The Ever-Ready Singers - Two Wings.wav

Pre-gap length 0:00:04.00

Peak level 98.8 %
Extraction speed 1.5 X
Track quality 100.0 %
Test CRC 4F316CAA
Copy CRC 4F316CAA
Track not present in AccurateRip database
Copy OK

Track 9

Filename E:\Torrent\Compilations\Narro Way\VA (2020) [PN-1605-1606-1607] A Capella Black Gospel - Look How the World Has Made a Change 1940-1969\CD 1\09. The Evangelist Singers - The World Is in a Bad Condition.wav

Pre-gap length 0:00:04.00

Peak level 98.8 %
Extraction speed 1.5 X
Track quality 100.0 %
Test CRC 7620375D
Copy CRC 7620375D
Track not present in AccurateRip database
Copy OK

Track 10

Filename E:\Torrent\Compilations\Narro Way\VA (2020) [PN-1605-1606-1607] A Capella Black Gospel - Look How the World Has Made a Change 1940-1969\CD 1\10. The Fairfield Four - Jesus in Heaven.wav

Pre-gap length 0:00:04.00

Peak level 94.1 %
Extraction speed 1.6 X
Track quality 100.0 %
Test CRC 28542F31
Copy CRC 28542F31
Track not present in AccurateRip database
Copy OK

Track 11

Filename E:\Torrent\Compilations\Narro Way\VA (2020) [PN-1605-1606-1607] A Capella Black Gospel - Look How the World Has Made a Change 1940-1969\CD 1\11. The Famous Blue Jay Singers of Birmingham Alabama - Jesus Met the Woman at the Well.wav

Pre-gap length 0:00:04.00

Peak level 98.8 %
Extraction speed 1.4 X
Track quality 99.9 %
Test CRC 80658647
Copy CRC 80658647
Track not present in AccurateRip database
Copy OK

Track 12

Filename E:\Torrent\Compilations\Narro Way\VA (2020) [PN-1605-1606-1607] A Capella Black Gospel - Look How the World Has Made a Change 1940-1969\CD 1\12. The Famous Blue Jay Singers of Birmingham Alabama - Jesus Gave Me Water.wav

Pre-gap length 0:00:03.16

Peak level 98.8 %
Extraction speed 1.4 X
Track quality 99.9 %
Test CRC CE03F637
Copy CRC CE03F637
Track not present in AccurateRip database
Copy OK

Track 13

Filename E:\Torrent\Compilations\Narro Way\VA (2020) [PN-1605-1606-1607] A Capella Black Gospel - Look How the World Has Made a Change 1940-1969\CD 1\13. The Famous Jubilee Singers - Sweet Little Jesus Boy.wav

Pre-gap length 0:00:04.00

Peak level 98.8 %
Extraction speed 1.8 X
Track quality 100.0 %
Test CRC BDF29020
Copy CRC BDF29020
Track not present in AccurateRip database
Copy OK

Track 14

Filename E:\Torrent\Compilations\Narro Way\VA (2020) [PN-1605-1606-1607] A Capella Black Gospel - Look How the World Has Made a Change 1940-1969\CD 1\14. The Fantastic Silveraires - Steal Away.wav

Pre-gap length 0:00:04.00

Peak level 98.8 %
Extraction speed 1.5 X
Track quality 99.9 %
Test CRC 2FAAEE5E
Copy CRC 2FAAEE5E
Track not present in AccurateRip database
Copy OK

Track 15

Filename E:\Torrent\Compilations\Narro Way\VA (2020) [PN-1605-1606-1607] A Capella Black Gospel - Look How the World Has Made a Change 1940-1969\CD 1\15. The Flying Clouds of Detroit - John Saw a Mighty Number.wav

Pre-gap length 0:00:04.00

Peak level 98.8 %
Extraction speed 1.8 X
Track quality 100.0 %
Test CRC CC186DAC
Copy CRC CC186DAC
Track not present in AccurateRip database
Copy OK

Track 16

Filename E:\Torrent\Compilations\Narro Way\VA (2020) [PN-1605-1606-1607] A Capella Black Gospel - Look How the World Has Made a Change 1940-1969\CD 1\16. The Flying Clouds of Detroit - When Jesus Comes.wav

Pre-gap length 0:00:04.00

Peak level 98.8 %
Extraction speed 1.9 X
Track quality 100.0 %
Test CRC 3346FAA8
Copy CRC 3346FAA8
Track not present in AccurateRip database
Copy OK

Track 17

Filename E:\Torrent\Compilations\Narro Way\VA (2020) [PN-1605-1606-1607] A Capella Black Gospel - Look How the World Has Made a Change 1940-1969\CD 1\17. Georgia Peach - I Don't Know Why.wav

Pre-gap length 0:00:04.00

Peak level 98.8 %
Extraction speed 1.9 X
Track quality 100.0 %
Test CRC B8A5F8BD
Copy CRC B8A5F8BD
Track not present in AccurateRip database
Copy OK

Track 18

Filename E:\Torrent\Compilations\Narro Way\VA (2020) [PN-1605-1606-1607] A Capella Black Gospel - Look How the World Has Made a Change 1940-1969\CD 1\18. Georgia Peach - Give Me Strengh, Lord and I'll Carry On.wav

Pre-gap length 0:00:04.00

Peak level 98.8 %
Extraction speed 1.7 X
Track quality 99.9 %
Test CRC 7A56BAF4
Copy CRC 7A56BAF4
Track not present in AccurateRip database
Copy OK

Track 19

Filename E:\Torrent\Compilations\Narro Way\VA (2020) [PN-1605-1606-1607] A Capella Black Gospel - Look How the World Has Made a Change 1940-1969\CD 1\19. The Golden Eagles - Anytime Anywhere.wav

Pre-gap length 0:00:04.00

Peak level 98.8 %
Extraction speed 2.0 X
Track quality 100.0 %
Test CRC 0325677C
Copy CRC 0325677C
Track not present in AccurateRip database
Copy OK

Track 20

Filename E:\Torrent\Compilations\Narro Way\VA (2020) [PN-1605-1606-1607] A Capella Black Gospel - Look How the World Has Made a Change 1940-1969\CD 1\20. The Golden Gospels - Old Time Way.wav

Pre-gap length 0:00:04.00

Peak level 98.8 %
Extraction speed 2.1 X
Track quality 100.0 %
Test CRC 251EBC50
Copy CRC 251EBC50
Track not present in AccurateRip database
Copy OK

Track 21

Filename E:\Torrent\Compilations\Narro Way\VA (2020) [PN-1605-1606-1607] A Capella Black Gospel - Look How the World Has Made a Change 1940-1969\CD 1\21. The Golden Gospels - New Home.wav

Pre-gap length 0:00:04.00

Peak level 98.8 %
Extraction speed 2.1 X
Track quality 100.0 %
Test CRC B572AAEB
Copy CRC B572AAEB
Track not present in AccurateRip database
Copy OK

Track 22

Filename E:\Torrent\Compilations\Narro Way\VA (2020) [PN-1605-1606-1607] A Capella Black Gospel - Look How the World Has Made a Change 1940-1969\CD 1\22. The Gospel Vocalaires of Norfolk, VA. - I'll Be Satisfied.wav

Pre-gap length 0:00:04.00

Peak level 98.8 %
Extraction speed 1.9 X
Track quality 100.0 %
Test CRC 96E23571
Copy CRC 96E23571
Track not present in AccurateRip database
Copy OK

Track 23

Filename E:\Torrent\Compilations\Narro Way\VA (2020) [PN-1605-1606-1607] A Capella Black Gospel - Look How the World Has Made a Change 1940-1969\CD 1\23. Brother Green's Southern Sons - I'll Make It Somehow.wav

Pre-gap length 0:00:04.00

Peak level 94.8 %
Extraction speed 2.2 X
Track quality 100.0 %
Test CRC 4532496A
Copy CRC 4532496A
Track not present in AccurateRip database
Copy OK

Track 24

Filename E:\Torrent\Compilations\Narro Way\VA (2020) [PN-1605-1606-1607] A Capella Black Gospel - Look How the World Has Made a Change 1940-1969\CD 1\24. The Harmoneers - Before This Time Another Year.wav

Pre-gap length 0:00:03.65

Peak level 98.8 %
Extraction speed 2.3 X
Track quality 100.0 %
Test CRC FB4F2488
Copy CRC FB4F2488
Track not present in AccurateRip database
Copy OK

Track 25

Filename E:\Torrent\Compilations\Narro Way\VA (2020) [PN-1605-1606-1607] A Capella Black Gospel - Look How the World Has Made a Change 1940-1969\CD 1\25. The Harp-Tones of Cincinnati, Ohio - I Made It.wav

Pre-gap length 0:00:04.00

Peak level 98.8 %
Extraction speed 1.9 X
Track quality 99.9 %
Test CRC A58BBFD1
Copy CRC A58BBFD1
Track not present in AccurateRip database
Copy OK

Track 26

Filename E:\Torrent\Compilations\Narro Way\VA (2020) [PN-1605-1606-1607] A Capella Black Gospel - Look How the World Has Made a Change 1940-1969\CD 1\26. The Heavenly Gospel Singers - Standing on the Highway.wav

Pre-gap length 0:00:04.00

Peak level 98.8 %
Extraction speed 2.0 X
Track quality 99.9 %
Test CRC C0A71757
Copy CRC C0A71757
Track not present in AccurateRip database
Copy OK

Track 27

Filename E:\Torrent\Compilations\Narro Way\VA (2020) [PN-1605-1606-1607] A Capella Black Gospel - Look How the World Has Made a Change 1940-1969\CD 1\27. The Heavenly Gospel Singers - My Life Is in His Hands.wav

Pre-gap length 0:00:04.00

Peak level 98.8 %
Extraction speed 1.9 X
Track quality 99.9 %
Test CRC 2580D6CF
Copy CRC 2580D6CF
Track not present in AccurateRip database
Copy OK

Track 28

Filename E:\Torrent\Compilations\Narro Way\VA (2020) [PN-1605-1606-1607] A Capella Black Gospel - Look How the World Has Made a Change 1940-1969\CD 1\28. Heavenly Kings - I'm So Glad I Found the Lord.wav

Pre-gap length 0:00:04.00

Peak level 98.8 %
Extraction speed 2.4 X
Track quality 100.0 %
Test CRC 00967AB2
Copy CRC 00967AB2
Track not present in AccurateRip database
Copy OK

Track 29

Filename E:\Torrent\Compilations\Narro Way\VA (2020) [PN-1605-1606-1607] A Capella Black Gospel - Look How the World Has Made a Change 1940-1969\CD 1\29. Heavenly Kings - Every Living Thing.wav

Pre-gap length 0:00:04.00

Peak level 98.8 %
Extraction speed 2.3 X
Track quality 100.0 %
Test CRC DC256BC5
Copy CRC DC256BC5
Track not present in AccurateRip database
Copy OK


None of the tracks are present in the AccurateRip database

No errors occurred

End of status report

==== Log checksum 0EB8A1691F97D0522E20FCFACDFB543A37AF3DB33FEF12975104F9505AD66A18 ====
Exact Audio Copy V1.6 from 23. October 2020

EAC extraction logfile from 10. October 2021, 16:04

Various artists / A Capella Black Gospel: Look How the World Has Made a Change 1940-1969

Used drive : ASUS DRW-24D5MT Adapter: 1 ID: 0

Read mode : Secure
Utilize accurate stream : Yes
Defeat audio cache : Yes
Make use of C2 pointers : No

Read offset correction : 6
Overread into Lead-In and Lead-Out : No
Fill up missing offset samples with silence : Yes
Delete leading and trailing silent blocks : No
Null samples used in CRC calculations : Yes
Used interface : Native Win32 interface for Win NT & 2000
Gap handling : Appended to previous track

Used output format : User Defined Encoder
Selected bitrate : 896 kBit/s
Quality : High
Add ID3 tag : No
Command line compressor : C:\Program Files (x86)\Exact Audio Copy\FLAC\FLAC.EXE
Additional command line options : -6 -V -T "ARTIST=%artist%" -T "TITLE=%title%" -T "ALBUM=%albumtitle%" -T "DATE=%year%" -T "TRACKNUMBER=%tracknr%" -T "GENRE=%genre%" -T "COMMENT=%comment%" -T "BAND=%albuminterpret%" -T "ALBUMARTIST=%albuminterpret%" -T "COMPOSER=%composer%" %haslyrics%–tag-from-file=LYRICS="%lyricsfile%"%haslyrics% -T "DISCNUMBER=%cdnumber%" -T "TOTALDISCS=%totalcds%" -T "TOTALTRACKS=%numtracks%" %hascover%–picture="%coverfile%"%hascover% %source% -o %dest%


TOC of the extracted CD

Track | Start | Length | Start sector | End sector
––––––––––––––––––––––––––––-
1 | 0:00.00 | 2:41.44 | 0 | 12118
2 | 2:41.44 | 2:47.18 | 12119 | 24661
3 | 5:28.62 | 2:59.25 | 24662 | 38111
4 | 8:28.12 | 2:50.58 | 38112 | 50919
5 | 11:18.70 | 2:25.10 | 50920 | 61804
6 | 13:44.05 | 2:34.00 | 61805 | 73354
7 | 16:18.05 | 2:34.62 | 73355 | 84966
8 | 18:52.67 | 3:10.37 | 84967 | 99253
9 | 22:03.29 | 3:21.53 | 99254 | 114381
10 | 25:25.07 | 1:57.56 | 114382 | 123212
11 | 27:22.63 | 2:32.67 | 123213 | 134679
12 | 29:55.55 | 3:05.40 | 134680 | 148594
13 | 33:01.20 | 2:25.26 | 148595 | 159495
14 | 35:26.46 | 2:50.31 | 159496 | 172276
15 | 38:17.02 | 2:59.30 | 172277 | 185731
16 | 41:16.32 | 2:37.00 | 185732 | 197506
17 | 43:53.32 | 2:47.36 | 197507 | 210067
18 | 46:40.68 | 3:18.11 | 210068 | 224928
19 | 49:59.04 | 2:45.37 | 224929 | 237340
20 | 52:44.41 | 2:32.24 | 237341 | 248764
21 | 55:16.65 | 2:27.65 | 248765 | 259854
22 | 57:44.55 | 2:41.65 | 259855 | 271994
23 | 60:26.45 | 2:53.04 | 271995 | 284973
24 | 63:19.49 | 2:53.44 | 284974 | 297992
25 | 66:13.18 | 2:58.45 | 297993 | 311387
26 | 69:11.63 | 3:10.32 | 311388 | 325669
27 | 72:22.20 | 2:52.00 | 325670 | 338569
28 | 75:14.20 | 1:51.66 | 338570 | 346960


Track 1

Filename E:\Torrent\Compilations\Narro Way\VA (2020) [PN-1605-1606-1607] A Capella Black Gospel - Look How the World Has Made a Change 1940-1969\CD 2\01. The Jubileers - Daniel Was a Witness for My Lord.wav

Pre-gap length 0:00:02.00

Peak level 97.9 %
Extraction speed 4.5 X
Track quality 100.0 %
Test CRC 7F1C2C3F
Copy CRC 7F1C2C3F
Accurately ripped (confidence 1) [81EBA197] (AR v2)
Copy OK

Track 2

Filename E:\Torrent\Compilations\Narro Way\VA (2020) [PN-1605-1606-1607] A Capella Black Gospel - Look How the World Has Made a Change 1940-1969\CD 2\02. The Jubileers - Jesus Gonna Make Up Your Dyin' Bed.wav

Pre-gap length 0:00:02.39

Peak level 98.6 %
Extraction speed 4.8 X
Track quality 100.0 %
Test CRC D1B3A63D
Copy CRC D1B3A63D
Accurately ripped (confidence 1) [3DB7492E] (AR v2)
Copy OK

Track 3

Filename E:\Torrent\Compilations\Narro Way\VA (2020) [PN-1605-1606-1607] A Capella Black Gospel - Look How the World Has Made a Change 1940-1969\CD 2\03. The Keys of Heaven - Movin' In.wav

Pre-gap length 0:00:04.00

Peak level 98.8 %
Extraction speed 5.2 X
Track quality 100.0 %
Test CRC 77672F10
Copy CRC 77672F10
Accurately ripped (confidence 1) [32D8279C] (AR v2)
Copy OK

Track 4

Filename E:\Torrent\Compilations\Narro Way\VA (2020) [PN-1605-1606-1607] A Capella Black Gospel - Look How the World Has Made a Change 1940-1969\CD 2\04. The Keys of Heaven - Something Within Me.wav

Pre-gap length 0:00:04.00

Peak level 95.0 %
Extraction speed 5.5 X
Track quality 100.0 %
Test CRC 91F6B145
Copy CRC 91F6B145
Accurately ripped (confidence 1) [D17EAE2C] (AR v2)
Copy OK

Track 5

Filename E:\Torrent\Compilations\Narro Way\VA (2020) [PN-1605-1606-1607] A Capella Black Gospel - Look How the World Has Made a Change 1940-1969\CD 2\05. The Knights of Glory - I Don't Mind.wav

Pre-gap length 0:00:04.00

Peak level 98.8 %
Extraction speed 5.5 X
Track quality 100.0 %
Test CRC ED223F9F
Copy CRC ED223F9F
Accurately ripped (confidence 1) [279C9D00] (AR v2)
Copy OK

Track 6

Filename E:\Torrent\Compilations\Narro Way\VA (2020) [PN-1605-1606-1607] A Capella Black Gospel - Look How the World Has Made a Change 1940-1969\CD 2\06. The L. & N. Gospel Singers - Lord, You Been So Good to Me.wav

Pre-gap length 0:00:04.00

Peak level 97.5 %
Extraction speed 4.4 X
Track quality 99.9 %
Test CRC D98D9E92
Copy CRC D98D9E92
Accurately ripped (confidence 1) [3F48C5EA] (AR v2)
Copy OK

Track 7

Filename E:\Torrent\Compilations\Narro Way\VA (2020) [PN-1605-1606-1607] A Capella Black Gospel - Look How the World Has Made a Change 1940-1969\CD 2\07. The Loving Five Gospel Singers - Baptism of Christ.wav

Pre-gap length 0:00:04.00

Peak level 98.8 %
Extraction speed 6.0 X
Track quality 100.0 %
Test CRC 37A7FF57
Copy CRC 37A7FF57
Accurately ripped (confidence 1) [D6970BD7] (AR v2)
Copy OK

Track 8

Filename E:\Torrent\Compilations\Narro Way\VA (2020) [PN-1605-1606-1607] A Capella Black Gospel - Look How the World Has Made a Change 1940-1969\CD 2\08. The McNeil Choir - Soon I Will Be Done.wav

Pre-gap length 0:00:04.00

Peak level 98.8 %
Extraction speed 6.5 X
Track quality 100.0 %
Test CRC F2252321
Copy CRC F2252321
Accurately ripped (confidence 1) [84FAB6CA] (AR v2)
Copy OK

Track 9

Filename E:\Torrent\Compilations\Narro Way\VA (2020) [PN-1605-1606-1607] A Capella Black Gospel - Look How the World Has Made a Change 1940-1969\CD 2\09. The Masters of Harmony - In the Garden.wav

Pre-gap length 0:00:04.00

Peak level 92.2 %
Extraction speed 6.8 X
Track quality 100.0 %
Test CRC B336CE99
Copy CRC B336CE99
Accurately ripped (confidence 1) [F8B062AB] (AR v2)
Copy OK

Track 10

Filename E:\Torrent\Compilations\Narro Way\VA (2020) [PN-1605-1606-1607] A Capella Black Gospel - Look How the World Has Made a Change 1940-1969\CD 2\10. The Masters of Harmony - My Lord What a Morning.wav

Pre-gap length 0:00:04.00

Peak level 98.8 %
Extraction speed 6.2 X
Track quality 100.0 %
Test CRC 707015AC
Copy CRC 707015AC
Accurately ripped (confidence 1) [79122F19] (AR v2)
Copy OK

Track 11

Filename E:\Torrent\Compilations\Narro Way\VA (2020) [PN-1605-1606-1607] A Capella Black Gospel - Look How the World Has Made a Change 1940-1969\CD 2\11. The Melody Gospel Singers of Chicago - Look How the World Has Made a Change.wav

Pre-gap length 0:00:04.00

Peak level 88.1 %
Extraction speed 6.8 X
Track quality 100.0 %
Test CRC B897271D
Copy CRC B897271D
Accurately ripped (confidence 1) [D837B7DA] (AR v2)
Copy OK

Track 12

Filename E:\Torrent\Compilations\Narro Way\VA (2020) [PN-1605-1606-1607] A Capella Black Gospel - Look How the World Has Made a Change 1940-1969\CD 2\12. The Luvenia Nash Singers - Great Gettin' Up Morning.wav

Pre-gap length 0:00:04.00

Peak level 98.8 %
Extraction speed 7.3 X
Track quality 100.0 %
Test CRC ACE24BC9
Copy CRC ACE24BC9
Accurately ripped (confidence 1) [0E55EDDC] (AR v2)
Copy OK

Track 13

Filename E:\Torrent\Compilations\Narro Way\VA (2020) [PN-1605-1606-1607] A Capella Black Gospel - Look How the World Has Made a Change 1940-1969\CD 2\13. The National Clouds of Joy - Does Jesus Care.wav

Pre-gap length 0:00:04.00

Peak level 98.8 %
Extraction speed 7.2 X
Track quality 100.0 %
Test CRC 2F2A8344
Copy CRC 2F2A8344
Accurately ripped (confidence 1) [A95116E5] (AR v2)
Copy OK

Track 14

Filename E:\Torrent\Compilations\Narro Way\VA (2020) [PN-1605-1606-1607] A Capella Black Gospel - Look How the World Has Made a Change 1940-1969\CD 2\14. The National Clouds of Joy - Don't Cry.wav

Pre-gap length 0:00:04.00

Peak level 98.8 %
Extraction speed 7.5 X
Track quality 100.0 %
Test CRC A6B6EE96
Copy CRC A6B6EE96
Accurately ripped (confidence 1) [D424C7ED] (AR v2)
Copy OK

Track 15

Filename E:\Torrent\Compilations\Narro Way\VA (2020) [PN-1605-1606-1607] A Capella Black Gospel - Look How the World Has Made a Change 1940-1969\CD 2\15. The New Salem Harmonizers - Nothin' Else Can Help.wav

Pre-gap length 0:00:04.00

Peak level 98.8 %
Extraction speed 7.8 X
Track quality 100.0 %
Test CRC C4953FED
Copy CRC C4953FED
Accurately ripped (confidence 1) [BC4CAA56] (AR v2)
Copy OK

Track 16

Filename E:\Torrent\Compilations\Narro Way\VA (2020) [PN-1605-1606-1607] A Capella Black Gospel - Look How the World Has Made a Change 1940-1969\CD 2\16. The National Independent Singers of Atlanta, GA. - I Got Good Religion.wav

Pre-gap length 0:00:04.00

Peak level 98.8 %
Extraction speed 5.6 X
Track quality 99.9 %
Test CRC C0DC8E26
Copy CRC C0DC8E26
Accurately ripped (confidence 1) [2E1AA64E] (AR v2)
Copy OK

Track 17

Filename E:\Torrent\Compilations\Narro Way\VA (2020) [PN-1605-1606-1607] A Capella Black Gospel - Look How the World Has Made a Change 1940-1969\CD 2\17. The Nightingales - One of These Days.wav

Pre-gap length 0:00:04.00

Peak level 98.8 %
Extraction speed 7.9 X
Track quality 100.0 %
Test CRC 5C7A7493
Copy CRC 5C7A7493
Accurately ripped (confidence 1) [A6A49F09] (AR v2)
Copy OK

Track 18

Filename E:\Torrent\Compilations\Narro Way\VA (2020) [PN-1605-1606-1607] A Capella Black Gospel - Look How the World Has Made a Change 1940-1969\CD 2\18. The Kings of Harmony - I Got a Mother Done Gone.wav

Pre-gap length 0:00:04.00

Peak level 98.8 %
Extraction speed 8.5 X
Track quality 100.0 %
Test CRC 52F2A8A7
Copy CRC 52F2A8A7
Accurately ripped (confidence 1) [12D0B4A2] (AR v2)
Copy OK

Track 19

Filename E:\Torrent\Compilations\Narro Way\VA (2020) [PN-1605-1606-1607] A Capella Black Gospel - Look How the World Has Made a Change 1940-1969\CD 2\19. The Pilgrim Travelers - I Love the Lord.wav

Pre-gap length 0:00:04.00

Peak level 97.8 %
Extraction speed 8.4 X
Track quality 100.0 %
Test CRC 7088A658
Copy CRC 7088A658
Accurately ripped (confidence 1) [C75C6813] (AR v2)
Copy OK

Track 20

Filename E:\Torrent\Compilations\Narro Way\VA (2020) [PN-1605-1606-1607] A Capella Black Gospel - Look How the World Has Made a Change 1940-1969\CD 2\20. The Pilgrim Travelers - Just a Little Talk with Jesus.wav

Pre-gap length 0:00:04.00

Peak level 98.8 %
Extraction speed 8.4 X
Track quality 100.0 %
Test CRC EDE840B0
Copy CRC EDE840B0
Accurately ripped (confidence 1) [5DBC764E] (AR v2)
Copy OK

Track 21

Filename E:\Torrent\Compilations\Narro Way\VA (2020) [PN-1605-1606-1607] A Capella Black Gospel - Look How the World Has Made a Change 1940-1969\CD 2\21. The Progressive Four - I Ain't Ready to Die.wav

Pre-gap length 0:00:04.00

Peak level 98.8 %
Extraction speed 8.4 X
Track quality 100.0 %
Test CRC EB331F93
Copy CRC EB331F93
Accurately ripped (confidence 1) [09FE9ACB] (AR v2)
Copy OK

Track 22

Filename E:\Torrent\Compilations\Narro Way\VA (2020) [PN-1605-1606-1607] A Capella Black Gospel - Look How the World Has Made a Change 1940-1969\CD 2\22. The Reliable Jubilee Singers - Jesus, Lover of My Soul.wav

Pre-gap length 0:00:04.00

Peak level 98.8 %
Extraction speed 8.7 X
Track quality 100.0 %
Test CRC 23D6B700
Copy CRC 23D6B700
Accurately ripped (confidence 1) [F6A8CE4A] (AR v2)
Copy OK

Track 23

Filename E:\Torrent\Compilations\Narro Way\VA (2020) [PN-1605-1606-1607] A Capella Black Gospel - Look How the World Has Made a Change 1940-1969\CD 2\23. The Revelators - Free at Last.wav

Pre-gap length 0:00:04.00

Peak level 98.8 %
Extraction speed 8.9 X
Track quality 100.0 %
Test CRC A413F174
Copy CRC A413F174
Accurately ripped (confidence 1) [6C377B4B] (AR v2)
Copy OK

Track 24

Filename E:\Torrent\Compilations\Narro Way\VA (2020) [PN-1605-1606-1607] A Capella Black Gospel - Look How the World Has Made a Change 1940-1969\CD 2\24. The Rising Star Gospel Singers - Thou Servant's Prayer.wav

Pre-gap length 0:00:04.00

Peak level 98.4 %
Extraction speed 7.1 X
Track quality 99.9 %
Test CRC B7CB68B8
Copy CRC B7CB68B8
Accurately ripped (confidence 1) [83B184E4] (AR v2)
Copy OK

Track 25

Filename E:\Torrent\Compilations\Narro Way\VA (2020) [PN-1605-1606-1607] A Capella Black Gospel - Look How the World Has Made a Change 1940-1969\CD 2\25. The Rising Star Gospel Singers - I Want Wings.wav

Pre-gap length 0:00:04.00

Peak level 98.8 %
Extraction speed 7.4 X
Track quality 99.9 %
Test CRC 1157583D
Copy CRC 1157583D
Accurately ripped (confidence 1) [C487FC44] (AR v2)
Copy OK

Track 26

Filename E:\Torrent\Compilations\Narro Way\VA (2020) [PN-1605-1606-1607] A Capella Black Gospel - Look How the World Has Made a Change 1940-1969\CD 2\26. The Rising Star Gospel Singers - What a Time.wav

Pre-gap length 0:00:03.63

Peak level 98.8 %
Extraction speed 9.6 X
Track quality 100.0 %
Test CRC CED3EF48
Copy CRC CED3EF48
Accurately ripped (confidence 1) [83CCBA76] (AR v2)
Copy OK

Track 27

Filename E:\Torrent\Compilations\Narro Way\VA (2020) [PN-1605-1606-1607] A Capella Black Gospel - Look How the World Has Made a Change 1940-1969\CD 2\27. The Seven Star Juniors - Don't Know What I'd Do.wav

Pre-gap length 0:00:04.00

Peak level 98.8 %
Extraction speed 7.5 X
Track quality 99.9 %
Test CRC 3F92693B
Copy CRC 3F92693B
Accurately ripped (confidence 1) [6D01D91E] (AR v2)
Copy OK

Track 28

Filename E:\Torrent\Compilations\Narro Way\VA (2020) [PN-1605-1606-1607] A Capella Black Gospel - Look How the World Has Made a Change 1940-1969\CD 2\28. The Seven Star Juniors - What a Time.wav

Pre-gap length 0:00:04.00

Peak level 98.8 %
Extraction speed 6.2 X
Track quality 99.9 %
Test CRC B5D26EDA
Copy CRC B5D26EDA
Accurately ripped (confidence 1) [0E2B69D1] (AR v2)
Copy OK


All tracks accurately ripped

No errors occurred

End of status report

==== Log checksum 875614BCBF40AC2EF642CF575D0B9808D767D1EE9EB0742ACA82A3E6168D8F5A ====
Exact Audio Copy V1.6 from 23. October 2020

EAC extraction logfile from 10. October 2021, 18:13

Various artists / A Capella Black Gospel: Look How the World Has Made a Change 1940-1969

Used drive : ASUS DRW-24D5MT Adapter: 1 ID: 0

Read mode : Secure
Utilize accurate stream : Yes
Defeat audio cache : Yes
Make use of C2 pointers : No

Read offset correction : 6
Overread into Lead-In and Lead-Out : No
Fill up missing offset samples with silence : Yes
Delete leading and trailing silent blocks : No
Null samples used in CRC calculations : Yes
Used interface : Native Win32 interface for Win NT & 2000
Gap handling : Appended to previous track

Used output format : User Defined Encoder
Selected bitrate : 896 kBit/s
Quality : High
Add ID3 tag : No
Command line compressor : C:\Program Files (x86)\Exact Audio Copy\FLAC\FLAC.EXE
Additional command line options : -6 -V -T "ARTIST=%artist%" -T "TITLE=%title%" -T "ALBUM=%albumtitle%" -T "DATE=%year%" -T "TRACKNUMBER=%tracknr%" -T "GENRE=%genre%" -T "COMMENT=%comment%" -T "BAND=%albuminterpret%" -T "ALBUMARTIST=%albuminterpret%" -T "COMPOSER=%composer%" %haslyrics%–tag-from-file=LYRICS="%lyricsfile%"%haslyrics% -T "DISCNUMBER=%cdnumber%" -T "TOTALDISCS=%totalcds%" -T "TOTALTRACKS=%numtracks%" %hascover%–picture="%coverfile%"%hascover% %source% -o %dest%


TOC of the extracted CD

Track | Start | Length | Start sector | End sector
––––––––––––––––––––––––––––-
1 | 0:00.00 | 2:52.10 | 0 | 12909
2 | 2:52.10 | 2:46.17 | 12910 | 25376
3 | 5:38.27 | 2:49.32 | 25377 | 38083
4 | 8:27.59 | 2:38.30 | 38084 | 49963
5 | 11:06.14 | 2:53.08 | 49964 | 62946
6 | 13:59.22 | 3:14.12 | 62947 | 77508
7 | 17:13.34 | 3:00.19 | 77509 | 91027
8 | 20:13.53 | 2:28.15 | 91028 | 102142
9 | 22:41.68 | 2:58.10 | 102143 | 115502
10 | 25:40.03 | 3:03.07 | 115503 | 129234
11 | 28:43.10 | 2:54.04 | 129235 | 142288
12 | 31:37.14 | 2:36.27 | 142289 | 154015
13 | 34:13.41 | 2:27.71 | 154016 | 165111
14 | 36:41.37 | 2:40.40 | 165112 | 177151
15 | 39:22.02 | 2:51.49 | 177152 | 190025
16 | 42:13.51 | 2:46.07 | 190026 | 202482
17 | 44:59.58 | 2:31.13 | 202483 | 213820
18 | 47:30.71 | 2:52.18 | 213821 | 226738
19 | 50:23.14 | 2:49.05 | 226739 | 239418
20 | 53:12.19 | 3:11.13 | 239419 | 253756
21 | 56:23.32 | 2:43.28 | 253757 | 266009
22 | 59:06.60 | 2:39.46 | 266010 | 277980
23 | 61:46.31 | 2:18.56 | 277981 | 288386
24 | 64:05.12 | 2:52.08 | 288387 | 301294
25 | 66:57.20 | 3:11.50 | 301295 | 315669
26 | 70:08.70 | 2:36.38 | 315670 | 327407
27 | 72:45.33 | 3:07.37 | 327408 | 341469


Track 1

Filename E:\Torrent\Compilations\Narro Way\VA (2020) [PN-1605-1606-1607] A Capella Black Gospel - Look How the World Has Made a Change 1940-1969\CD 3\01. The Silver Leaf Quartet of Florida - I Love the Name Jesus.wav

Pre-gap length 0:00:02.00

Peak level 98.8 %
Extraction speed 1.1 X
Track quality 100.0 %
Test CRC 78644660
Copy CRC 78644660
Accurately ripped (confidence 1) [AEB21580] (AR v2)
Copy OK

Track 2

Filename E:\Torrent\Compilations\Narro Way\VA (2020) [PN-1605-1606-1607] A Capella Black Gospel - Look How the World Has Made a Change 1940-1969\CD 3\02. The Silvertone Jubilee Singers - Tell Me Where Shall I Be.wav

Pre-gap length 0:00:04.00

Peak level 98.5 %
Extraction speed 1.2 X
Track quality 100.0 %
Test CRC 0FF5BFCA
Copy CRC 0FF5BFCA
Accurately ripped (confidence 1) [4BE0AB68] (AR v2)
Copy OK

Track 3

Filename E:\Torrent\Compilations\Narro Way\VA (2020) [PN-1605-1606-1607] A Capella Black Gospel - Look How the World Has Made a Change 1940-1969\CD 3\03. The Skylarks - Stand by Me.wav

Pre-gap length 0:00:04.00

Peak level 95.3 %
Extraction speed 1.2 X
Track quality 100.0 %
Test CRC F95E3275
Copy CRC F95E3275
Accurately ripped (confidence 1) [57AEA7AE] (AR v2)
Copy OK

Track 4

Filename E:\Torrent\Compilations\Narro Way\VA (2020) [PN-1605-1606-1607] A Capella Black Gospel - Look How the World Has Made a Change 1940-1969\CD 3\04. The Skylarks - Something About My Lord Might Sweet.wav

Pre-gap length 0:00:04.00

Peak level 98.8 %
Extraction speed 1.3 X
Track quality 100.0 %
Test CRC 38C67E0F
Copy CRC 38C67E0F
Accurately ripped (confidence 1) [D6E7DD22] (AR v2)
Copy OK

Track 5

Filename E:\Torrent\Compilations\Narro Way\VA (2020) [PN-1605-1606-1607] A Capella Black Gospel - Look How the World Has Made a Change 1940-1969\CD 3\05. The Smith Jubilee Singers - Journey to the Sky.wav

Pre-gap length 0:00:04.00

Peak level 98.8 %
Extraction speed 1.4 X
Track quality 100.0 %
Test CRC 3D46F574
Copy CRC 3D46F574
Accurately ripped (confidence 1) [CC2FDAC8] (AR v2)
Copy OK

Track 6

Filename E:\Torrent\Compilations\Narro Way\VA (2020) [PN-1605-1606-1607] A Capella Black Gospel - Look How the World Has Made a Change 1940-1969\CD 3\06. The Smith Jubilee Singers - Steal Away.wav

Pre-gap length 0:00:04.00

Peak level 98.1 %
Extraction speed 1.5 X
Track quality 100.0 %
Test CRC 652DADEF
Copy CRC 652DADEF
Accurately ripped (confidence 1) [A10D9724] (AR v2)
Copy OK

Track 7

Filename E:\Torrent\Compilations\Narro Way\VA (2020) [PN-1605-1606-1607] A Capella Black Gospel - Look How the World Has Made a Change 1940-1969\CD 3\07. The Five Soul Stirrers - Freedom After 'While.wav

Pre-gap length 0:00:04.00

Peak level 95.1 %
Extraction speed 1.3 X
Track quality 99.9 %
Test CRC 144C9FB6
Copy CRC 144C9FB6
Accurately ripped (confidence 1) [4FBEFCB7] (AR v2)
Copy OK

Track 8

Filename E:\Torrent\Compilations\Narro Way\VA (2020) [PN-1605-1606-1607] A Capella Black Gospel - Look How the World Has Made a Change 1940-1969\CD 3\08. The Soul Stirrers - Golden Bells.wav

Pre-gap length 0:00:04.00

Peak level 98.8 %
Extraction speed 1.5 X
Track quality 100.0 %
Test CRC 4420DEAA
Copy CRC 4420DEAA
Accurately ripped (confidence 1) [F5C270F3] (AR v2)
Copy OK

Track 9

Filename E:\Torrent\Compilations\Narro Way\VA (2020) [PN-1605-1606-1607] A Capella Black Gospel - Look How the World Has Made a Change 1940-1969\CD 3\09. The Soul Stirrers - One Day.wav

Pre-gap length 0:00:04.00

Peak level 98.8 %
Extraction speed 1.6 X
Track quality 100.0 %
Test CRC 85A550DD
Copy CRC 85A550DD
Accurately ripped (confidence 1) [6664C654] (AR v2)
Copy OK

Track 10

Filename E:\Torrent\Compilations\Narro Way\VA (2020) [PN-1605-1606-1607] A Capella Black Gospel - Look How the World Has Made a Change 1940-1969\CD 3\10. The Soul Stirrers - He Knows How Much We Can Bear.wav

Pre-gap length 0:00:04.00

Peak level 98.4 %
Extraction speed 1.7 X
Track quality 100.0 %
Test CRC F97797BD
Copy CRC F97797BD
Accurately ripped (confidence 1) [2F2ADC9B] (AR v2)
Copy OK

Track 11

Filename E:\Torrent\Compilations\Narro Way\VA (2020) [PN-1605-1606-1607] A Capella Black Gospel - Look How the World Has Made a Change 1940-1969\CD 3\11. The Soul Stirrers - Some Day.wav

Pre-gap length 0:00:04.00

Peak level 98.2 %
Extraction speed 1.7 X
Track quality 100.0 %
Test CRC 339362BD
Copy CRC 339362BD
Accurately ripped (confidence 1) [BC1875CF] (AR v2)
Copy OK

Track 12

Filename E:\Torrent\Compilations\Narro Way\VA (2020) [PN-1605-1606-1607] A Capella Black Gospel - Look How the World Has Made a Change 1940-1969\CD 3\12. The Southern Sons - I'm Living Humble.wav

Pre-gap length 0:00:04.00

Peak level 97.1 %
Extraction speed 1.5 X
Track quality 99.9 %
Test CRC EBADE0E1
Copy CRC EBADE0E1
Accurately ripped (confidence 1) [79CD2BC2] (AR v2)
Copy OK

Track 13

Filename E:\Torrent\Compilations\Narro Way\VA (2020) [PN-1605-1606-1607] A Capella Black Gospel - Look How the World Has Made a Change 1940-1969\CD 3\13. The Southern Sons - Pray.wav

Pre-gap length 0:00:04.00

Peak level 94.2 %
Extraction speed 1.8 X
Track quality 100.0 %
Test CRC CBF29736
Copy CRC CBF29736
Accurately ripped (confidence 1) [69ADF6B0] (AR v2)
Copy OK

Track 14

Filename E:\Torrent\Compilations\Narro Way\VA (2020) [PN-1605-1606-1607] A Capella Black Gospel - Look How the World Has Made a Change 1940-1969\CD 3\14. The Southern Echoes - Sweeping Through That City.wav

Pre-gap length 0:00:04.00

Peak level 98.8 %
Extraction speed 1.9 X
Track quality 100.0 %
Test CRC 299DCD67
Copy CRC 299DCD67
Accurately ripped (confidence 1) [A31FEAFD] (AR v2)
Copy OK

Track 15

Filename E:\Torrent\Compilations\Narro Way\VA (2020) [PN-1605-1606-1607] A Capella Black Gospel - Look How the World Has Made a Change 1940-1969\CD 3\15. The Spiritual Blind Boys - Heal the Sick (assumedly mistitled for ''Life's Evening Sun'').wav

Pre-gap length 0:00:04.00

Peak level 93.4 %
Extraction speed 1.6 X
Track quality 99.9 %
Test CRC A7B9553B
Copy CRC A7B9553B
Accurately ripped (confidence 1) [90AD1BD3] (AR v2)
Copy OK

Track 16

Filename E:\Torrent\Compilations\Narro Way\VA (2020) [PN-1605-1606-1607] A Capella Black Gospel - Look How the World Has Made a Change 1940-1969\CD 3\16. The Spiritual Harmonizers - The Lord Is Still in Business.wav

Pre-gap length 0:00:04.00

Peak level 87.3 %
Extraction speed 2.0 X
Track quality 100.0 %
Test CRC 41D1719D
Copy CRC 41D1719D
Accurately ripped (confidence 1) [DCE64921] (AR v2)
Copy OK

Track 17

Filename E:\Torrent\Compilations\Narro Way\VA (2020) [PN-1605-1606-1607] A Capella Black Gospel - Look How the World Has Made a Change 1940-1969\CD 3\17. The Sun Light Jubilee Singers - Yes, God Is Real.wav

Pre-gap length 0:00:04.00

Peak level 98.8 %
Extraction speed 2.0 X
Track quality 100.0 %
Test CRC 47B5A2E7
Copy CRC 47B5A2E7
Accurately ripped (confidence 1) [7393E250] (AR v2)
Copy OK

Track 18

Filename E:\Torrent\Compilations\Narro Way\VA (2020) [PN-1605-1606-1607] A Capella Black Gospel - Look How the World Has Made a Change 1940-1969\CD 3\18. The Sunny South Singers - Lordy, Lord.wav

Pre-gap length 0:00:04.00

Peak level 88.1 %
Extraction speed 2.1 X
Track quality 100.0 %
Test CRC 43C83B46
Copy CRC 43C83B46
Accurately ripped (confidence 1) [8B80DF6B] (AR v2)
Copy OK

Track 19

Filename E:\Torrent\Compilations\Narro Way\VA (2020) [PN-1605-1606-1607] A Capella Black Gospel - Look How the World Has Made a Change 1940-1969\CD 3\19. The Sunset Jubilee Singers - John on the Island.wav

Pre-gap length 0:00:04.00

Peak level 97.7 %
Extraction speed 2.1 X
Track quality 100.0 %
Test CRC 8285D796
Copy CRC 8285D796
Accurately ripped (confidence 1) [7680E399] (AR v2)
Copy OK

Track 20

Filename E:\Torrent\Compilations\Narro Way\VA (2020) [PN-1605-1606-1607] A Capella Black Gospel - Look How the World Has Made a Change 1940-1969\CD 3\20. The Sunset Jubilee Singers - Trouble Not the Woman.wav

Pre-gap length 0:00:04.00

Peak level 98.8 %
Extraction speed 2.2 X
Track quality 100.0 %
Test CRC 7097FA33
Copy CRC 7097FA33
Accurately ripped (confidence 1) [40083959] (AR v2)
Copy OK

Track 21

Filename E:\Torrent\Compilations\Narro Way\VA (2020) [PN-1605-1606-1607] A Capella Black Gospel - Look How the World Has Made a Change 1940-1969\CD 3\21. The Sunshine Quartette - You Better Run.wav

Pre-gap length 0:00:04.00

Peak level 98.4 %
Extraction speed 2.2 X
Track quality 100.0 %
Test CRC 0102D5D1
Copy CRC 0102D5D1
Accurately ripped (confidence 1) [42489E40] (AR v2)
Copy OK

Track 22

Filename E:\Torrent\Compilations\Narro Way\VA (2020) [PN-1605-1606-1607] A Capella Black Gospel - Look How the World Has Made a Change 1940-1969\CD 3\22. The Traveling Four - Too Late.wav

Pre-gap length 0:00:04.00

Peak level 96.8 %
Extraction speed 2.2 X
Track quality 100.0 %
Test CRC 665DA7C3
Copy CRC 665DA7C3
Accurately ripped (confidence 1) [568BF19F] (AR v2)
Copy OK

Track 23

Filename E:\Torrent\Compilations\Narro Way\VA (2020) [PN-1605-1606-1607] A Capella Black Gospel - Look How the World Has Made a Change 1940-1969\CD 3\23. The Traveling Four - Wake Up.wav

Pre-gap length 0:00:04.00

Peak level 95.3 %
Extraction speed 1.8 X
Track quality 99.9 %
Test CRC C052DFBF
Copy CRC C052DFBF
Accurately ripped (confidence 1) [FDA2A22A] (AR v2)
Copy OK

Track 24

Filename E:\Torrent\Compilations\Narro Way\VA (2020) [PN-1605-1606-1607] A Capella Black Gospel - Look How the World Has Made a Change 1940-1969\CD 3\24. The Volunteers - Travelin' Shoes.wav

Pre-gap length 0:00:03.70

Peak level 95.6 %
Extraction speed 2.3 X
Track quality 100.0 %
Test CRC 744C9DFE
Copy CRC 744C9DFE
Accurately ripped (confidence 1) [CE0832D6] (AR v2)
Copy OK

Track 25

Filename E:\Torrent\Compilations\Narro Way\VA (2020) [PN-1605-1606-1607] A Capella Black Gospel - Look How the World Has Made a Change 1940-1969\CD 3\25. Brother Henry Lee Williams - Bless the Lord.wav

Pre-gap length 0:00:04.00

Peak level 98.8 %
Extraction speed 2.4 X
Track quality 100.0 %
Test CRC AF5C2861
Copy CRC AF5C2861
Accurately ripped (confidence 1) [0D7BE510] (AR v2)
Copy OK

Track 26

Filename E:\Torrent\Compilations\Narro Way\VA (2020) [PN-1605-1606-1607] A Capella Black Gospel - Look How the World Has Made a Change 1940-1969\CD 3\26. The Wingmen Quartet - Seeking for a City.wav

Pre-gap length 0:00:04.00

Peak level 93.5 %
Extraction speed 2.3 X
Track quality 100.0 %
Test CRC 09E78D33
Copy CRC 09E78D33
Accurately ripped (confidence 1) [1FEBC437] (AR v2)
Copy OK

Track 27

Filename E:\Torrent\Compilations\Narro Way\VA (2020) [PN-1605-1606-1607] A Capella Black Gospel - Look How the World Has Made a Change 1940-1969\CD 3\27. The Wings Over Jordan Choir - You Got to Stand Your Test in Judgement.wav

Pre-gap length 0:00:04.00

Peak level 98.8 %
Extraction speed 2.4 X
Track quality 100.0 %
Test CRC F07F9C03
Copy CRC F07F9C03
Accurately ripped (confidence 1) [9074730A] (AR v2)
Copy OK


All tracks accurately ripped

No errors occurred

End of status report

==== Log checksum ABD9610C6FC1E496DA92C61D8CA60D09825935580F95A38FC393AF37624A2EAA ====

Thanks to the Original ripper !