Subcategories

VA - C89 (2018)

Posted By: delpotro
VA - C89 (2018)

VA - C89 (2018)
EAC Rip | FLAC (tracks+log+.cue) - 1,6 Gb | MP3 CBR 320 kbps - 546 Mb | 03:58:39
Indie Rock, Indie Pop | Label: Cherry Red Records

C89 is another celebration of the Eighties Indie scene, documenting a golden era when tuneful guitar-based bands made records on shoestring budgets, often issued on small labels with hand-made artwork, with little hope of mainstream exposure.

This 3-CD box set follows previous best-selling collections C86 (2014), C87 (2016) and C88 (2017). C86 expanded the NME’s genre-defining compilation with 50 extra tracks from the period. C87 and C88 were the imaginary sequels, picking up the story as the 1980s unfolded.

Disc 1 is devoted to artists who haven’t previously graced this series, who first made an impact in 1988/1989. Carter The Unstoppable Sex Machine, The La’s, Milltown Brothers, The Family Cat and The Telescopes were among the indie scene’s biggest names that year.

Disc 2 revisits many of the bands who appeared on C88, with later singles or B-sides by The Stone Roses, Mock Turtles, Pooh Sticks, The Man From Delmonte, Bridewell Taxis, Popguns, etc.

Sarah Records – which came to epitomise a certain type of Indie Pop – are represented by Brighter, The Orchids, Another Sunny Day and Christine’s Cat. Other key indie labels also figure, such as Creation (The Revolving Paint Dream), Bristol’s The Subway Organization (Korova Milk Bar, Choo Choo Train), Manchester’s Playtime (The Rainkings, New Fast Automatic Daffodils), Sheffield’s Native (Treebound Story, featuring Richard Hawley, and The Snapdragons), Brighton’s La-Di-Da (Daisycutters, Bobby Scarlet, How Many Beans Make Five, Said Liquidator) and Liverpool’s Pink Moon (Barbel, The DaVincis, Jactars). C89 also includes two previously unissued tracks.

New names to the series include The Bardots, The Seers, Po!, The Ammonites, The Ogdens, Kit, The Candy Darlings, Jane Pow, Rorschach, etc. Several names feature personnel from notable bands, such as post-Razorcuts act Red Chair Fadeaway, post-Chameleons quartet The Sun And The Moon and post-La’s combo The Onset. Numerous tracks have never been on CD before.
Tracklist:
DISC ONE:
1. COME IN COME OUT – The La’s
2. TOM VERLAINE – The Family Cat
3. WHICH WAY SHOULD I JUMP – Milltown Brothers
4. NOTHING – The Telescopes
5. INSIDE OUT – Brighter
6. LIONS – New Fast Automatic Daffodils
7. LET IT HAPPEN – Red Chair Fadeaway
8. DO IT AGAIN – Korova Milk Bar
9. ADAM’S SONG – The Sun And The Moon
10. WHITE PEARL – Bobby Scarlet
11. IT’S A BEAUTIFUL DAY – The Ogdens
12. FREEDOM TRIP – The Seers
13. THAT’S WHERE CAROLINE LIVES – The Candy Darlings
14. BREAK THE STRAIN – The Rainkings
15. CONFIDENCE – Po!
16. SAD ANNE – The Bardots
17. SUN AND MOON – The Onset
18. DAYS IN THE SUN – The Ammonites
19. CAPTAIN ELASTIC – Rorschach
20. ANOTHER FRIENDLY FACE – How Many Beans Make Five
21. COMMONPLACE – Hey Paulette
22. THAT’S MY GIRL – Jane Pow
23. CHEATIN’ MY HEART – Kit
24. SHERIFF FATMAN – Carter The Unstoppable Sex Machine

DISC TWO:
1. GOING DOWN – The Stone Roses
2. WAITING FOR THE WINTER – The Popguns
3. WICKER MAN – The Mock Turtles
4. WHAT WILL WE DO NEXT? – The Orchids
5. MY LOVE IS LIKE A GIFT YOU CAN’T RETURN – The Man From Delmonte
6. GREEN SEA BLUE – The Revolving Paint Dream
7. I KNOW SOMEONE WHO KNOWS SOMEONE WHO KNOWS ALAN McGEE QUITE WELL – The Pooh Sticks
8. JUST GOOD FRIENDS – Bridewell Taxis
9. YOU SHOULD ALL BE MURDERED – Another Sunny Day
10. DOCTOR GOOD AND HIS INCREDIBLE LIFE SAVING SOAP – The Driscolls
11. HOW CAN YOU SAY YOU REALLY FEEL?- The Charlottes
12. SWIMMING IN THE HEART OF JANE – Treebound Story
13. FINGERDIPS – The Prayers
14. DOLE BOYS ON FUTONS – The Snapdragons
15. ONE THING – Barbel
16. BRIAR ROSE – Choo Choo Train
17. SKYRIDER – Holidaymakers
18. IT’S UP TO YOU – Fallover 24 (previously unissued)
19. BISCUITS IN A TIN – Thrilled Skinny
20. A MILLION MILES – Brian
21. PLASTIC BAG FROM TESCOS – The Wilderness Children
22. 10,000 MILES – The Moss Poles (previously unissued)
23. FISHERMAN’S FRIEND – The Haywains
24. BOMBS AWAY ON HARPURHEY – King Of The Slums

DISC THREE:
1. PICKING UP THE BITTER LITTLE PIECES – The Claim
2. SWALLOW – A Riot Of Colour
3. FRIENDS – Daisycutters
4. TONY HADLEY – Peruvian Hipsters
5. THIS BIG LOVE – The Cherry Orchard
6. WELCOME – Ambitious Beggars
7. THOMAS WOLFE – The DaVincis
8. BIG CAR – Avo-8
9. THE MOST BEAUTIFUL GIRL IN TOWN – The Becketts
10. BUBBLE BUS – Sunflowers
11. PASSION – The Magnificent Lkage
12. TELL ME NOW – Strawberry Story
13. WHEREVER I GO (DEMO)- Newsflash
14. ALL YOU EVER SAY – The Mayfields
15. BURN YOUR BOOKS & JOIN MY LIFE – The Ruth Ellis Swing Band
16. YOUR LOVE IS… – Christine’s Cat
17. SAY WHAT YOU FEEL – Said Liquidator
18. ANNABEL LEE – Jane From Occupied Europe
19. SUN STILL SHINES – Big Red Bus
20. THE COLDEST WATER – Men Of Westenesse
21. MR. WATT SAID – The Church Grims
22. PULL THE PLUG – Jactars
23. SURFING DAYS – Me And Dean Martin
24. SEVEN RED APPLES – The Rain

Exact Audio Copy V1.3 from 2. September 2016

EAC extraction logfile from 29. July 2018, 11:27

Various Artists / C89

Used drive : HL-DT-STDVDRAM GUE1N Adapter: 1 ID: 0

Read mode : Secure
Utilize accurate stream : Yes
Defeat audio cache : Yes
Make use of C2 pointers : No

Read offset correction : 6
Overread into Lead-In and Lead-Out : No
Fill up missing offset samples with silence : Yes
Delete leading and trailing silent blocks : No
Null samples used in CRC calculations : Yes
Used interface : Native Win32 interface for Win NT & 2000
Gap handling : Appended to previous track

Used output format : User Defined Encoder
Selected bitrate : 1024 kBit/s
Quality : High
Add ID3 tag : No
Command line compressor : C:\Program Files (x86)\Exact Audio Copy\Flac\flac.exe
Additional command line options : -8 -e -V -T "ARTIST=%artist%" -T "TITLE=%title%" -T "ALBUM=%albumtitle%" -T "DATE=%year%" -T "TRACKNUMBER=%tracknr%" -T "GENRE=%genre%" -T "PERFORMER=%albuminterpret%" -T "COMPOSER=%composer%" %haslyrics%–tag-from-file=LYRICS="%lyricsfile%"%haslyrics% -T "ALBUMARTIST=%albumartist%" -T "DISCNUMBER=%cdnumber%" -T "TOTALDISCS=%totalcds%" -T "TOTALTRACKS=%numtracks%" -T "COMMENT=%comment%" %source% -o %dest%


TOC of the extracted CD

Track | Start | Length | Start sector | End sector
––––––––––––––––––––––––––––-
1 | 0:00.00 | 2:14.72 | 0 | 10121
2 | 2:14.72 | 3:55.18 | 10122 | 27764
3 | 6:10.15 | 3:52.21 | 27765 | 45185
4 | 10:02.36 | 5:24.38 | 45186 | 69523
5 | 15:26.74 | 4:07.14 | 69524 | 88062
6 | 19:34.13 | 3:51.07 | 88063 | 105394
7 | 23:25.20 | 1:38.61 | 105395 | 112805
8 | 25:04.06 | 3:12.64 | 112806 | 127269
9 | 28:16.70 | 3:40.26 | 127270 | 143795
10 | 31:57.21 | 2:32.25 | 143796 | 155220
11 | 34:29.46 | 3:17.26 | 155221 | 170021
12 | 37:46.72 | 4:29.05 | 170022 | 190201
13 | 42:16.02 | 3:00.23 | 190202 | 203724
14 | 45:16.25 | 2:33.44 | 203725 | 215243
15 | 47:49.69 | 3:03.06 | 215244 | 228974
16 | 50:53.00 | 4:19.59 | 228975 | 248458
17 | 55:12.59 | 2:45.18 | 248459 | 260851
18 | 57:58.02 | 3:20.08 | 260852 | 275859
19 | 61:18.10 | 1:51.17 | 275860 | 284201
20 | 63:09.27 | 3:09.62 | 284202 | 298438
21 | 66:19.14 | 3:03.64 | 298439 | 312227
22 | 69:23.03 | 1:52.66 | 312228 | 320693
23 | 71:15.69 | 3:28.74 | 320694 | 336367
24 | 74:44.68 | 4:45.66 | 336368 | 357808


Track 1

Filename C:\Users\mark\Music\Various\Various Artists - C89 (2018)(Cherry Red, CRCDBOX59)[CD FLAC]\CD 1\01 .The La's.Come In Come Out.wav

Pre-gap length 0:00:02.00

Peak level 91.2 %
Extraction speed 1.1 X
Track quality 100.0 %
Test CRC 70914F11
Copy CRC 70914F11
Track not present in AccurateRip database
Copy OK

Track 2

Filename C:\Users\mark\Music\Various\Various Artists - C89 (2018)(Cherry Red, CRCDBOX59)[CD FLAC]\CD 1\02 .The Family Cat.Tom Verlaine.wav

Pre-gap length 0:00:02.00

Peak level 91.2 %
Extraction speed 1.2 X
Track quality 99.9 %
Test CRC 6403FDD3
Copy CRC 6403FDD3
Track not present in AccurateRip database
Copy OK

Track 3

Filename C:\Users\mark\Music\Various\Various Artists - C89 (2018)(Cherry Red, CRCDBOX59)[CD FLAC]\CD 1\03 .Milltown Brothers.Which Way Should I Jump.wav

Pre-gap length 0:00:02.00

Peak level 96.6 %
Extraction speed 1.4 X
Track quality 100.0 %
Test CRC CF148D20
Copy CRC CF148D20
Track not present in AccurateRip database
Copy OK

Track 4

Filename C:\Users\mark\Music\Various\Various Artists - C89 (2018)(Cherry Red, CRCDBOX59)[CD FLAC]\CD 1\04 .The Telescopes.Nothing.wav

Pre-gap length 0:00:02.00

Peak level 96.6 %
Extraction speed 1.6 X
Track quality 100.0 %
Test CRC 749B0288
Copy CRC 749B0288
Track not present in AccurateRip database
Copy OK

Track 5

Filename C:\Users\mark\Music\Various\Various Artists - C89 (2018)(Cherry Red, CRCDBOX59)[CD FLAC]\CD 1\05 .Brighter.Inside Out.wav

Pre-gap length 0:00:02.00

Peak level 96.6 %
Extraction speed 1.7 X
Track quality 100.0 %
Test CRC F0CCB0C5
Copy CRC F0CCB0C5
Track not present in AccurateRip database
Copy OK

Track 6

Filename C:\Users\mark\Music\Various\Various Artists - C89 (2018)(Cherry Red, CRCDBOX59)[CD FLAC]\CD 1\06 .New Fast Automatic Daffodils.Lions.wav

Pre-gap length 0:00:02.00

Peak level 88.7 %
Extraction speed 1.5 X
Track quality 99.9 %
Test CRC BC135F0C
Copy CRC BC135F0C
Track not present in AccurateRip database
Copy OK

Track 7

Filename C:\Users\mark\Music\Various\Various Artists - C89 (2018)(Cherry Red, CRCDBOX59)[CD FLAC]\CD 1\07 .Red Chair Fadeaway.Let It Happen.wav

Pre-gap length 0:00:02.00

Peak level 96.6 %
Extraction speed 1.5 X
Track quality 100.0 %
Test CRC 69D19567
Copy CRC 69D19567
Track not present in AccurateRip database
Copy OK

Track 8

Filename C:\Users\mark\Music\Various\Various Artists - C89 (2018)(Cherry Red, CRCDBOX59)[CD FLAC]\CD 1\08 .Korova Milk Bar.Do It Again.wav

Pre-gap length 0:00:02.00

Peak level 96.6 %
Extraction speed 1.8 X
Track quality 100.0 %
Test CRC 566E3117
Copy CRC 566E3117
Track not present in AccurateRip database
Copy OK

Track 9

Filename C:\Users\mark\Music\Various\Various Artists - C89 (2018)(Cherry Red, CRCDBOX59)[CD FLAC]\CD 1\09 .The Sun And The Moon.Adam's Song.wav

Pre-gap length 0:00:02.00

Peak level 96.6 %
Extraction speed 1.9 X
Track quality 100.0 %
Test CRC 58E659FF
Copy CRC 58E659FF
Track not present in AccurateRip database
Copy OK

Track 10

Filename C:\Users\mark\Music\Various\Various Artists - C89 (2018)(Cherry Red, CRCDBOX59)[CD FLAC]\CD 1\10 .Bobby Scarlet.White Pearl.wav

Pre-gap length 0:00:02.00

Peak level 96.6 %
Extraction speed 1.9 X
Track quality 100.0 %
Test CRC FC28CE5A
Copy CRC FC28CE5A
Track not present in AccurateRip database
Copy OK

Track 11

Filename C:\Users\mark\Music\Various\Various Artists - C89 (2018)(Cherry Red, CRCDBOX59)[CD FLAC]\CD 1\11 .The Odgens.It's A Beautiful Day.wav

Pre-gap length 0:00:02.00

Peak level 96.6 %
Extraction speed 2.0 X
Track quality 100.0 %
Test CRC A0618032
Copy CRC A0618032
Track not present in AccurateRip database
Copy OK

Track 12

Filename C:\Users\mark\Music\Various\Various Artists - C89 (2018)(Cherry Red, CRCDBOX59)[CD FLAC]\CD 1\12 .The Seers.Freedom Trip.wav

Pre-gap length 0:00:02.00

Peak level 96.6 %
Extraction speed 2.1 X
Track quality 100.0 %
Test CRC 52CE32F3
Copy CRC 52CE32F3
Track not present in AccurateRip database
Copy OK

Track 13

Filename C:\Users\mark\Music\Various\Various Artists - C89 (2018)(Cherry Red, CRCDBOX59)[CD FLAC]\CD 1\13 .The Candy Darlings.That's Where Caroline Lives.wav

Pre-gap length 0:00:02.00

Peak level 96.6 %
Extraction speed 2.1 X
Track quality 100.0 %
Test CRC 6A141982
Copy CRC 6A141982
Track not present in AccurateRip database
Copy OK

Track 14

Filename C:\Users\mark\Music\Various\Various Artists - C89 (2018)(Cherry Red, CRCDBOX59)[CD FLAC]\CD 1\14 .The Rainkings.Break The Strain.wav

Pre-gap length 0:00:02.00

Peak level 96.6 %
Extraction speed 2.1 X
Track quality 100.0 %
Test CRC 346A3C67
Copy CRC 346A3C67
Track not present in AccurateRip database
Copy OK

Track 15

Filename C:\Users\mark\Music\Various\Various Artists - C89 (2018)(Cherry Red, CRCDBOX59)[CD FLAC]\CD 1\15 .Po!.Confidence.wav

Pre-gap length 0:00:02.00

Peak level 96.6 %
Extraction speed 2.2 X
Track quality 100.0 %
Test CRC C44B96EC
Copy CRC C44B96EC
Track not present in AccurateRip database
Copy OK

Track 16

Filename C:\Users\mark\Music\Various\Various Artists - C89 (2018)(Cherry Red, CRCDBOX59)[CD FLAC]\CD 1\16 .The Bardots.Sad Anne.wav

Pre-gap length 0:00:02.00

Peak level 96.6 %
Extraction speed 2.3 X
Track quality 100.0 %
Test CRC B7C1AD9E
Copy CRC B7C1AD9E
Track not present in AccurateRip database
Copy OK

Track 17

Filename C:\Users\mark\Music\Various\Various Artists - C89 (2018)(Cherry Red, CRCDBOX59)[CD FLAC]\CD 1\17 .The Onset.Sun And Moon.wav

Pre-gap length 0:00:02.00

Peak level 96.6 %
Extraction speed 2.3 X
Track quality 100.0 %
Test CRC E1D25F3A
Copy CRC E1D25F3A
Track not present in AccurateRip database
Copy OK

Track 18

Filename C:\Users\mark\Music\Various\Various Artists - C89 (2018)(Cherry Red, CRCDBOX59)[CD FLAC]\CD 1\18 .The Ammonites.Days In The Sun.wav

Pre-gap length 0:00:02.00

Peak level 96.6 %
Extraction speed 2.4 X
Track quality 100.0 %
Test CRC FF9649F5
Copy CRC FF9649F5
Track not present in AccurateRip database
Copy OK

Track 19

Filename C:\Users\mark\Music\Various\Various Artists - C89 (2018)(Cherry Red, CRCDBOX59)[CD FLAC]\CD 1\19 .Rorschach.Captain Elastic.wav

Pre-gap length 0:00:02.00

Peak level 96.6 %
Extraction speed 1.7 X
Track quality 99.9 %
Test CRC 3D8EDD5D
Copy CRC 3D8EDD5D
Track not present in AccurateRip database
Copy OK

Track 20

Filename C:\Users\mark\Music\Various\Various Artists - C89 (2018)(Cherry Red, CRCDBOX59)[CD FLAC]\CD 1\20 .How Many Beans Make Five.Another Friendly Face.wav

Pre-gap length 0:00:02.00

Peak level 96.6 %
Extraction speed 2.4 X
Track quality 100.0 %
Test CRC BFC62E44
Copy CRC BFC62E44
Track not present in AccurateRip database
Copy OK

Track 21

Filename C:\Users\mark\Music\Various\Various Artists - C89 (2018)(Cherry Red, CRCDBOX59)[CD FLAC]\CD 1\21 .Hey Paulette.Commonplace.wav

Pre-gap length 0:00:02.00

Peak level 96.6 %
Extraction speed 2.5 X
Track quality 100.0 %
Test CRC 7167A051
Copy CRC 7167A051
Track not present in AccurateRip database
Copy OK

Track 22

Filename C:\Users\mark\Music\Various\Various Artists - C89 (2018)(Cherry Red, CRCDBOX59)[CD FLAC]\CD 1\22 .Jane Pow.That's My Girl.wav

Pre-gap length 0:00:02.00

Peak level 96.6 %
Extraction speed 1.8 X
Track quality 99.9 %
Test CRC 5D057726
Copy CRC 5D057726
Track not present in AccurateRip database
Copy OK

Track 23

Filename C:\Users\mark\Music\Various\Various Artists - C89 (2018)(Cherry Red, CRCDBOX59)[CD FLAC]\CD 1\23 .Kit.Cheatin' My Heart.wav

Pre-gap length 0:00:02.00

Peak level 96.6 %
Extraction speed 2.6 X
Track quality 100.0 %
Test CRC BA86C01E
Copy CRC BA86C01E
Track not present in AccurateRip database
Copy OK

Track 24

Filename C:\Users\mark\Music\Various\Various Artists - C89 (2018)(Cherry Red, CRCDBOX59)[CD FLAC]\CD 1\24 .Carter The Unstoppable Sex Machine.Sheriff Fatman.wav

Pre-gap length 0:00:02.00

Peak level 96.6 %
Extraction speed 2.5 X
Track quality 99.9 %
Test CRC AAD4CF4B
Copy CRC AAD4CF4B
Track not present in AccurateRip database
Copy OK


None of the tracks are present in the AccurateRip database

No errors occurred

End of status report

–– CUETools DB Plugin V2.1.6

[CTDB TOCID: wYpVXyhKhDjAKuLUQeF1doStjlQ-] disk not present in database
Submit result: wYpVXyhKhDjAKuLUQeF1doStjlQ- has been uploaded


==== Log checksum 8744C8B07219F1C4B60A85B712DA037D2F4289D3BE97FB13E4EAB1756191BAB4 ====

Exact Audio Copy V1.3 from 2. September 2016

EAC extraction logfile from 29. July 2018, 14:40

Various Artists / C89

Used drive : HL-DT-STDVDRAM GUE1N Adapter: 1 ID: 0

Read mode : Secure
Utilize accurate stream : Yes
Defeat audio cache : Yes
Make use of C2 pointers : No

Read offset correction : 6
Overread into Lead-In and Lead-Out : No
Fill up missing offset samples with silence : Yes
Delete leading and trailing silent blocks : No
Null samples used in CRC calculations : Yes
Used interface : Native Win32 interface for Win NT & 2000
Gap handling : Appended to previous track

Used output format : User Defined Encoder
Selected bitrate : 1024 kBit/s
Quality : High
Add ID3 tag : No
Command line compressor : C:\Program Files (x86)\Exact Audio Copy\Flac\flac.exe
Additional command line options : -8 -e -V -T "ARTIST=%artist%" -T "TITLE=%title%" -T "ALBUM=%albumtitle%" -T "DATE=%year%" -T "TRACKNUMBER=%tracknr%" -T "GENRE=%genre%" -T "PERFORMER=%albuminterpret%" -T "COMPOSER=%composer%" %haslyrics%–tag-from-file=LYRICS="%lyricsfile%"%haslyrics% -T "ALBUMARTIST=%albumartist%" -T "DISCNUMBER=%cdnumber%" -T "TOTALDISCS=%totalcds%" -T "TOTALTRACKS=%numtracks%" -T "COMMENT=%comment%" %source% -o %dest%


TOC of the extracted CD

Track | Start | Length | Start sector | End sector
––––––––––––––––––––––––––––-
1 | 0:00.00 | 2:49.40 | 0 | 12714
2 | 2:49.40 | 3:16.04 | 12715 | 27418
3 | 6:05.44 | 3:44.71 | 27419 | 44289
4 | 9:50.40 | 2:55.20 | 44290 | 57434
5 | 12:45.60 | 3:09.28 | 57435 | 71637
6 | 15:55.13 | 2:27.19 | 71638 | 82681
7 | 18:22.32 | 1:31.17 | 82682 | 89523
8 | 19:53.49 | 3:19.70 | 89524 | 104518
9 | 23:13.44 | 4:39.38 | 104519 | 125481
10 | 27:53.07 | 2:30.42 | 125482 | 136773
11 | 30:23.49 | 2:41.22 | 136774 | 148870
12 | 33:04.71 | 4:02.02 | 148871 | 167022
13 | 37:06.73 | 3:48.04 | 167023 | 184126
14 | 40:55.02 | 4:00.34 | 184127 | 202160
15 | 44:55.36 | 2:32.60 | 202161 | 213620
16 | 47:28.21 | 3:25.15 | 213621 | 229010
17 | 50:53.36 | 4:32.41 | 229011 | 249451
18 | 55:26.02 | 4:23.11 | 249452 | 269187
19 | 59:49.13 | 1:42.23 | 269188 | 276860
20 | 61:31.36 | 4:39.34 | 276861 | 297819
21 | 66:10.70 | 2:10.69 | 297820 | 307638
22 | 68:21.64 | 5:08.26 | 307639 | 330764
23 | 73:30.15 | 2:01.52 | 330765 | 339891
24 | 75:31.67 | 4:14.40 | 339892 | 358981


Track 1

Filename C:\Users\mark\Music\Various\Various Artists - C89 (2018)(Cherry Red, CRCDBOX59)[CD FLAC]\CD 2\01 .The Stone Roses.Going Down.wav

Pre-gap length 0:00:02.00

Peak level 96.6 %
Extraction speed 1.1 X
Track quality 100.0 %
Test CRC 23B17FEB
Copy CRC 23B17FEB
Track not present in AccurateRip database
Copy OK

Track 2

Filename C:\Users\mark\Music\Various\Various Artists - C89 (2018)(Cherry Red, CRCDBOX59)[CD FLAC]\CD 2\02 .The Popguns.Waiting For The Winter.wav

Pre-gap length 0:00:02.00

Peak level 96.6 %
Extraction speed 1.3 X
Track quality 100.0 %
Test CRC A8CC0DFC
Copy CRC A8CC0DFC
Track not present in AccurateRip database
Copy OK

Track 3

Filename C:\Users\mark\Music\Various\Various Artists - C89 (2018)(Cherry Red, CRCDBOX59)[CD FLAC]\CD 2\03 .The Mock Turtles.Wicker Man.wav

Pre-gap length 0:00:02.00

Peak level 96.6 %
Extraction speed 1.4 X
Track quality 100.0 %
Test CRC 036897D8
Copy CRC 036897D8
Track not present in AccurateRip database
Copy OK

Track 4

Filename C:\Users\mark\Music\Various\Various Artists - C89 (2018)(Cherry Red, CRCDBOX59)[CD FLAC]\CD 2\04 .The Orchids.What Will We Do Next.wav

Pre-gap length 0:00:02.00

Peak level 96.6 %
Extraction speed 1.2 X
Track quality 99.9 %
Test CRC 63849CE1
Copy CRC 63849CE1
Track not present in AccurateRip database
Copy OK

Track 5

Filename C:\Users\mark\Music\Various\Various Artists - C89 (2018)(Cherry Red, CRCDBOX59)[CD FLAC]\CD 2\05 .The Man From Delmonte.My Love Is Like A Gift You Can't Return.wav

Pre-gap length 0:00:02.00

Peak level 96.6 %
Extraction speed 1.5 X
Track quality 100.0 %
Test CRC 8C185A0E
Copy CRC 8C185A0E
Track not present in AccurateRip database
Copy OK

Track 6

Filename C:\Users\mark\Music\Various\Various Artists - C89 (2018)(Cherry Red, CRCDBOX59)[CD FLAC]\CD 2\06 .The Revolving Paint Dream.Green Sea Blue.wav

Pre-gap length 0:00:02.00

Peak level 96.6 %
Extraction speed 1.5 X
Track quality 100.0 %
Test CRC E76CD0F7
Copy CRC E76CD0F7
Track not present in AccurateRip database
Copy OK

Track 7

Filename C:\Users\mark\Music\Various\Various Artists - C89 (2018)(Cherry Red, CRCDBOX59)[CD FLAC]\CD 2\07 .The Pooh Sticks.I Know Someone Who Knows Someone Who Knows Alan McGee Quite Well.wav

Pre-gap length 0:00:02.00

Peak level 96.6 %
Extraction speed 1.4 X
Track quality 100.0 %
Test CRC 0C212A25
Copy CRC 0C212A25
Track not present in AccurateRip database
Copy OK

Track 8

Filename C:\Users\mark\Music\Various\Various Artists - C89 (2018)(Cherry Red, CRCDBOX59)[CD FLAC]\CD 2\08 .Bridewell Taxis.Just Good Friends.wav

Pre-gap length 0:00:02.00

Peak level 96.6 %
Extraction speed 1.7 X
Track quality 100.0 %
Test CRC 8CBE33A7
Copy CRC 8CBE33A7
Track not present in AccurateRip database
Copy OK

Track 9

Filename C:\Users\mark\Music\Various\Various Artists - C89 (2018)(Cherry Red, CRCDBOX59)[CD FLAC]\CD 2\09 .Another Sunny Day.You Should All Be Murdered.wav

Pre-gap length 0:00:02.00

Peak level 96.6 %
Extraction speed 1.7 X
Track quality 99.9 %
Test CRC 57E3EE57
Copy CRC 57E3EE57
Track not present in AccurateRip database
Copy OK

Track 10

Filename C:\Users\mark\Music\Various\Various Artists - C89 (2018)(Cherry Red, CRCDBOX59)[CD FLAC]\CD 2\10 .The Driscolls.Doctor Good And His Incredible Life Saving Soap.wav

Pre-gap length 0:00:02.00

Peak level 96.6 %
Extraction speed 1.8 X
Track quality 100.0 %
Test CRC 15FDA537
Copy CRC 15FDA537
Track not present in AccurateRip database
Copy OK

Track 11

Filename C:\Users\mark\Music\Various\Various Artists - C89 (2018)(Cherry Red, CRCDBOX59)[CD FLAC]\CD 2\11 .The Charlottes.How Can You Say You Really Feel.wav

Pre-gap length 0:00:02.00

Peak level 96.6 %
Extraction speed 1.8 X
Track quality 100.0 %
Test CRC A3046505
Copy CRC A3046505
Track not present in AccurateRip database
Copy OK

Track 12

Filename C:\Users\mark\Music\Various\Various Artists - C89 (2018)(Cherry Red, CRCDBOX59)[CD FLAC]\CD 2\12 .Treebound Story.Swimming In The Heart Of Jane.wav

Pre-gap length 0:00:02.00

Peak level 96.6 %
Extraction speed 1.8 X
Track quality 99.9 %
Test CRC 38430472
Copy CRC 38430472
Track not present in AccurateRip database
Copy OK

Track 13

Filename C:\Users\mark\Music\Various\Various Artists - C89 (2018)(Cherry Red, CRCDBOX59)[CD FLAC]\CD 2\13 .The Prayers.Fingerdips.wav

Pre-gap length 0:00:02.00

Peak level 96.6 %
Extraction speed 1.8 X
Track quality 99.9 %
Test CRC DCCF47A3
Copy CRC DCCF47A3
Track not present in AccurateRip database
Copy OK

Track 14

Filename C:\Users\mark\Music\Various\Various Artists - C89 (2018)(Cherry Red, CRCDBOX59)[CD FLAC]\CD 2\14 .The Snapdragons.Dole Boys On Futons.wav

Pre-gap length 0:00:02.00

Peak level 96.6 %
Extraction speed 2.2 X
Track quality 100.0 %
Test CRC 79833DF5
Copy CRC 79833DF5
Track not present in AccurateRip database
Copy OK

Track 15

Filename C:\Users\mark\Music\Various\Various Artists - C89 (2018)(Cherry Red, CRCDBOX59)[CD FLAC]\CD 2\15 .Barbel.One Thing.wav

Pre-gap length 0:00:02.00

Peak level 96.6 %
Extraction speed 2.1 X
Track quality 100.0 %
Test CRC 59A22264
Copy CRC 59A22264
Track not present in AccurateRip database
Copy OK

Track 16

Filename C:\Users\mark\Music\Various\Various Artists - C89 (2018)(Cherry Red, CRCDBOX59)[CD FLAC]\CD 2\16 .Choo Choo Train.Briar Rose.wav

Pre-gap length 0:00:02.00

Peak level 96.6 %
Extraction speed 2.0 X
Track quality 99.9 %
Test CRC 4DCA66C9
Copy CRC 4DCA66C9
Track not present in AccurateRip database
Copy OK

Track 17

Filename C:\Users\mark\Music\Various\Various Artists - C89 (2018)(Cherry Red, CRCDBOX59)[CD FLAC]\CD 2\17 .Holidaymakers.Skyrider.wav

Pre-gap length 0:00:02.00

Peak level 96.6 %
Extraction speed 2.1 X
Track quality 99.9 %
Test CRC 2E920092
Copy CRC 2E920092
Track not present in AccurateRip database
Copy OK

Track 18

Filename C:\Users\mark\Music\Various\Various Artists - C89 (2018)(Cherry Red, CRCDBOX59)[CD FLAC]\CD 2\18 .Fallover 24.It's Up To You.wav

Pre-gap length 0:00:02.00

Peak level 96.6 %
Extraction speed 2.4 X
Track quality 100.0 %
Test CRC 23C80F6A
Copy CRC 23C80F6A
Track not present in AccurateRip database
Copy OK

Track 19

Filename C:\Users\mark\Music\Various\Various Artists - C89 (2018)(Cherry Red, CRCDBOX59)[CD FLAC]\CD 2\19 .Thrilled Skinny.Biscuits In A Tin.wav

Pre-gap length 0:00:02.00

Peak level 96.6 %
Extraction speed 2.1 X
Track quality 100.0 %
Test CRC EE8B6108
Copy CRC EE8B6108
Track not present in AccurateRip database
Copy OK

Track 20

Filename C:\Users\mark\Music\Various\Various Artists - C89 (2018)(Cherry Red, CRCDBOX59)[CD FLAC]\CD 2\20 .Brian.A Million Miles.wav

Pre-gap length 0:00:02.00

Peak level 96.6 %
Extraction speed 2.6 X
Track quality 100.0 %
Test CRC C87130FD
Copy CRC C87130FD
Track not present in AccurateRip database
Copy OK

Track 21

Filename C:\Users\mark\Music\Various\Various Artists - C89 (2018)(Cherry Red, CRCDBOX59)[CD FLAC]\CD 2\21 .The Wilderness Children.Plastic Bags From Tescos.wav

Pre-gap length 0:00:02.00

Peak level 96.6 %
Extraction speed 2.3 X
Track quality 100.0 %
Test CRC 4EC9B7ED
Copy CRC 4EC9B7ED
Track not present in AccurateRip database
Copy OK

Track 22

Filename C:\Users\mark\Music\Various\Various Artists - C89 (2018)(Cherry Red, CRCDBOX59)[CD FLAC]\CD 2\22 .The Moss Poles.10,000 Miles.wav

Pre-gap length 0:00:02.00

Peak level 96.6 %
Extraction speed 2.7 X
Track quality 100.0 %
Test CRC 9A065DBB
Copy CRC 9A065DBB
Track not present in AccurateRip database
Copy OK

Track 23

Filename C:\Users\mark\Music\Various\Various Artists - C89 (2018)(Cherry Red, CRCDBOX59)[CD FLAC]\CD 2\23 .The Haywains.Fisherman's Friend.wav

Pre-gap length 0:00:02.00

Peak level 96.6 %
Extraction speed 2.3 X
Track quality 100.0 %
Test CRC 49ED6002
Copy CRC 49ED6002
Track not present in AccurateRip database
Copy OK

Track 24

Filename C:\Users\mark\Music\Various\Various Artists - C89 (2018)(Cherry Red, CRCDBOX59)[CD FLAC]\CD 2\24 .King Of The Slums.Bombs Away On Harpurhey.wav

Pre-gap length 0:00:02.00

Peak level 96.6 %
Extraction speed 2.7 X
Track quality 100.0 %
Test CRC 9D48070E
Copy CRC 9D48070E
Track not present in AccurateRip database
Copy OK


None of the tracks are present in the AccurateRip database

No errors occurred

End of status report

–– CUETools DB Plugin V2.1.6

[CTDB TOCID: Z3KinftOXDPmD.3CxaYhKj3y5c0-] disk not present in database
Submit result: Z3KinftOXDPmD.3CxaYhKj3y5c0- has been uploaded


==== Log checksum 4360A3DA336E3C10284A9B7836EE4ABF7E09923087F8B357A4A13BC6755CAAB2 ====

Exact Audio Copy V1.3 from 2. September 2016

EAC extraction logfile from 29. July 2018, 16:51

Various Artists / C89

Used drive : HL-DT-STDVDRAM GUE1N Adapter: 1 ID: 0

Read mode : Secure
Utilize accurate stream : Yes
Defeat audio cache : Yes
Make use of C2 pointers : No

Read offset correction : 6
Overread into Lead-In and Lead-Out : No
Fill up missing offset samples with silence : Yes
Delete leading and trailing silent blocks : No
Null samples used in CRC calculations : Yes
Used interface : Native Win32 interface for Win NT & 2000
Gap handling : Appended to previous track

Used output format : User Defined Encoder
Selected bitrate : 1024 kBit/s
Quality : High
Add ID3 tag : No
Command line compressor : C:\Program Files (x86)\Exact Audio Copy\Flac\flac.exe
Additional command line options : -8 -e -V -T "ARTIST=%artist%" -T "TITLE=%title%" -T "ALBUM=%albumtitle%" -T "DATE=%year%" -T "TRACKNUMBER=%tracknr%" -T "GENRE=%genre%" -T "PERFORMER=%albuminterpret%" -T "COMPOSER=%composer%" %haslyrics%–tag-from-file=LYRICS="%lyricsfile%"%haslyrics% -T "ALBUMARTIST=%albumartist%" -T "DISCNUMBER=%cdnumber%" -T "TOTALDISCS=%totalcds%" -T "TOTALTRACKS=%numtracks%" -T "COMMENT=%comment%" %source% -o %dest%


TOC of the extracted CD

Track | Start | Length | Start sector | End sector
––––––––––––––––––––––––––––-
1 | 0:00.00 | 3:16.27 | 0 | 14726
2 | 3:16.27 | 4:42.40 | 14727 | 35916
3 | 7:58.67 | 2:14.40 | 35917 | 46006
4 | 10:13.32 | 4:01.47 | 46007 | 64128
5 | 14:15.04 | 3:56.28 | 64129 | 81856
6 | 18:11.32 | 2:39.55 | 81857 | 93836
7 | 20:51.12 | 3:56.21 | 93837 | 111557
8 | 24:47.33 | 3:21.25 | 111558 | 126657
9 | 28:08.58 | 5:21.08 | 126658 | 150740
10 | 33:29.66 | 2:55.53 | 150741 | 163918
11 | 36:25.44 | 3:09.07 | 163919 | 178100
12 | 39:34.51 | 2:03.01 | 178101 | 187326
13 | 41:37.52 | 3:35.06 | 187327 | 203457
14 | 45:12.58 | 2:52.04 | 203458 | 216361
15 | 48:04.62 | 3:04.23 | 216362 | 230184
16 | 51:09.10 | 2:09.71 | 230185 | 239930
17 | 53:19.06 | 3:15.54 | 239931 | 254609
18 | 56:34.60 | 2:38.40 | 254610 | 266499
19 | 59:13.25 | 4:07.00 | 266500 | 285024
20 | 63:20.25 | 3:37.46 | 285025 | 301345
21 | 66:57.71 | 3:51.38 | 301346 | 318708
22 | 70:49.34 | 2:35.22 | 318709 | 330355
23 | 73:24.56 | 2:55.53 | 330356 | 343533
24 | 76:20.34 | 2:53.20 | 343534 | 356528


Track 1

Filename C:\Users\mark\Music\Various\Various Artists - C89 (2018)(Cherry Red, CRCDBOX59)[CD FLAC]\CD 3\01 .The Claim.Picking Up The Bitter Little Pieces#.wav

Pre-gap length 0:00:02.00

Peak level 96.6 %
Extraction speed 1.2 X
Track quality 100.0 %
Test CRC AC5259EE
Copy CRC AC5259EE
Track not present in AccurateRip database
Copy OK

Track 2

Filename C:\Users\mark\Music\Various\Various Artists - C89 (2018)(Cherry Red, CRCDBOX59)[CD FLAC]\CD 3\02 .A Riot Of Colour.Swallow.wav

Pre-gap length 0:00:02.00

Peak level 96.6 %
Extraction speed 1.2 X
Track quality 99.9 %
Test CRC 97645075
Copy CRC 97645075
Track not present in AccurateRip database
Copy OK

Track 3

Filename C:\Users\mark\Music\Various\Various Artists - C89 (2018)(Cherry Red, CRCDBOX59)[CD FLAC]\CD 3\03 .Daisycutters.Friends.wav

Pre-gap length 0:00:02.00

Peak level 96.6 %
Extraction speed 1.3 X
Track quality 100.0 %
Test CRC 23EE9755
Copy CRC 23EE9755
Track not present in AccurateRip database
Copy OK

Track 4

Filename C:\Users\mark\Music\Various\Various Artists - C89 (2018)(Cherry Red, CRCDBOX59)[CD FLAC]\CD 3\04 .Peruvian Hipsters.Tony Hadley.wav

Pre-gap length 0:00:02.00

Peak level 96.6 %
Extraction speed 1.5 X
Track quality 100.0 %
Test CRC 0D8F1159
Copy CRC 0D8F1159
Track not present in AccurateRip database
Copy OK

Track 5

Filename C:\Users\mark\Music\Various\Various Artists - C89 (2018)(Cherry Red, CRCDBOX59)[CD FLAC]\CD 3\05 .The Cherry Orchard.This Big Love.wav

Pre-gap length 0:00:02.00

Peak level 96.6 %
Extraction speed 1.4 X
Track quality 99.9 %
Test CRC F584FCB2
Copy CRC F584FCB2
Track not present in AccurateRip database
Copy OK

Track 6

Filename C:\Users\mark\Music\Various\Various Artists - C89 (2018)(Cherry Red, CRCDBOX59)[CD FLAC]\CD 3\06 .Ambitious Beggars.Welcome.wav

Pre-gap length 0:00:02.00

Peak level 96.6 %
Extraction speed 1.6 X
Track quality 100.0 %
Test CRC DA6C618B
Copy CRC DA6C618B
Track not present in AccurateRip database
Copy OK

Track 7

Filename C:\Users\mark\Music\Various\Various Artists - C89 (2018)(Cherry Red, CRCDBOX59)[CD FLAC]\CD 3\07 .The Davincis.Thomas Wolfe.wav

Pre-gap length 0:00:02.00

Peak level 96.6 %
Extraction speed 1.7 X
Track quality 100.0 %
Test CRC 0A7EB69D
Copy CRC 0A7EB69D
Track not present in AccurateRip database
Copy OK

Track 8

Filename C:\Users\mark\Music\Various\Various Artists - C89 (2018)(Cherry Red, CRCDBOX59)[CD FLAC]\CD 3\08 .Avo-8.Big Car.wav

Pre-gap length 0:00:02.00

Peak level 96.6 %
Extraction speed 1.8 X
Track quality 100.0 %
Test CRC 18064D28
Copy CRC 18064D28
Track not present in AccurateRip database
Copy OK

Track 9

Filename C:\Users\mark\Music\Various\Various Artists - C89 (2018)(Cherry Red, CRCDBOX59)[CD FLAC]\CD 3\09 .The Becketts.The Most Beautiful Girl In Town.wav

Pre-gap length 0:00:02.00

Peak level 96.6 %
Extraction speed 2.0 X
Track quality 100.0 %
Test CRC 7F716E79
Copy CRC 7F716E79
Track not present in AccurateRip database
Copy OK

Track 10

Filename C:\Users\mark\Music\Various\Various Artists - C89 (2018)(Cherry Red, CRCDBOX59)[CD FLAC]\CD 3\10 .Sunflowers.Bubble Bus.wav

Pre-gap length 0:00:02.00

Peak level 96.6 %
Extraction speed 1.9 X
Track quality 100.0 %
Test CRC 17AF10A8
Copy CRC 17AF10A8
Track not present in AccurateRip database
Copy OK

Track 11

Filename C:\Users\mark\Music\Various\Various Artists - C89 (2018)(Cherry Red, CRCDBOX59)[CD FLAC]\CD 3\11 .The Magnificent Lkage.Passion.wav

Pre-gap length 0:00:02.00

Peak level 96.6 %
Extraction speed 1.8 X
Track quality 100.0 %
Test CRC C748CA48
Copy CRC C748CA48
Track not present in AccurateRip database
Copy OK

Track 12

Filename C:\Users\mark\Music\Various\Various Artists - C89 (2018)(Cherry Red, CRCDBOX59)[CD FLAC]\CD 3\12 .Strawberry Story.Tell Me Now.wav

Pre-gap length 0:00:02.00

Peak level 96.6 %
Extraction speed 1.8 X
Track quality 100.0 %
Test CRC 1534F2EE
Copy CRC 1534F2EE
Track not present in AccurateRip database
Copy OK

Track 13

Filename C:\Users\mark\Music\Various\Various Artists - C89 (2018)(Cherry Red, CRCDBOX59)[CD FLAC]\CD 3\13 .Newsflash.Wherever I Go (Demo).wav

Pre-gap length 0:00:02.00

Peak level 96.6 %
Extraction speed 2.0 X
Track quality 100.0 %
Test CRC 52F5E7F6
Copy CRC 52F5E7F6
Track not present in AccurateRip database
Copy OK

Track 14

Filename C:\Users\mark\Music\Various\Various Artists - C89 (2018)(Cherry Red, CRCDBOX59)[CD FLAC]\CD 3\14 .The Mayfields.All You Ever Say.wav

Pre-gap length 0:00:03.00

Peak level 96.6 %
Extraction speed 2.1 X
Track quality 100.0 %
Test CRC 73B3CDC8
Copy CRC 73B3CDC8
Track not present in AccurateRip database
Copy OK

Track 15

Filename C:\Users\mark\Music\Various\Various Artists - C89 (2018)(Cherry Red, CRCDBOX59)[CD FLAC]\CD 3\15 .The Ruth Ellis Swing Band.Burn Your Books & Join My Life.wav

Pre-gap length 0:00:02.00

Peak level 96.6 %
Extraction speed 2.0 X
Track quality 100.0 %
Test CRC AB64D164
Copy CRC AB64D164
Track not present in AccurateRip database
Copy OK

Track 16

Filename C:\Users\mark\Music\Various\Various Artists - C89 (2018)(Cherry Red, CRCDBOX59)[CD FLAC]\CD 3\16 .Christine's Cat.Your Love Is….wav

Pre-gap length 0:00:02.00

Peak level 96.6 %
Extraction speed 2.0 X
Track quality 100.0 %
Test CRC 57D69A35
Copy CRC 57D69A35
Track not present in AccurateRip database
Copy OK

Track 17

Filename C:\Users\mark\Music\Various\Various Artists - C89 (2018)(Cherry Red, CRCDBOX59)[CD FLAC]\CD 3\17 .Said Liquidator.Say What You Feel.wav

Pre-gap length 0:00:02.00

Peak level 88.1 %
Extraction speed 2.1 X
Track quality 100.0 %
Test CRC 5EB45C13
Copy CRC 5EB45C13
Track not present in AccurateRip database
Copy OK

Track 18

Filename C:\Users\mark\Music\Various\Various Artists - C89 (2018)(Cherry Red, CRCDBOX59)[CD FLAC]\CD 3\18 .Jane From Occupied Europe.Annabel Lee.wav

Pre-gap length 0:00:02.00

Peak level 96.6 %
Extraction speed 2.2 X
Track quality 100.0 %
Test CRC 6703BE9D
Copy CRC 6703BE9D
Track not present in AccurateRip database
Copy OK

Track 19

Filename C:\Users\mark\Music\Various\Various Artists - C89 (2018)(Cherry Red, CRCDBOX59)[CD FLAC]\CD 3\19 .Big Red Bus.Sun Still Shines.wav

Pre-gap length 0:00:02.00

Peak level 96.6 %
Extraction speed 2.2 X
Track quality 99.9 %
Test CRC 15C05E64
Copy CRC 15C05E64
Track not present in AccurateRip database
Copy OK

Track 20

Filename C:\Users\mark\Music\Various\Various Artists - C89 (2018)(Cherry Red, CRCDBOX59)[CD FLAC]\CD 3\20 .Men Of Westenesse.The Coldest Water.wav

Pre-gap length 0:00:02.00

Peak level 96.6 %
Extraction speed 2.5 X
Track quality 100.0 %
Test CRC B34B6480
Copy CRC B34B6480
Track not present in AccurateRip database
Copy OK

Track 21

Filename C:\Users\mark\Music\Various\Various Artists - C89 (2018)(Cherry Red, CRCDBOX59)[CD FLAC]\CD 3\21 .The Church Grims.Mr. Watt Said.wav

Pre-gap length 0:00:02.00

Peak level 96.6 %
Extraction speed 2.5 X
Track quality 100.0 %
Test CRC 28500552
Copy CRC 28500552
Track not present in AccurateRip database
Copy OK

Track 22

Filename C:\Users\mark\Music\Various\Various Artists - C89 (2018)(Cherry Red, CRCDBOX59)[CD FLAC]\CD 3\22 .Jactars.Pull The Plug.wav

Pre-gap length 0:00:02.00

Peak level 96.6 %
Extraction speed 2.4 X
Track quality 100.0 %
Test CRC C2B2CF80
Copy CRC C2B2CF80
Track not present in AccurateRip database
Copy OK

Track 23

Filename C:\Users\mark\Music\Various\Various Artists - C89 (2018)(Cherry Red, CRCDBOX59)[CD FLAC]\CD 3\23 .Me And Dean Martin.Surfing Days.wav

Pre-gap length 0:00:02.00

Peak level 96.6 %
Extraction speed 2.2 X
Track quality 100.0 %
Test CRC C734D83A
Copy CRC C734D83A
Track not present in AccurateRip database
Copy OK

Track 24

Filename C:\Users\mark\Music\Various\Various Artists - C89 (2018)(Cherry Red, CRCDBOX59)[CD FLAC]\CD 3\24 .The Rain.Seven Red Apples.wav

Pre-gap length 0:00:02.00

Peak level 96.6 %
Extraction speed 2.0 X
Track quality 99.9 %
Test CRC 60F869CF
Copy CRC 60F869CF
Track not present in AccurateRip database
Copy OK


None of the tracks are present in the AccurateRip database

No errors occurred

End of status report

–– CUETools DB Plugin V2.1.6

[CTDB TOCID: GnBRbUIN2zEy5RTVFZD.mReEb6U-] disk not present in database
Submit result: GnBRbUIN2zEy5RTVFZD.mReEb6U- has been uploaded


==== Log checksum 294CFA490939E5823D47992707658DC3B8633AD3692FC18CE28499E9E7586183 ====

Thanks to the Original ripper littlepiggy !