Subcategories

VA - Dance For Your Life: Rare Finnish Disco & Funk 1976–1986 (2018)

Posted By: delpotro
VA - Dance For Your Life: Rare Finnish Disco & Funk 1976–1986 (2018)

VA - Dance For Your Life: Rare Finnish Disco & Funk 1976–1986 (2018)
EAC Rip | FLAC (tracks+log+.cue) - 509 Mb | MP3 CBR 320 kbps - 181 Mb | 01:18:47
Disco, Funk | Label: Svart Records

Lordi. HIM. Apocalyptica. When one thinks of Finnish music, the words ‘funk’ and ‘disco’ are not ones that immediately spring to mind. The people at Svart Records - despite being a label that largely releases prog and metal - are out to change those perceptions. They’ve brought together eighteen choice morsels from the discotheques of 70s and 80s Finland. A lot of the tracks have a charmingly skew-whiff, Gilbert & Sullivan-esque flavour to them.
Tracklist:
1. Anneli Pasanen – Auringonmaa (Don Carlo Dansar) (02:57)
2. Marion – Syy Täysikuun (I Dig You) (02:53)
3. Ernos – Discofiilis (03:36)
4. Dance – Flying High (05:15)
5. Seitsemän Seinähullua Veljestä – Kaikki Kaunis (Another Star) (04:34)
6. Karma – Raju Yö (Stomp) (04:00)
7. Piritta – Ota (03:01)
8. Peak Funktion – Freakin' At The Disco (05:31)
9. The Groove Night – Gallow Zone (03:42)
10. Solar – Walking Under Moonlight (05:15)
11. Emilia – Filmi (04:41)
12. Jussi Halme – Funny Funk (04:20)
13. Nisa Soraya – Queen Of The Night (03:45)
14. Break – All My Loving (03:24)
15. Paul Williams – Silvernight (06:30)
16. Jussi Halme – Manhattan Club (04:06)
17. Caron – Dancing In The Night (04:01)
18. Björninen Band – Dance For Your Life (06:04)

Exact Audio Copy V1.0 beta 3 from 29. August 2011

EAC extraction logfile from 10. September 2018, 20:20

Various Artists / Dance for Your Life: Rare Finnish Disco & Funk 1976-1986

Used drive : HL-DT-STDVDRAM GH22NS70 Adapter: 2 ID: 0

Read mode : Secure
Utilize accurate stream : Yes
Defeat audio cache : Yes
Make use of C2 pointers : No

Read offset correction : 667
Overread into Lead-In and Lead-Out : No
Fill up missing offset samples with silence : Yes
Delete leading and trailing silent blocks : No
Null samples used in CRC calculations : Yes
Used interface : Native Win32 interface for Win NT & 2000
Gap handling : Appended to previous track

Used output format : User Defined Encoder
Selected bitrate : 1024 kBit/s
Quality : High
Add ID3 tag : No
Command line compressor : C:\Program Files (x86)\FLAC\flac.exe
Additional command line options : -8 -V -T "ARTIST=%artist%" -T "TITLE=%title%" -T "ALBUM=%albumtitle%" -T "DATE=%year%" -T "TRACKNUMBER=%tracknr%" -T "GENRE=%genre%" -T "PERFORMER=%albuminterpret%" -T "COMPOSER=%composer%" %haslyrics%–tag-from-file=LYRICS="%lyricsfile%"%haslyrics% -T "ALBUMARTIST=%albumartist%" -T "DISCNUMBER=%cdnumber%" -T "TOTALDISCS=%totalcds%" -T "TOTALTRACKS=%numtracks%" -T "COMMENT=%comment%" %source% -o %dest%


TOC of the extracted CD

Track | Start | Length | Start sector | End sector
––––––––––––––––––––––––––––-
1 | 0:00.00 | 3:01.00 | 0 | 13574
2 | 3:01.00 | 2:57.17 | 13575 | 26866
3 | 5:58.17 | 3:40.40 | 26867 | 43406
4 | 9:38.57 | 5:17.35 | 43407 | 67216
5 | 14:56.17 | 4:32.67 | 67217 | 87683
6 | 19:29.09 | 4:17.42 | 87684 | 107000
7 | 23:46.51 | 3:03.38 | 107001 | 120763
8 | 26:50.14 | 5:43.74 | 120764 | 146562
9 | 32:34.13 | 3:45.74 | 146563 | 163511
10 | 36:20.12 | 5:19.50 | 163512 | 187486
11 | 41:39.62 | 4:42.16 | 187487 | 208652
12 | 46:22.03 | 4:22.23 | 208653 | 228325
13 | 50:44.26 | 3:54.03 | 228326 | 245878
14 | 54:38.29 | 3:26.15 | 245879 | 261343
15 | 58:04.44 | 6:30.37 | 261344 | 290630
16 | 64:35.06 | 4:07.65 | 290631 | 309220
17 | 68:42.71 | 4:03.15 | 309221 | 327460
18 | 72:46.11 | 6:01.62 | 327461 | 354597


Track 1

Filename K:\TEMP\VA - Dance for Your Life- Rare Finnish Disco & Funk 1976-1986\01-Anneli Pasanen-Auringonmaa.wav

Pre-gap length 0:00:02.00

Peak level 98.1 %
Extraction speed 1.1 X
Track quality 100.0 %
Test CRC 96D6C2A4
Copy CRC 96D6C2A4
Accurately ripped (confidence 1) [AE8FFA42] (AR v2)
Copy OK

Track 2

Filename K:\TEMP\VA - Dance for Your Life- Rare Finnish Disco & Funk 1976-1986\02-Marion-Syy täysikuun.wav

Pre-gap length 0:00:02.57

Peak level 98.2 %
Extraction speed 1.1 X
Track quality 100.0 %
Test CRC 9188B525
Copy CRC 9188B525
Accurately ripped (confidence 1) [5B4060D6] (AR v2)
Copy OK

Track 3

Filename K:\TEMP\VA - Dance for Your Life- Rare Finnish Disco & Funk 1976-1986\03-Ernos-Discofiilis.wav

Pre-gap length 0:00:03.61

Peak level 98.1 %
Extraction speed 1.3 X
Track quality 100.0 %
Test CRC 4487FEE1
Copy CRC 4487FEE1
Accurately ripped (confidence 1) [46517B92] (AR v2)
Copy OK

Track 4

Filename K:\TEMP\VA - Dance for Your Life- Rare Finnish Disco & Funk 1976-1986\04-Dance-Flying High.wav

Pre-gap length 0:00:03.57

Peak level 98.1 %
Extraction speed 1.5 X
Track quality 100.0 %
Test CRC B4745611
Copy CRC B4745611
Accurately ripped (confidence 1) [5EBD2784] (AR v2)
Copy OK

Track 5

Filename K:\TEMP\VA - Dance for Your Life- Rare Finnish Disco & Funk 1976-1986\05-Seitsemän seinähullua veljestä-Kaikki kaunis.wav

Pre-gap length 0:00:03.08

Peak level 98.7 %
Extraction speed 1.4 X
Track quality 99.9 %
Test CRC 3D3896C0
Copy CRC 3D3896C0
Accurately ripped (confidence 1) [857F06D1] (AR v2)
Copy OK

Track 6

Filename K:\TEMP\VA - Dance for Your Life- Rare Finnish Disco & Funk 1976-1986\06-Karma-Raju yö.wav

Pre-gap length 0:00:03.08

Peak level 97.9 %
Extraction speed 1.6 X
Track quality 100.0 %
Test CRC 8E50B456
Copy CRC 8E50B456
Accurately ripped (confidence 1) [C7AEAACA] (AR v2)
Copy OK

Track 7

Filename K:\TEMP\VA - Dance for Your Life- Rare Finnish Disco & Funk 1976-1986\07-Piritta-Ota.wav

Pre-gap length 0:00:02.88

Peak level 98.7 %
Extraction speed 1.6 X
Track quality 100.0 %
Test CRC A3160F69
Copy CRC A3160F69
Accurately ripped (confidence 1) [90F2BBC4] (AR v2)
Copy OK

Track 8

Filename K:\TEMP\VA - Dance for Your Life- Rare Finnish Disco & Funk 1976-1986\08-Peak Funktion-Freakin’ at the Disco.wav

Pre-gap length 0:00:03.49

Peak level 98.0 %
Extraction speed 1.9 X
Track quality 100.0 %
Test CRC 9304A58A
Copy CRC 9304A58A
Accurately ripped (confidence 1) [491912D5] (AR v2)
Copy OK

Track 9

Filename K:\TEMP\VA - Dance for Your Life- Rare Finnish Disco & Funk 1976-1986\09-The Groove Night-Gallow Zone.wav

Pre-gap length 0:00:03.37

Peak level 98.4 %
Extraction speed 1.8 X
Track quality 100.0 %
Test CRC A876B9AD
Copy CRC A876B9AD
Accurately ripped (confidence 1) [A698CDAA] (AR v2)
Copy OK

Track 10

Filename K:\TEMP\VA - Dance for Your Life- Rare Finnish Disco & Funk 1976-1986\10-Solar-Walking Under Moonlight.wav

Pre-gap length 0:00:02.74

Peak level 98.9 %
Extraction speed 1.5 X
Track quality 99.9 %
Test CRC 7148EC85
Copy CRC 7148EC85
Accurately ripped (confidence 1) [6EBB6267] (AR v2)
Copy OK

Track 11

Filename K:\TEMP\VA - Dance for Your Life- Rare Finnish Disco & Funk 1976-1986\11-Emilia-Filmi.wav

Pre-gap length 0:00:03.44

Peak level 98.5 %
Extraction speed 0.8 X
Track quality 99.6 %
Test CRC DE818F53
Copy CRC DE818F53
Cannot be verified as accurate (confidence 1) [276B54F5], AccurateRip returned [35618BF0] (AR v2)
Copy OK

Track 12

Filename K:\TEMP\VA - Dance for Your Life- Rare Finnish Disco & Funk 1976-1986\12-Jussi Halme-Funny Funk.wav

Pre-gap length 0:00:03.26

Peak level 98.2 %
Extraction speed 1.1 X
Track quality 99.7 %
Test CRC 506F8B04
Copy CRC 506F8B04
Accurately ripped (confidence 1) [DAF84173] (AR v2)
Copy OK

Track 13

Filename K:\TEMP\VA - Dance for Your Life- Rare Finnish Disco & Funk 1976-1986\13-Nisa Soraya-Queen of the Night.wav

Pre-gap length 0:00:04.37

Peak level 98.7 %
Extraction speed 1.9 X
Track quality 99.9 %
Test CRC 09007BEC
Copy CRC 09007BEC
Accurately ripped (confidence 1) [43E104D6] (AR v2)
Copy OK

Track 14

Filename K:\TEMP\VA - Dance for Your Life- Rare Finnish Disco & Funk 1976-1986\14-Break-All My Loving.wav

Pre-gap length 0:00:03.49

Peak level 97.8 %
Extraction speed 1.9 X
Track quality 99.9 %
Test CRC E9A6A66F
Copy CRC E9A6A66F
Accurately ripped (confidence 1) [3589C199] (AR v2)
Copy OK

Track 15

Filename K:\TEMP\VA - Dance for Your Life- Rare Finnish Disco & Funk 1976-1986\15-Paul Williams-Silvernight.wav

Pre-gap length 0:00:03.33

Peak level 98.9 %
Extraction speed 2.0 X
Track quality 99.9 %
Test CRC 1028F0D6
Copy CRC 1028F0D6
Accurately ripped (confidence 1) [DDACB9B9] (AR v2)
Copy OK

Track 16

Filename K:\TEMP\VA - Dance for Your Life- Rare Finnish Disco & Funk 1976-1986\16-Jussi Halme-Manhattan Club.wav

Pre-gap length 0:00:02.04

Peak level 98.7 %
Extraction speed 2.3 X
Track quality 100.0 %
Test CRC 41D586D4
Copy CRC 41D586D4
Accurately ripped (confidence 1) [08513765] (AR v2)
Copy OK

Track 17

Filename K:\TEMP\VA - Dance for Your Life- Rare Finnish Disco & Funk 1976-1986\17-Caron-Dancing in the Night.wav

Pre-gap length 0:00:01.94

Peak level 98.6 %
Extraction speed 2.0 X
Track quality 99.9 %
Test CRC 0E3AE3E0
Copy CRC 0E3AE3E0
Accurately ripped (confidence 1) [ACAE33EF] (AR v2)
Copy OK

Track 18

Filename K:\TEMP\VA - Dance for Your Life- Rare Finnish Disco & Funk 1976-1986\18-Björninen Band-Dance for Your Life.wav

Pre-gap length 0:00:03.16

Peak level 98.5 %
Extraction speed 2.6 X
Track quality 100.0 %
Test CRC 225D86DF
Copy CRC 225D86DF
Accurately ripped (confidence 1) [488D502E] (AR v2)
Copy OK


17 track(s) accurately ripped
1 track(s) could not be verified as accurate

Some tracks could not be verified as accurate

No errors occurred

End of status report

–– CUETools DB Plugin V2.1.3

[CTDB TOCID: tsN3c7WnHDtw5MKYrlUWkZl19k0-] found
[ffac3881] (4/4) No match


==== Log checksum D0CD2FE9487667E2C328F0D49E2D3250E9ECAFDB85371B695A40C460A1D92141 ====

Thanks to the Original ripper MatkaAapeli !