Tags
Language
Tags

VA - Electric Dreams (2017)

Posted By: delpotro
VA - Electric Dreams (2017)

VA - Electric Dreams (2017)
EAC Rip | FLAC (tracks+log+.cue) | 03:53:56 | 1,57 Gb
Pop, Electronic, Synthpop | Label: Universal Music, UMOD

As the Seventies faded into the Eighties, Top of the Pops approached its 1000th episode, MTV launched in America, and kids across Britain were falling in love with pop music away from the TV, through a small little box called a Walkman. Through their headphones came new, strange sounds: mechanical, but organic and alive. The synthesiser was the sound of tomorrow, today, and it was thrilling.

If the Seventies was the era of the album, the Eighties gave new life to the single – short bursts of bright, gleeful keyboards, portals to other worlds which made yours feel a little brighter.

Pop music was suddenly ablaze with infectious and irresistible sounds, led by a new batch of stars, Marc Almond, Donna Summer, Grace Jones, Holly Johnson. All eccentric and lovable, extra-terrestrial yet human, and groomed for the video pop generation.

Gathered on this 3CD set are the very best tracks from the era, all monstrous hits, which define their times, yet still sound like the future. From the arched eyebrow of ‘Relax’, the Italo-disco of ‘I Feel Love’, to the swooning, grandiose ‘Vienna’.

But we begin with a collaboration between a moustachioed pioneer from the mountains of Italy, Giorgio Moroder, and the pride of Sheffield, Phil Oakey. The lightning in a bottle recording apparently took ten minutes to make. It’s lasted decades, and kickstarts this album, a pure celebration of the era. Enjoy!
Tracklist:
CD1 (01:17:27)
01. Giorgio Moroder and Philip Oakey - Together In Electric Dreams (03:49)
02. Soft Cell - Tainted Love (02:41)
03. Gary Numan - Cars (03:56)
04. Tubeway Army - Are 'Friends' Electric? (05:21)
05. Ultravox! - Vienna (04:38)
06. Heaven 17 - Temptation (03:33)
07. The Human League - Don't You Want Me (Remastered) (03:58)
08. Frankie Goes To Hollywood - Relax (03:57)
09. Duran Duran - The Reflex (Single Version / Remastered 2010) (04:25)
10. New Order - Blue Monday '88 (04:05)
11. Paul Hardcastle - 19 (03:32)
12. Harold Faltermeyer - Axel F (From 'Beverly Hills Cop' Soundtrack) (03:01)
13. OMD - Souvenir (Remastered 2003) (03:35)
14. Visage - Fade To Grey (03:50)
15. The Art Of Noise - Close (To The Edit) (04:07)
16. Yello - The Race (03:20)
17. Flash & The Pan - Waiting For A Train (03:44)
18. Jan Hammer - Crockett's Theme (From 'Miami Vice' Soundtrack) (03:32)
19. Black - Wonderful Life (04:48)
20. Tears For Fears - Mad World (03:35)

CD2 (01:17:49)
01. Spandau Ballet - To Cut A Long Story Short (03:21)
02. Go West - We Close Our Eyes (03:41)
03. Simple Minds - Don't You (Forget About Me) (Remastered) (04:21)
04. Living In A Box - Living In A Box (03:04)
05. M - Pop Muzik (03:19)
06. A-Ha - Take On Me (03:46)
07. Bronski Beat - Smalltown Boy (Radio Edit) (03:55)
08. Howard Jones - What Is Love (03:39)
09. Steve Winwood - Valerie (Remastered 2010) (04:07)
10. Midge Ure - No Regrets (04:01)
11. Belouis Some - Imagination (03:35)
12. Animotion - Obsession (05:26)
13. Blancmange - Living On The Ceiling (04:00)
14. Sigue Sigue Sputnik - Love Missile F1-11 (03:44)
15. Electronic - Get The Message (7' Edit) (03:51)
16. The Associates - Party Fears Two (Remastered) (04:08)
17. Trans-X - Living On Video (Radio Edit) (03:45)
18. Japan - Ghosts (Single Version / Remastered 2003) (03:55)
19. Roxy Music - Avalon (Remastered 2012) (04:16)
20. The Cars - Drive (03:55)

CD3 (01:18:40)
01. Donna Summer - I Feel Love (03:11)
02. Sarah Jane Morris and The Communards - Don't Leave Me This Way (04:31)
03. Freeez - I.O.U. (7' Version) (03:50)
04. Nu Shooz - I Can't Wait (03:38)
05. Grace Jones - Pull Up To The Bumper (04:42)
06. Howard Jones - New Song (04:15)
07. Johnny Hates Jazz - Shattered Dreams (Remastered 2008) (03:28)
08. Alphaville - Big In Japan (03:51)
09. China Crisis - Black Man Ray (03:38)
10. Ryuichi Sakamoto & David Sylvian - Forbidden Colours (04:39)
11. Sparks - Beat The Clock (04:24)
12. Classix Nouveaux - Is It A Dream (03:38)
13. Propaganda - Dr Mabuse (04:20)
14. Thomas Dolby - She Blinded Me With Science (03:42)
15. Devo - Whip It (02:40)
16. Man Parrish - Hip Hop Be Bop (Don’t Stop) (Radio Edit) (04:28)
17. Hashim - Al-Naafyish (The Soul) (05:33)
18. Talk Talk - Talk Talk (03:15)
19. The Cure - The Walk (03:31)
20. Joy Division - Love Will Tear Us Apart (03:26)

Exact Audio Copy V1.3 from 2. September 2016

EAC extraction logfile from 29. September 2017, 19:45

Various Artists / Electric Dreams

Used drive : TSSTcorpDVDWBD SH-B123L Adapter: 1 ID: 0

Read mode : Secure
Utilize accurate stream : Yes
Defeat audio cache : Yes
Make use of C2 pointers : No

Read offset correction : 6
Overread into Lead-In and Lead-Out : No
Fill up missing offset samples with silence : Yes
Delete leading and trailing silent blocks : No
Null samples used in CRC calculations : Yes
Used interface : Native Win32 interface for Win NT & 2000
Gap handling : Appended to previous track

Used output format : User Defined Encoder
Selected bitrate : 768 kBit/s
Quality : High
Add ID3 tag : No
Command line compressor : C:\Program Files (x86)\Exact Audio Copy\FLAC\FLAC.EXE
Additional command line options : -8 -V -T "ARTIST=%artist%" -T "TITLE=%title%" -T "ALBUM=%albumtitle%" -T "DATE=%year%" -T "TRACKNUMBER=%tracknr%" -T "GENRE=%genre%" -T "COMMENT=%comment%" -T "BAND=%albuminterpret%" -T "ALBUMARTIST=%albuminterpret%" -T "COMPOSER=%composer%" %haslyrics%–tag-from-file=LYRICS="%lyricsfile%"%haslyrics% -T "DISCNUMBER=%cdnumber%" -T "TOTALDISCS=%totalcds%" -T "TOTALTRACKS=%numtracks%" %hascover%–picture="%coverfile%"%hascover% %source% -o %dest%


TOC of the extracted CD

Track | Start | Length | Start sector | End sector
––––––––––––––––––––––––––––-
1 | 0:00.00 | 3:49.14 | 0 | 17188
2 | 3:49.14 | 2:41.02 | 17189 | 29265
3 | 6:30.16 | 3:56.05 | 29266 | 46970
4 | 10:26.21 | 5:21.09 | 46971 | 71054
5 | 15:47.30 | 4:38.26 | 71055 | 91930
6 | 20:25.56 | 3:33.08 | 91931 | 107913
7 | 23:58.64 | 3:57.73 | 107914 | 125761
8 | 27:56.62 | 3:56.48 | 125762 | 143509
9 | 31:53.35 | 4:24.42 | 143510 | 163351
10 | 36:18.02 | 4:04.66 | 163352 | 181717
11 | 40:22.68 | 3:32.01 | 181718 | 197618
12 | 43:54.69 | 3:01.21 | 197619 | 211214
13 | 46:56.15 | 3:34.50 | 211215 | 227314
14 | 50:30.65 | 3:50.28 | 227315 | 244592
15 | 54:21.18 | 4:07.35 | 244593 | 263152
16 | 58:28.53 | 3:20.16 | 263153 | 278168
17 | 61:48.69 | 3:44.13 | 278169 | 294981
18 | 65:33.07 | 3:32.27 | 294982 | 310908
19 | 69:05.34 | 4:48.37 | 310909 | 332545
20 | 73:53.71 | 3:34.44 | 332546 | 348639


Track 1

Filename E:\Electric Dreams (2017) [FLAC]\CD1\01. Giorgio Moroder and Philip Oakey - Together In Electric Dreams.wav

Pre-gap length 0:00:02.00

Peak level 98.8 %
Extraction speed 2.3 X
Track quality 100.0 %
Test CRC A350AEE4
Copy CRC A350AEE4
Track not present in AccurateRip database
Copy OK

Track 2

Filename E:\Electric Dreams (2017) [FLAC]\CD1\02. Soft Cell - Tainted Love.wav

Peak level 98.8 %
Extraction speed 1.8 X
Track quality 99.9 %
Test CRC 9F209345
Copy CRC 9F209345
Track not present in AccurateRip database
Copy OK

Track 3

Filename E:\Electric Dreams (2017) [FLAC]\CD1\03. Gary Numan - Cars.wav

Peak level 98.8 %
Extraction speed 2.2 X
Track quality 99.9 %
Test CRC FBEF6A33
Copy CRC FBEF6A33
Track not present in AccurateRip database
Copy OK

Track 4

Filename E:\Electric Dreams (2017) [FLAC]\CD1\04. Tubeway Army - Are ''Friends'' Electric.wav

Peak level 98.8 %
Extraction speed 2.9 X
Track quality 100.0 %
Test CRC A2EFB3D7
Copy CRC A2EFB3D7
Track not present in AccurateRip database
Copy OK

Track 5

Filename E:\Electric Dreams (2017) [FLAC]\CD1\05. Ultravox! - Vienna.wav

Peak level 98.8 %
Extraction speed 3.1 X
Track quality 100.0 %
Test CRC 75F7D6C2
Copy CRC 75F7D6C2
Track not present in AccurateRip database
Copy OK

Track 6

Filename E:\Electric Dreams (2017) [FLAC]\CD1\06. Heaven 17 - Temptation.wav

Peak level 98.8 %
Extraction speed 2.4 X
Track quality 99.9 %
Test CRC C5AEA841
Copy CRC C5AEA841
Track not present in AccurateRip database
Copy OK

Track 7

Filename E:\Electric Dreams (2017) [FLAC]\CD1\07. The Human League - Don't You Want Me (Remastered).wav

Peak level 98.8 %
Extraction speed 3.3 X
Track quality 100.0 %
Test CRC EE832596
Copy CRC EE832596
Track not present in AccurateRip database
Copy OK

Track 8

Filename E:\Electric Dreams (2017) [FLAC]\CD1\08. Frankie Goes To Hollywood - Relax.wav

Peak level 98.8 %
Extraction speed 3.5 X
Track quality 100.0 %
Test CRC D06E06C5
Copy CRC D06E06C5
Track not present in AccurateRip database
Copy OK

Track 9

Filename E:\Electric Dreams (2017) [FLAC]\CD1\09. Duran Duran - The Reflex (Single Version , Remastered 2010).wav

Peak level 98.9 %
Extraction speed 3.7 X
Track quality 100.0 %
Test CRC 61C1B098
Copy CRC 61C1B098
Track not present in AccurateRip database
Copy OK

Track 10

Filename E:\Electric Dreams (2017) [FLAC]\CD1\10. New Order - Blue Monday '88.wav

Peak level 88.3 %
Extraction speed 3.8 X
Track quality 100.0 %
Test CRC E85A5377
Copy CRC E85A5377
Track not present in AccurateRip database
Copy OK

Track 11

Filename E:\Electric Dreams (2017) [FLAC]\CD1\11. Paul Hardcastle - 19.wav

Peak level 98.9 %
Extraction speed 3.8 X
Track quality 100.0 %
Test CRC 237BB42C
Copy CRC 237BB42C
Track not present in AccurateRip database
Copy OK

Track 12

Filename E:\Electric Dreams (2017) [FLAC]\CD1\12. Harold Faltermeyer - Axel F (From ''Beverly Hills Cop'' Soundtrack).wav

Peak level 98.8 %
Extraction speed 2.6 X
Track quality 99.9 %
Test CRC 5D565866
Copy CRC 5D565866
Track not present in AccurateRip database
Copy OK

Track 13

Filename E:\Electric Dreams (2017) [FLAC]\CD1\13. OMD - Souvenir (Remastered 2003).wav

Peak level 98.8 %
Extraction speed 4.0 X
Track quality 100.0 %
Test CRC A8D46B15
Copy CRC A8D46B15
Track not present in AccurateRip database
Copy OK

Track 14

Filename E:\Electric Dreams (2017) [FLAC]\CD1\14. Visage - Fade To Grey.wav

Peak level 98.8 %
Extraction speed 3.0 X
Track quality 99.9 %
Test CRC 9904DAD1
Copy CRC 9904DAD1
Track not present in AccurateRip database
Copy OK

Track 15

Filename E:\Electric Dreams (2017) [FLAC]\CD1\15. The Art Of Noise - Close (To The Edit).wav

Peak level 98.8 %
Extraction speed 4.3 X
Track quality 100.0 %
Test CRC 6EF3E2A0
Copy CRC 6EF3E2A0
Track not present in AccurateRip database
Copy OK

Track 16

Filename E:\Electric Dreams (2017) [FLAC]\CD1\16. Yello - The Race.wav

Peak level 98.8 %
Extraction speed 4.1 X
Track quality 100.0 %
Test CRC E9207959
Copy CRC E9207959
Track not present in AccurateRip database
Copy OK

Track 17

Filename E:\Electric Dreams (2017) [FLAC]\CD1\17. Flash & The Pan - Waiting For A Train.wav

Peak level 98.8 %
Extraction speed 4.5 X
Track quality 100.0 %
Test CRC 7995146B
Copy CRC 7995146B
Track not present in AccurateRip database
Copy OK

Track 18

Filename E:\Electric Dreams (2017) [FLAC]\CD1\18. Jan Hammer - Crockett's Theme (From ''Miami Vice'' Soundtrack).wav

Peak level 98.8 %
Extraction speed 4.4 X
Track quality 100.0 %
Test CRC E525E712
Copy CRC E525E712
Track not present in AccurateRip database
Copy OK

Track 19

Filename E:\Electric Dreams (2017) [FLAC]\CD1\19. Black - Wonderful Life.wav

Peak level 98.8 %
Extraction speed 3.5 X
Track quality 99.9 %
Test CRC 664F2A05
Copy CRC 664F2A05
Track not present in AccurateRip database
Copy OK

Track 20

Filename E:\Electric Dreams (2017) [FLAC]\CD1\20. Tears For Fears - Mad World.wav

Peak level 98.8 %
Extraction speed 4.7 X
Track quality 100.0 %
Test CRC F5137736
Copy CRC F5137736
Track not present in AccurateRip database
Copy OK


None of the tracks are present in the AccurateRip database

No errors occurred

End of status report

==== Log checksum 87135514A3C82C4E655696DF58E5F09D316EDAF32813E6C5246C2E3586E5AFA6 ====

Exact Audio Copy V1.3 from 2. September 2016

EAC extraction logfile from 29. September 2017, 20:37

Various Artists / Electric Dreams

Used drive : TSSTcorpDVDWBD SH-B123L Adapter: 1 ID: 0

Read mode : Secure
Utilize accurate stream : Yes
Defeat audio cache : Yes
Make use of C2 pointers : No

Read offset correction : 6
Overread into Lead-In and Lead-Out : No
Fill up missing offset samples with silence : Yes
Delete leading and trailing silent blocks : No
Null samples used in CRC calculations : Yes
Used interface : Native Win32 interface for Win NT & 2000
Gap handling : Appended to previous track

Used output format : User Defined Encoder
Selected bitrate : 768 kBit/s
Quality : High
Add ID3 tag : No
Command line compressor : C:\Program Files (x86)\Exact Audio Copy\FLAC\FLAC.EXE
Additional command line options : -8 -V -T "ARTIST=%artist%" -T "TITLE=%title%" -T "ALBUM=%albumtitle%" -T "DATE=%year%" -T "TRACKNUMBER=%tracknr%" -T "GENRE=%genre%" -T "COMMENT=%comment%" -T "BAND=%albuminterpret%" -T "ALBUMARTIST=%albuminterpret%" -T "COMPOSER=%composer%" %haslyrics%–tag-from-file=LYRICS="%lyricsfile%"%haslyrics% -T "DISCNUMBER=%cdnumber%" -T "TOTALDISCS=%totalcds%" -T "TOTALTRACKS=%numtracks%" %hascover%–picture="%coverfile%"%hascover% %source% -o %dest%


TOC of the extracted CD

Track | Start | Length | Start sector | End sector
––––––––––––––––––––––––––––-
1 | 0:00.00 | 3:21.19 | 0 | 15093
2 | 3:21.19 | 3:41.17 | 15094 | 31685
3 | 7:02.36 | 4:21.24 | 31686 | 51284
4 | 11:23.60 | 3:04.35 | 51285 | 65119
5 | 14:28.20 | 3:18.45 | 65120 | 80014
6 | 17:46.65 | 3:46.20 | 80015 | 96984
7 | 21:33.10 | 3:54.61 | 96985 | 114595
8 | 25:27.71 | 3:39.37 | 114596 | 131057
9 | 29:07.33 | 4:07.25 | 131058 | 149607
10 | 33:14.58 | 4:01.22 | 149608 | 167704
11 | 37:16.05 | 3:35.06 | 167705 | 183835
12 | 40:51.11 | 5:25.54 | 183836 | 208264
13 | 46:16.65 | 4:00.03 | 208265 | 226267
14 | 50:16.68 | 3:43.39 | 226268 | 243031
15 | 54:00.32 | 3:51.26 | 243032 | 260382
16 | 57:51.58 | 4:07.63 | 260383 | 278970
17 | 61:59.46 | 3:44.55 | 278971 | 295825
18 | 65:44.26 | 3:54.50 | 295826 | 313425
19 | 69:39.01 | 4:16.00 | 313426 | 332625
20 | 73:55.01 | 3:55.20 | 332626 | 350270


Track 1

Filename E:\Electric Dreams (2017) [FLAC]\CD2\01. Spandau Ballet - To Cut A Long Story Short.wav

Pre-gap length 0:00:02.00

Peak level 98.9 %
Extraction speed 2.3 X
Track quality 100.0 %
Test CRC 349CDFE1
Copy CRC 349CDFE1
Track not present in AccurateRip database
Copy OK

Track 2

Filename E:\Electric Dreams (2017) [FLAC]\CD2\02. Go West - We Close Our Eyes.wav

Peak level 98.9 %
Extraction speed 2.4 X
Track quality 100.0 %
Test CRC ACDC5CB3
Copy CRC ACDC5CB3
Track not present in AccurateRip database
Copy OK

Track 3

Filename E:\Electric Dreams (2017) [FLAC]\CD2\03. Simple Minds - Don't You (Forget About Me) (Remastered).wav

Peak level 90.8 %
Extraction speed 2.6 X
Track quality 100.0 %
Test CRC FF0BFBC1
Copy CRC FF0BFBC1
Track not present in AccurateRip database
Copy OK

Track 4

Filename E:\Electric Dreams (2017) [FLAC]\CD2\04. Living In A Box - Living In A Box.wav

Peak level 98.9 %
Extraction speed 2.7 X
Track quality 100.0 %
Test CRC 174685AB
Copy CRC 174685AB
Track not present in AccurateRip database
Copy OK

Track 5

Filename E:\Electric Dreams (2017) [FLAC]\CD2\05. M - Pop Muzik.wav

Peak level 98.9 %
Extraction speed 2.9 X
Track quality 100.0 %
Test CRC 7D13BC6D
Copy CRC 7D13BC6D
Track not present in AccurateRip database
Copy OK

Track 6

Filename E:\Electric Dreams (2017) [FLAC]\CD2\06. A-Ha - Take On Me.wav

Peak level 98.9 %
Extraction speed 3.0 X
Track quality 100.0 %
Test CRC 51077A4E
Copy CRC 51077A4E
Track not present in AccurateRip database
Copy OK

Track 7

Filename E:\Electric Dreams (2017) [FLAC]\CD2\07. Bronski Beat - Smalltown Boy (Radio Edit).wav

Peak level 98.9 %
Extraction speed 3.2 X
Track quality 100.0 %
Test CRC 4A3F33BC
Copy CRC 4A3F33BC
Track not present in AccurateRip database
Copy OK

Track 8

Filename E:\Electric Dreams (2017) [FLAC]\CD2\08. Howard Jones - What Is Love.wav

Peak level 97.8 %
Extraction speed 3.3 X
Track quality 100.0 %
Test CRC 0A5C69A2
Copy CRC 0A5C69A2
Track not present in AccurateRip database
Copy OK

Track 9

Filename E:\Electric Dreams (2017) [FLAC]\CD2\09. Steve Winwood - Valerie (Remastered 2010).wav

Peak level 98.9 %
Extraction speed 2.7 X
Track quality 99.9 %
Test CRC 00BFBF4B
Copy CRC 00BFBF4B
Track not present in AccurateRip database
Copy OK

Track 10

Filename E:\Electric Dreams (2017) [FLAC]\CD2\10. Midge Ure - No Regrets.wav

Peak level 98.9 %
Extraction speed 3.6 X
Track quality 100.0 %
Test CRC 0FFFEBB3
Copy CRC 0FFFEBB3
Track not present in AccurateRip database
Copy OK

Track 11

Filename E:\Electric Dreams (2017) [FLAC]\CD2\11. Belouis Some - Imagination.wav

Peak level 98.9 %
Extraction speed 3.7 X
Track quality 100.0 %
Test CRC 10E147E1
Copy CRC 10E147E1
Track not present in AccurateRip database
Copy OK

Track 12

Filename E:\Electric Dreams (2017) [FLAC]\CD2\12. Animotion - Obsession.wav

Peak level 98.9 %
Extraction speed 3.2 X
Track quality 99.9 %
Test CRC 834C4AD6
Copy CRC 834C4AD6
Track not present in AccurateRip database
Copy OK

Track 13

Filename E:\Electric Dreams (2017) [FLAC]\CD2\13. Blancmange - Living On The Ceiling.wav

Peak level 93.9 %
Extraction speed 3.0 X
Track quality 99.9 %
Test CRC C0D50F01
Copy CRC C0D50F01
Track not present in AccurateRip database
Copy OK

Track 14

Filename E:\Electric Dreams (2017) [FLAC]\CD2\14. Sigue Sigue Sputnik - Love Missile F1-11.wav

Peak level 98.9 %
Extraction speed 4.1 X
Track quality 100.0 %
Test CRC 42506F21
Copy CRC 42506F21
Track not present in AccurateRip database
Copy OK

Track 15

Filename E:\Electric Dreams (2017) [FLAC]\CD2\15. Electronic - Get The Message (7'' Edit).wav

Peak level 87.0 %
Extraction speed 4.3 X
Track quality 100.0 %
Test CRC A66002D8
Copy CRC A66002D8
Track not present in AccurateRip database
Copy OK

Track 16

Filename E:\Electric Dreams (2017) [FLAC]\CD2\16. The Associates - Party Fears Two (Remastered).wav

Peak level 98.9 %
Extraction speed 4.4 X
Track quality 100.0 %
Test CRC E057468C
Copy CRC E057468C
Track not present in AccurateRip database
Copy OK

Track 17

Filename E:\Electric Dreams (2017) [FLAC]\CD2\17. Trans-X - Living On Video (Radio Edit).wav

Peak level 96.0 %
Extraction speed 3.1 X
Track quality 99.9 %
Test CRC 5F623B32
Copy CRC 5F623B32
Track not present in AccurateRip database
Copy OK

Track 18

Filename E:\Electric Dreams (2017) [FLAC]\CD2\18. Japan - Ghosts (Single Version , Remastered 2003).wav

Peak level 98.9 %
Extraction speed 4.5 X
Track quality 100.0 %
Test CRC 40AA36A1
Copy CRC 40AA36A1
Track not present in AccurateRip database
Copy OK

Track 19

Filename E:\Electric Dreams (2017) [FLAC]\CD2\19. Roxy Music - Avalon (Remastered 2012).wav

Peak level 98.9 %
Extraction speed 4.7 X
Track quality 100.0 %
Test CRC CE4F8390
Copy CRC CE4F8390
Track not present in AccurateRip database
Copy OK

Track 20

Filename E:\Electric Dreams (2017) [FLAC]\CD2\20. The Cars - Drive.wav

Peak level 98.9 %
Extraction speed 4.7 X
Track quality 100.0 %
Test CRC 4FFB669E
Copy CRC 4FFB669E
Track not present in AccurateRip database
Copy OK


None of the tracks are present in the AccurateRip database

No errors occurred

End of status report

==== Log checksum 250BFCBDBDB3BC88DBD6198B83B5F6170EE0E672E336DA9A50A294C8F0C0D215 ====

Exact Audio Copy V1.3 from 2. September 2016

EAC extraction logfile from 29. September 2017, 21:29

Various Artists / Electric Dreams

Used drive : TSSTcorpDVDWBD SH-B123L Adapter: 1 ID: 0

Read mode : Secure
Utilize accurate stream : Yes
Defeat audio cache : Yes
Make use of C2 pointers : No

Read offset correction : 6
Overread into Lead-In and Lead-Out : No
Fill up missing offset samples with silence : Yes
Delete leading and trailing silent blocks : No
Null samples used in CRC calculations : Yes
Used interface : Native Win32 interface for Win NT & 2000
Gap handling : Appended to previous track

Used output format : User Defined Encoder
Selected bitrate : 768 kBit/s
Quality : High
Add ID3 tag : No
Command line compressor : C:\Program Files (x86)\Exact Audio Copy\FLAC\FLAC.EXE
Additional command line options : -8 -V -T "ARTIST=%artist%" -T "TITLE=%title%" -T "ALBUM=%albumtitle%" -T "DATE=%year%" -T "TRACKNUMBER=%tracknr%" -T "GENRE=%genre%" -T "COMMENT=%comment%" -T "BAND=%albuminterpret%" -T "ALBUMARTIST=%albuminterpret%" -T "COMPOSER=%composer%" %haslyrics%–tag-from-file=LYRICS="%lyricsfile%"%haslyrics% -T "DISCNUMBER=%cdnumber%" -T "TOTALDISCS=%totalcds%" -T "TOTALTRACKS=%numtracks%" %hascover%–picture="%coverfile%"%hascover% %source% -o %dest%


TOC of the extracted CD

Track | Start | Length | Start sector | End sector
––––––––––––––––––––––––––––-
1 | 0:00.00 | 3:10.45 | 0 | 14294
2 | 3:10.45 | 4:30.48 | 14295 | 34592
3 | 7:41.18 | 3:49.51 | 34593 | 51818
4 | 11:30.69 | 3:37.71 | 51819 | 68164
5 | 15:08.65 | 4:41.67 | 68165 | 89306
6 | 19:50.57 | 4:14.65 | 89307 | 108421
7 | 24:05.47 | 3:27.45 | 108422 | 123991
8 | 27:33.17 | 3:51.31 | 123992 | 141347
9 | 31:24.48 | 3:37.61 | 141348 | 157683
10 | 35:02.34 | 4:38.72 | 157684 | 178605
11 | 39:41.31 | 4:23.46 | 178606 | 198376
12 | 44:05.02 | 3:38.12 | 198377 | 214738
13 | 47:43.14 | 4:19.55 | 214739 | 234218
14 | 52:02.69 | 3:41.40 | 234219 | 250833
15 | 55:44.34 | 2:39.38 | 250834 | 262796
16 | 58:23.72 | 4:28.32 | 262797 | 282928
17 | 62:52.29 | 5:33.15 | 282929 | 307918
18 | 68:25.44 | 3:15.20 | 307919 | 322563
19 | 71:40.64 | 3:30.48 | 322564 | 338361
20 | 75:11.37 | 3:26.07 | 338362 | 353818


Track 1

Filename E:\Electric Dreams (2017) [FLAC]\CD3\01. Donna Summer - I Feel Love.wav

Pre-gap length 0:00:02.00

Peak level 90.5 %
Extraction speed 2.2 X
Track quality 100.0 %
Test CRC EA205F08
Copy CRC EA205F08
Track not present in AccurateRip database
Copy OK

Track 2

Filename E:\Electric Dreams (2017) [FLAC]\CD3\02. Sarah Jane Morris and The Communards - Don't Leave Me This Way.wav

Peak level 94.5 %
Extraction speed 2.5 X
Track quality 100.0 %
Test CRC 2A6E948B
Copy CRC 2A6E948B
Track not present in AccurateRip database
Copy OK

Track 3

Filename E:\Electric Dreams (2017) [FLAC]\CD3\03. Freeez - I.O.U. (7'' Version).wav

Peak level 98.9 %
Extraction speed 2.6 X
Track quality 100.0 %
Test CRC 52235189
Copy CRC 52235189
Track not present in AccurateRip database
Copy OK

Track 4

Filename E:\Electric Dreams (2017) [FLAC]\CD3\04. Nu Shooz - I Can't Wait.wav

Peak level 83.6 %
Extraction speed 2.8 X
Track quality 100.0 %
Test CRC D17A875D
Copy CRC D17A875D
Track not present in AccurateRip database
Copy OK

Track 5

Filename E:\Electric Dreams (2017) [FLAC]\CD3\05. Grace Jones - Pull Up To The Bumper.wav

Peak level 98.9 %
Extraction speed 3.0 X
Track quality 100.0 %
Test CRC C3DBFCFA
Copy CRC C3DBFCFA
Track not present in AccurateRip database
Copy OK

Track 6

Filename E:\Electric Dreams (2017) [FLAC]\CD3\06. Howard Jones - New Song.wav

Peak level 98.9 %
Extraction speed 3.2 X
Track quality 100.0 %
Test CRC E2DE9EE9
Copy CRC E2DE9EE9
Track not present in AccurateRip database
Copy OK

Track 7

Filename E:\Electric Dreams (2017) [FLAC]\CD3\07. Johnny Hates Jazz - Shattered Dreams (Remastered 2008).wav

Peak level 98.9 %
Extraction speed 3.2 X
Track quality 100.0 %
Test CRC D761F1ED
Copy CRC D761F1ED
Track not present in AccurateRip database
Copy OK

Track 8

Filename E:\Electric Dreams (2017) [FLAC]\CD3\08. Alphaville - Big In Japan.wav

Peak level 98.9 %
Extraction speed 2.6 X
Track quality 99.9 %
Test CRC 1C32A803
Copy CRC 1C32A803
Track not present in AccurateRip database
Copy OK

Track 9

Filename E:\Electric Dreams (2017) [FLAC]\CD3\09. China Crisis - Black Man Ray.wav

Peak level 98.9 %
Extraction speed 2.7 X
Track quality 99.9 %
Test CRC 39431EE7
Copy CRC 39431EE7
Track not present in AccurateRip database
Copy OK

Track 10

Filename E:\Electric Dreams (2017) [FLAC]\CD3\10. Ryuichi Sakamoto & David Sylvian - Forbidden Colours.wav

Peak level 98.9 %
Extraction speed 3.8 X
Track quality 100.0 %
Test CRC 1A9814B7
Copy CRC 1A9814B7
Track not present in AccurateRip database
Copy OK

Track 11

Filename E:\Electric Dreams (2017) [FLAC]\CD3\11. Sparks - Beat The Clock.wav

Peak level 97.2 %
Extraction speed 3.0 X
Track quality 99.9 %
Test CRC 97EB556B
Copy CRC 97EB556B
Track not present in AccurateRip database
Copy OK

Track 12

Filename E:\Electric Dreams (2017) [FLAC]\CD3\12. Classix Nouveaux - Is It A Dream.wav

Peak level 98.9 %
Extraction speed 3.9 X
Track quality 100.0 %
Test CRC F2D64289
Copy CRC F2D64289
Track not present in AccurateRip database
Copy OK

Track 13

Filename E:\Electric Dreams (2017) [FLAC]\CD3\13. Propaganda - Dr Mabuse.wav

Peak level 98.9 %
Extraction speed 4.1 X
Track quality 100.0 %
Test CRC C2C74E65
Copy CRC C2C74E65
Track not present in AccurateRip database
Copy OK

Track 14

Filename E:\Electric Dreams (2017) [FLAC]\CD3\14. Thomas Dolby - She Blinded Me With Science.wav

Peak level 98.9 %
Extraction speed 4.1 X
Track quality 100.0 %
Test CRC 0C79B89E
Copy CRC 0C79B89E
Track not present in AccurateRip database
Copy OK

Track 15

Filename E:\Electric Dreams (2017) [FLAC]\CD3\15. Devo - Whip It.wav

Peak level 98.9 %
Extraction speed 4.0 X
Track quality 100.0 %
Test CRC D6052D6A
Copy CRC D6052D6A
Track not present in AccurateRip database
Copy OK

Track 16

Filename E:\Electric Dreams (2017) [FLAC]\CD3\16. Man Parrish - Hip Hop Be Bop (Don’t Stop) (Radio Edit).wav

Peak level 98.9 %
Extraction speed 4.4 X
Track quality 100.0 %
Test CRC F8918C8D
Copy CRC F8918C8D
Track not present in AccurateRip database
Copy OK

Track 17

Filename E:\Electric Dreams (2017) [FLAC]\CD3\17. Hashim - Al-Naafyish (The Soul).wav

Peak level 98.9 %
Extraction speed 4.7 X
Track quality 100.0 %
Test CRC 6F05230E
Copy CRC 6F05230E
Track not present in AccurateRip database
Copy OK

Track 18

Filename E:\Electric Dreams (2017) [FLAC]\CD3\18. Talk Talk - Talk Talk.wav

Peak level 98.9 %
Extraction speed 4.4 X
Track quality 100.0 %
Test CRC 867DE8A4
Copy CRC 867DE8A4
Track not present in AccurateRip database
Copy OK

Track 19

Filename E:\Electric Dreams (2017) [FLAC]\CD3\19. The Cure - The Walk.wav

Peak level 98.9 %
Extraction speed 4.6 X
Track quality 100.0 %
Test CRC 5CE58EAC
Copy CRC 5CE58EAC
Track not present in AccurateRip database
Copy OK

Track 20

Filename E:\Electric Dreams (2017) [FLAC]\CD3\20. Joy Division - Love Will Tear Us Apart.wav

Peak level 98.9 %
Extraction speed 4.6 X
Track quality 100.0 %
Test CRC 18E3172A
Copy CRC 18E3172A
Track not present in AccurateRip database
Copy OK


None of the tracks are present in the AccurateRip database

No errors occurred

End of status report

==== Log checksum 8904DF576C6C8782E92F031C0C9229F96F8405658CCE4E5A51F4DF1B91B9A7B6 ====

Thanks to the Original ripper L4W !