Tags
Language
Tags

VA - Love Album Collection: The 60s Love Album / The 70s Love Album / The 80s Love Album (2017)

Posted By: delpotro
VA - Love Album Collection: The 60s Love Album / The 70s Love Album / The 80s Love Album (2017)

VA - Love Album Collection: The 60s Love Album / The 70s Love Album / The 80s Love Album (2017)
EAC Rip | FLAC (tracks+log+.cue) | Artwork included | 10:14:10 | 3,9 Gb
Pop, Rock, Country, Soul | Label: Crimson, Sony Music

The 60s Love Album features sixty songs of love, dedication and romance across 3CDs, packaged in the cool and eye-catching slim digipack. Featuring Andy Williams, Nina Simone, Johhny Cash, Fleetwood Mac, Tony Bennett and so many more great hits of the 60s. The 70s Love Album features sixty songs of love, dedication and romance across 3CDs, packaged in the cool and eye-catching slim digipack. Featuring Dionne Warwick, Bill Withers, Dolly Parton, Barry Manilow, Eric Carmen and so many more huge hits of the 70s. The 80s Love Album features sixty songs of love, dedication and romance across 3CDs, packaged in the cool and eye-catching slim digipack. Featuring Marvin Gaye, Gloria Estefan, Cyndi Lauper, Journey, The Bangles, Michael Bolton and so many more huge hits of the 80s.
VA - The 60s Love Album (2017)

VA - Love Album Collection: The 60s Love Album / The 70s Love Album / The 80s Love Album (2017)

VA - The 60s Love Album (2017)
EAC Rip | FLAC (tracks+log+.cue) | Artwork included | 02:51:39 | 1 Gb
Pop, Rock, Country, Soul | Label: Crimson, Sony Music

Tracklist:
Disc 1
1. Andy Williams – Can't Take My Eyes Off You
2. Mel Tormé – I've Got You Under My Skin
3. Bobby Vinton – Blue Velvet
4. Johnny Mathis – Misty
5. Tony Bennett – I Left My Heart In San Francisco
6. Bobby Darin – If I Were A Carpenter
7. Tony Orlando – Bless You
8. Doris Day – Move Over Darling
9. Peggy March & Sammy Lowe And His Orchestra – I Will Follow Him
10. Merrilee & The Turnabouts – Angel Of The Morning
11. Melanie – Beautiful People
12. The Isley Brothers – It's Your Thing
13. The Cavaliers – Hold On To My Baby
14. The Delfonics – Didn't I (Blow Your Mind This Time)
15. Erma Franklin – Piece Of My Heart
16. Aretha Franklin – The Shoop Shoop Song
17. Nina Simone – To Love Somebody
18. Laura Greene – Moonlight Music And You
19. Sly & The Family Stone – Everyday People
20. Honey Cone – Girls It Ain't Easy

Disc 2
1. Johnny Cash – It Ain't Me Babe
2. Kris Kristofferson – Sunday Morning Comin' Down
3. Jim Reeves – He'll Have To Go
4. Marty Robbins – Devil Woman
5. Skeeter Davis – The End Of The World
6. Tammy Wynette – Stand By Your Man
7. The Statler Brothers – Flowers On The Wall
8. Neil Sedaka – Breaking Up Is Hard To Do
9. Ruth Copeland – A Gift Of Me
10. Paul Anka – Love Me Warm And Tender
11. Johnny Nash – Cupid
12. Lou Christie – I'm Gonna Make You Mine
13. The McCoys – Hang On Sloopy
14. Barbara Lynn – I'm A Good Woman
15. Dion – Donna The Prima Donna
16. Clodagh Rodgers – Come Back And Shake Me
17. Gary Puckett & The Union Gap – Young Girl
18. Harry Nilsson – Everybody's Talkin'
19. Ramsey Lewis – The 'In' Crowd
20. Henry Mancini And His Orchestra And Chorus – Moon River

Disc 3
1. Big Brother & The Holding Company & Janis Joplin – Summertime
2. Fleetwood Mac – Black Magic Woman
3. José Feliciano – Light My Fire
4. The Byrds – All I Really Want To Do
5. Scott McKenzie – San Francisco (Be Sure To Wear Flowers In Your Hair)
6. The Yardbirds – He's Always There
7. The Creation – If I Stay Too Long
8. End – Hey Little Girl
9. Box Tops – I Shall Be Released
10. Chicken Shack – I'd Rather Go Blind
11. The Fifth Dimension – Aquarius / Let The Sunshine In
12. The Lovin' Spoonful – Do You Believe In Magic
13. Blood, Sweat And Tears – You've Made Me So Very Happy
14. Reparata And The Delrons – Captain Of Your Ship
15. Paul Revere & The Raiders – I'm Not Your Stepping Stone
16. Billy Joe Royal – Hush
17. Crazy Elephant – Gimme Gimme Good Lovin'
18. The Guess Who – Shakin' All Over
19. Sir Douglas Quintet – She's About A Mover
20. The Youngbloods – Get Together

Exact Audio Copy V1.3 from 2. September 2016

EAC extraction logfile from 23. March 2019, 2:16

Various / The 60s Love Album - CD1

Used drive : ASUS DRW-24D5MT Adapter: 1 ID: 0

Read mode : Secure
Utilize accurate stream : Yes
Defeat audio cache : Yes
Make use of C2 pointers : No

Read offset correction : 6
Overread into Lead-In and Lead-Out : No
Fill up missing offset samples with silence : Yes
Delete leading and trailing silent blocks : No
Null samples used in CRC calculations : Yes
Used interface : Native Win32 interface for Win NT & 2000
Gap handling : Appended to previous track

Used output format : User Defined Encoder
Selected bitrate : 896 kBit/s
Quality : High
Add ID3 tag : No
Command line compressor : C:\Program Files (x86)\Exact Audio Copy\FLAC\FLAC.EXE
Additional command line options : -8 -V -T "ARTIST=%artist%" -T "TITLE=%title%" -T "ALBUM=%albumtitle%" -T "DATE=%year%" -T "TRACKNUMBER=%tracknr%" -T "GENRE=%genre%" -T "COMMENT=%comment%" -T "BAND=%albuminterpret%" -T "ALBUMARTIST=%albuminterpret%" -T "COMPOSER=%composer%" %haslyrics%–tag-from-file=LYRICS="%lyricsfile%"%haslyrics% -T "DISCNUMBER=%cdnumber%" -T "TOTALDISCS=%totalcds%" -T "TOTALTRACKS=%numtracks%" %hascover%–picture="%coverfile%"%hascover% %source% -o %dest%


TOC of the extracted CD

Track | Start | Length | Start sector | End sector
––––––––––––––––––––––––––––-
1 | 0:00.00 | 3:13.67 | 0 | 14541
2 | 3:13.67 | 2:54.47 | 14542 | 27638
3 | 6:08.39 | 2:50.11 | 27639 | 40399
4 | 8:58.50 | 3:35.36 | 40400 | 56560
5 | 12:34.11 | 2:52.52 | 56561 | 69512
6 | 15:26.63 | 2:21.46 | 69513 | 80133
7 | 17:48.34 | 2:07.70 | 80134 | 89728
8 | 19:56.29 | 2:35.44 | 89729 | 101397
9 | 22:31.73 | 2:28.18 | 101398 | 112515
10 | 25:00.16 | 3:10.36 | 112516 | 126801
11 | 28:10.52 | 3:36.43 | 126802 | 143044
12 | 31:47.20 | 2:46.67 | 143045 | 155561
13 | 34:34.12 | 2:32.25 | 155562 | 166986
14 | 37:06.37 | 3:23.20 | 166987 | 182231
15 | 40:29.57 | 2:36.64 | 182232 | 193995
16 | 43:06.46 | 2:23.33 | 193996 | 204753
17 | 45:30.04 | 2:40.15 | 204754 | 216768
18 | 48:10.19 | 2:31.64 | 216769 | 228157
19 | 50:42.08 | 2:22.12 | 228158 | 238819
20 | 53:04.20 | 3:11.73 | 238820 | 253217


Track 1

Filename E:\Lossless\VA\+VA - The 60s 70s 80s Love Album\VA - The 60s Love Album (2017, CRIMCD590, UK, CD)\CD1\01 Andy Williams - Can't Take My Eyes Off You.wav

Pre-gap length 0:00:02.00

Peak level 94.3 %
Extraction speed 4.0 X
Track quality 99.9 %
Test CRC BC581ECC
Copy CRC BC581ECC
Accurately ripped (confidence 3) [F164BDB0] (AR v2)
Copy OK

Track 2

Filename E:\Lossless\VA\+VA - The 60s 70s 80s Love Album\VA - The 60s Love Album (2017, CRIMCD590, UK, CD)\CD1\02 Mel Torme - I've Got You Under My Skin.wav

Peak level 94.4 %
Extraction speed 4.1 X
Track quality 99.9 %
Test CRC DDDC2E40
Copy CRC DDDC2E40
Accurately ripped (confidence 3) [331A2D85] (AR v2)
Copy OK

Track 3

Filename E:\Lossless\VA\+VA - The 60s 70s 80s Love Album\VA - The 60s Love Album (2017, CRIMCD590, UK, CD)\CD1\03 Bobby Vinton - Blue Velvet.wav

Peak level 85.1 %
Extraction speed 5.1 X
Track quality 100.0 %
Test CRC 1769104D
Copy CRC 1769104D
Accurately ripped (confidence 3) [269359A6] (AR v2)
Copy OK

Track 4

Filename E:\Lossless\VA\+VA - The 60s 70s 80s Love Album\VA - The 60s Love Album (2017, CRIMCD590, UK, CD)\CD1\04 Johnny Mathis - Misty.wav

Peak level 90.9 %
Extraction speed 4.9 X
Track quality 99.9 %
Test CRC CFCC7C0C
Copy CRC CFCC7C0C
Accurately ripped (confidence 3) [81B48FBF] (AR v2)
Copy OK

Track 5

Filename E:\Lossless\VA\+VA - The 60s 70s 80s Love Album\VA - The 60s Love Album (2017, CRIMCD590, UK, CD)\CD1\05 Tony Bennett - I Left My Heart In San Francisco.wav

Peak level 94.4 %
Extraction speed 5.7 X
Track quality 100.0 %
Test CRC 8AE8FB23
Copy CRC 8AE8FB23
Accurately ripped (confidence 3) [494F6A37] (AR v2)
Copy OK

Track 6

Filename E:\Lossless\VA\+VA - The 60s 70s 80s Love Album\VA - The 60s Love Album (2017, CRIMCD590, UK, CD)\CD1\06 Bobby Darin - If I Were A Carpenter.wav

Peak level 94.4 %
Extraction speed 5.6 X
Track quality 100.0 %
Test CRC FED9ECD9
Copy CRC FED9ECD9
Accurately ripped (confidence 3) [CC9282C6] (AR v2)
Copy OK

Track 7

Filename E:\Lossless\VA\+VA - The 60s 70s 80s Love Album\VA - The 60s Love Album (2017, CRIMCD590, UK, CD)\CD1\07 Tony Orlando - Bless You.wav

Peak level 94.4 %
Extraction speed 5.7 X
Track quality 100.0 %
Test CRC 2E0F0FDD
Copy CRC 2E0F0FDD
Accurately ripped (confidence 3) [ABE6334F] (AR v2)
Copy OK

Track 8

Filename E:\Lossless\VA\+VA - The 60s 70s 80s Love Album\VA - The 60s Love Album (2017, CRIMCD590, UK, CD)\CD1\08 Doris Day - Move Over Darling.wav

Peak level 91.2 %
Extraction speed 6.1 X
Track quality 100.0 %
Test CRC F26C56BA
Copy CRC F26C56BA
Accurately ripped (confidence 3) [F554DB0E] (AR v2)
Copy OK

Track 9

Filename E:\Lossless\VA\+VA - The 60s 70s 80s Love Album\VA - The 60s Love Album (2017, CRIMCD590, UK, CD)\CD1\09 Peggy March With Sammy Lowe And His Orchestra - I Will Follow Him.wav

Peak level 94.4 %
Extraction speed 6.1 X
Track quality 100.0 %
Test CRC D376A8F0
Copy CRC D376A8F0
Accurately ripped (confidence 3) [E3F00B19] (AR v2)
Copy OK

Track 10

Filename E:\Lossless\VA\+VA - The 60s 70s 80s Love Album\VA - The 60s Love Album (2017, CRIMCD590, UK, CD)\CD1\10 Merrilee Rush & The Turnabouts - Angel Of The Morning.wav

Peak level 94.4 %
Extraction speed 6.7 X
Track quality 100.0 %
Test CRC F491084F
Copy CRC F491084F
Accurately ripped (confidence 3) [5ED60960] (AR v2)
Copy OK

Track 11

Filename E:\Lossless\VA\+VA - The 60s 70s 80s Love Album\VA - The 60s Love Album (2017, CRIMCD590, UK, CD)\CD1\11 Melanie - Beautiful People.wav

Peak level 96.6 %
Extraction speed 7.0 X
Track quality 100.0 %
Test CRC 89A30079
Copy CRC 89A30079
Accurately ripped (confidence 3) [A1421AE9] (AR v2)
Copy OK

Track 12

Filename E:\Lossless\VA\+VA - The 60s 70s 80s Love Album\VA - The 60s Love Album (2017, CRIMCD590, UK, CD)\CD1\12 The Isley Brothers - It's Your Thing.wav

Peak level 85.1 %
Extraction speed 6.9 X
Track quality 100.0 %
Test CRC 314FD103
Copy CRC 314FD103
Accurately ripped (confidence 3) [0F3C4478] (AR v2)
Copy OK

Track 13

Filename E:\Lossless\VA\+VA - The 60s 70s 80s Love Album\VA - The 60s Love Album (2017, CRIMCD590, UK, CD)\CD1\13 The Cavaliers - Hold On To My Baby.wav

Peak level 78.5 %
Extraction speed 7.0 X
Track quality 100.0 %
Test CRC 6D59D20A
Copy CRC 6D59D20A
Accurately ripped (confidence 3) [B94C08A2] (AR v2)
Copy OK

Track 14

Filename E:\Lossless\VA\+VA - The 60s 70s 80s Love Album\VA - The 60s Love Album (2017, CRIMCD590, UK, CD)\CD1\14 The Delfonics - Didn't I [Blow Your Mind This Time].wav

Peak level 94.4 %
Extraction speed 7.5 X
Track quality 100.0 %
Test CRC FCC78CC6
Copy CRC FCC78CC6
Accurately ripped (confidence 3) [6183A5D4] (AR v2)
Copy OK

Track 15

Filename E:\Lossless\VA\+VA - The 60s 70s 80s Love Album\VA - The 60s Love Album (2017, CRIMCD590, UK, CD)\CD1\15 Erma Franklin - Piece Of My Heart.wav

Peak level 94.4 %
Extraction speed 7.3 X
Track quality 100.0 %
Test CRC D2C427F1
Copy CRC D2C427F1
Accurately ripped (confidence 3) [4714EE0F] (AR v2)
Copy OK

Track 16

Filename E:\Lossless\VA\+VA - The 60s 70s 80s Love Album\VA - The 60s Love Album (2017, CRIMCD590, UK, CD)\CD1\16 Aretha Franklin - The Shoop Shoop Song.wav

Peak level 94.4 %
Extraction speed 6.2 X
Track quality 99.9 %
Test CRC 8CFA4BD7
Copy CRC 8CFA4BD7
Accurately ripped (confidence 3) [8CFDC89F] (AR v2)
Copy OK

Track 17

Filename E:\Lossless\VA\+VA - The 60s 70s 80s Love Album\VA - The 60s Love Album (2017, CRIMCD590, UK, CD)\CD1\17 Nina Simone - To Love Somebody.wav

Peak level 94.4 %
Extraction speed 7.6 X
Track quality 100.0 %
Test CRC AD77B137
Copy CRC AD77B137
Accurately ripped (confidence 3) [26340FB1] (AR v2)
Copy OK

Track 18

Filename E:\Lossless\VA\+VA - The 60s 70s 80s Love Album\VA - The 60s Love Album (2017, CRIMCD590, UK, CD)\CD1\18 Laura Greene - Moonlight Music And You.wav

Peak level 91.2 %
Extraction speed 7.7 X
Track quality 100.0 %
Test CRC 89A1D03B
Copy CRC 89A1D03B
Accurately ripped (confidence 3) [BB7A017C] (AR v2)
Copy OK

Track 19

Filename E:\Lossless\VA\+VA - The 60s 70s 80s Love Album\VA - The 60s Love Album (2017, CRIMCD590, UK, CD)\CD1\19 Sly & The Family Stone - Everyday People.wav

Peak level 94.4 %
Extraction speed 7.7 X
Track quality 100.0 %
Test CRC B59CBC46
Copy CRC B59CBC46
Accurately ripped (confidence 3) [E39985B0] (AR v2)
Copy OK

Track 20

Filename E:\Lossless\VA\+VA - The 60s 70s 80s Love Album\VA - The 60s Love Album (2017, CRIMCD590, UK, CD)\CD1\20 The Honeycone Girls - It Ain't Easy.wav

Peak level 84.1 %
Extraction speed 8.3 X
Track quality 100.0 %
Test CRC C87DA213
Copy CRC C87DA213
Accurately ripped (confidence 3) [9F3CFFD3] (AR v2)
Copy OK


All tracks accurately ripped

No errors occurred

End of status report

–– AcoustID Plugin V1.2.0

Total fingerprints: 20


–– CUETools DB Plugin V2.1.6

[CTDB TOCID: Hvmzt4YOXsgiOW5C_La.FgYgWKA-] found
Submit result: Hvmzt4YOXsgiOW5C_La.FgYgWKA- has been confirmed
Track | CTDB Status
1 | (3/3) Accurately ripped
2 | (3/3) Accurately ripped
3 | (3/3) Accurately ripped
4 | (3/3) Accurately ripped
5 | (3/3) Accurately ripped
6 | (3/3) Accurately ripped
7 | (3/3) Accurately ripped
8 | (3/3) Accurately ripped
9 | (3/3) Accurately ripped
10 | (3/3) Accurately ripped
11 | (3/3) Accurately ripped
12 | (3/3) Accurately ripped
13 | (3/3) Accurately ripped
14 | (3/3) Accurately ripped
15 | (3/3) Accurately ripped
16 | (3/3) Accurately ripped
17 | (3/3) Accurately ripped
18 | (3/3) Accurately ripped
19 | (3/3) Accurately ripped
20 | (3/3) Accurately ripped


==== Log checksum E57FBEA665CB5D8A893D41BC951D0FCB35C13CB68DB796B0DBF1712D7A158D15 ====

Exact Audio Copy V1.0 beta 6 from 9. April 2015

EAC extraction logfile from 23. March 2019, 2:16

Various / The 60s Love Album - CD2

Used drive : TSSTcorpCD/DVDW SH-S182D Adapter: 1 ID: 1

Read mode : Secure
Utilize accurate stream : Yes
Defeat audio cache : Yes
Make use of C2 pointers : No

Read offset correction : 6
Overread into Lead-In and Lead-Out : No
Fill up missing offset samples with silence : Yes
Delete leading and trailing silent blocks : No
Null samples used in CRC calculations : Yes
Used interface : Native Win32 interface for Win NT & 2000
Gap handling : Appended to previous track

Used output format : User Defined Encoder
Selected bitrate : 896 kBit/s
Quality : High
Add ID3 tag : No
Command line compressor : C:\Program Files (x86)\Exact Audio Copy\FLAC\FLAC.EXE
Additional command line options : -8 -V -T "ARTIST=%artist%" -T "TITLE=%title%" -T "ALBUM=%albumtitle%" -T "DATE=%year%" -T "TRACKNUMBER=%tracknr%" -T "GENRE=%genre%" -T "COMMENT=%comment%" -T "BAND=%albuminterpret%" -T "ALBUMARTIST=%albuminterpret%" -T "COMPOSER=%composer%" %haslyrics%–tag-from-file=LYRICS="%lyricsfile%"%haslyrics% -T "DISCNUMBER=%cdnumber%" -T "TOTALDISCS=%totalcds%" -T "TOTALTRACKS=%numtracks%" %hascover%–picture="%coverfile%"%hascover% %source% -o %dest%


TOC of the extracted CD

Track | Start | Length | Start sector | End sector
––––––––––––––––––––––––––––-
1 | 0:00.00 | 3:03.50 | 0 | 13774
2 | 3:03.50 | 4:32.22 | 13775 | 34196
3 | 7:35.72 | 2:21.35 | 34197 | 44806
4 | 9:57.32 | 2:52.17 | 44807 | 57723
5 | 12:49.49 | 2:38.31 | 57724 | 69604
6 | 15:28.05 | 2:41.28 | 69605 | 81707
7 | 18:09.33 | 2:21.27 | 81708 | 92309
8 | 20:30.60 | 2:18.51 | 92310 | 102710
9 | 22:49.36 | 2:56.03 | 102711 | 115913
10 | 25:45.39 | 2:18.50 | 115914 | 126313
11 | 28:04.14 | 3:27.05 | 126314 | 141843
12 | 31:31.19 | 2:42.20 | 141844 | 154013
13 | 34:13.39 | 3:02.02 | 154014 | 167665
14 | 37:15.41 | 2:23.04 | 167666 | 178394
15 | 39:38.45 | 2:54.14 | 178395 | 191458
16 | 42:32.59 | 2:36.72 | 191459 | 203230
17 | 45:09.56 | 3:12.74 | 203231 | 217704
18 | 48:22.55 | 2:50.66 | 217705 | 230520
19 | 51:13.46 | 2:37.60 | 230521 | 242355
20 | 53:51.31 | 2:40.24 | 242356 | 254379


Track 1

Filename E:\Lossless\VA\+VA - The 60s 70s 80s Love Album\VA - The 60s Love Album (2017, CRIMCD590, UK, CD)\CD2\01 Трек01.wav

Pre-gap length 0:00:02.00

Peak level 100.0 %
Extraction speed 4.5 X
Track quality 100.0 %
Test CRC F38CB021
Copy CRC F38CB021
Track not present in AccurateRip database
Copy OK

Track 2

Filename E:\Lossless\VA\+VA - The 60s 70s 80s Love Album\VA - The 60s Love Album (2017, CRIMCD590, UK, CD)\CD2\02 Трек02.wav

Peak level 94.4 %
Extraction speed 5.2 X
Track quality 100.0 %
Test CRC A7AF8BDE
Copy CRC A7AF8BDE
Track not present in AccurateRip database
Copy OK

Track 3

Filename E:\Lossless\VA\+VA - The 60s 70s 80s Love Album\VA - The 60s Love Album (2017, CRIMCD590, UK, CD)\CD2\03 Трек03.wav

Peak level 94.6 %
Extraction speed 4.9 X
Track quality 100.0 %
Test CRC AB0F6191
Copy CRC AB0F6191
Track not present in AccurateRip database
Copy OK

Track 4

Filename E:\Lossless\VA\+VA - The 60s 70s 80s Love Album\VA - The 60s Love Album (2017, CRIMCD590, UK, CD)\CD2\04 Трек04.wav

Peak level 94.4 %
Extraction speed 5.4 X
Track quality 100.0 %
Test CRC B907F40B
Copy CRC B907F40B
Track not present in AccurateRip database
Copy OK

Track 5

Filename E:\Lossless\VA\+VA - The 60s 70s 80s Love Album\VA - The 60s Love Album (2017, CRIMCD590, UK, CD)\CD2\05 Трек05.wav

Peak level 91.2 %
Extraction speed 5.5 X
Track quality 100.0 %
Test CRC 924A940F
Copy CRC 924A940F
Track not present in AccurateRip database
Copy OK

Track 6

Filename E:\Lossless\VA\+VA - The 60s 70s 80s Love Album\VA - The 60s Love Album (2017, CRIMCD590, UK, CD)\CD2\06 Трек06.wav

Peak level 91.2 %
Extraction speed 5.7 X
Track quality 100.0 %
Test CRC 1CF06930
Copy CRC 1CF06930
Track not present in AccurateRip database
Copy OK

Track 7

Filename E:\Lossless\VA\+VA - The 60s 70s 80s Love Album\VA - The 60s Love Album (2017, CRIMCD590, UK, CD)\CD2\07 Трек07.wav

Peak level 100.0 %
Extraction speed 5.7 X
Track quality 100.0 %
Test CRC FE7FD2B2
Copy CRC FE7FD2B2
Track not present in AccurateRip database
Copy OK

Track 8

Filename E:\Lossless\VA\+VA - The 60s 70s 80s Love Album\VA - The 60s Love Album (2017, CRIMCD590, UK, CD)\CD2\08 Трек08.wav

Peak level 75.9 %
Extraction speed 5.9 X
Track quality 100.0 %
Test CRC A5160945
Copy CRC A5160945
Track not present in AccurateRip database
Copy OK

Track 9

Filename E:\Lossless\VA\+VA - The 60s 70s 80s Love Album\VA - The 60s Love Album (2017, CRIMCD590, UK, CD)\CD2\09 Трек09.wav

Peak level 94.4 %
Extraction speed 6.4 X
Track quality 100.0 %
Test CRC 06907F66
Copy CRC 06907F66
Track not present in AccurateRip database
Copy OK

Track 10

Filename E:\Lossless\VA\+VA - The 60s 70s 80s Love Album\VA - The 60s Love Album (2017, CRIMCD590, UK, CD)\CD2\10 Трек10.wav

Peak level 94.4 %
Extraction speed 6.3 X
Track quality 100.0 %
Test CRC E0F1E3B7
Copy CRC E0F1E3B7
Track not present in AccurateRip database
Copy OK

Track 11

Filename E:\Lossless\VA\+VA - The 60s 70s 80s Love Album\VA - The 60s Love Album (2017, CRIMCD590, UK, CD)\CD2\11 Трек11.wav

Peak level 94.4 %
Extraction speed 6.9 X
Track quality 100.0 %
Test CRC 7E24804A
Copy CRC 7E24804A
Track not present in AccurateRip database
Copy OK

Track 12

Filename E:\Lossless\VA\+VA - The 60s 70s 80s Love Album\VA - The 60s Love Album (2017, CRIMCD590, UK, CD)\CD2\12 Трек12.wav

Peak level 88.4 %
Extraction speed 6.9 X
Track quality 100.0 %
Test CRC 8749E729
Copy CRC 8749E729
Track not present in AccurateRip database
Copy OK

Track 13

Filename E:\Lossless\VA\+VA - The 60s 70s 80s Love Album\VA - The 60s Love Album (2017, CRIMCD590, UK, CD)\CD2\13 Трек13.wav

Peak level 92.9 %
Extraction speed 7.1 X
Track quality 100.0 %
Test CRC 728BA2C0
Copy CRC 728BA2C0
Track not present in AccurateRip database
Copy OK

Track 14

Filename E:\Lossless\VA\+VA - The 60s 70s 80s Love Album\VA - The 60s Love Album (2017, CRIMCD590, UK, CD)\CD2\14 Трек14.wav

Peak level 89.1 %
Extraction speed 5.8 X
Track quality 99.9 %
Test CRC 08A59915
Copy CRC 08A59915
Track not present in AccurateRip database
Copy OK

Track 15

Filename E:\Lossless\VA\+VA - The 60s 70s 80s Love Album\VA - The 60s Love Album (2017, CRIMCD590, UK, CD)\CD2\15 Трек15.wav

Peak level 94.4 %
Extraction speed 7.3 X
Track quality 100.0 %
Test CRC 8A96A292
Copy CRC 8A96A292
Track not present in AccurateRip database
Copy OK

Track 16

Filename E:\Lossless\VA\+VA - The 60s 70s 80s Love Album\VA - The 60s Love Album (2017, CRIMCD590, UK, CD)\CD2\16 Трек16.wav

Peak level 91.8 %
Extraction speed 7.3 X
Track quality 100.0 %
Test CRC 9C7AD906
Copy CRC 9C7AD906
Track not present in AccurateRip database
Copy OK

Track 17

Filename E:\Lossless\VA\+VA - The 60s 70s 80s Love Album\VA - The 60s Love Album (2017, CRIMCD590, UK, CD)\CD2\17 Трек17.wav

Peak level 94.3 %
Extraction speed 7.8 X
Track quality 100.0 %
Test CRC E147EF61
Copy CRC E147EF61
Track not present in AccurateRip database
Copy OK

Track 18

Filename E:\Lossless\VA\+VA - The 60s 70s 80s Love Album\VA - The 60s Love Album (2017, CRIMCD590, UK, CD)\CD2\18 Трек18.wav

Peak level 85.1 %
Extraction speed 7.9 X
Track quality 100.0 %
Test CRC B73B2B83
Copy CRC B73B2B83
Track not present in AccurateRip database
Copy OK

Track 19

Filename E:\Lossless\VA\+VA - The 60s 70s 80s Love Album\VA - The 60s Love Album (2017, CRIMCD590, UK, CD)\CD2\19 Трек19.wav

Peak level 85.1 %
Extraction speed 7.9 X
Track quality 100.0 %
Test CRC 7749C337
Copy CRC 7749C337
Track not present in AccurateRip database
Copy OK

Track 20

Filename E:\Lossless\VA\+VA - The 60s 70s 80s Love Album\VA - The 60s Love Album (2017, CRIMCD590, UK, CD)\CD2\20 Трек20.wav

Peak level 94.4 %
Extraction speed 6.7 X
Track quality 99.9 %
Test CRC 875E1F3D
Copy CRC 875E1F3D
Track not present in AccurateRip database
Copy OK


None of the tracks are present in the AccurateRip database

No errors occurred

End of status report

–– CUETools DB Plugin V2.1.6

[CTDB TOCID: vkWjAMtrybsIuZYwDphlRw3DyuA-] disk not present in database
Submit result: vkWjAMtrybsIuZYwDphlRw3DyuA- has been uploaded


==== Log checksum 6788151D2B45662BFB6623D8E5260C80D54F862F36C8C57AA1EF4251AFC3950E ====

Exact Audio Copy V1.3 from 2. September 2016

EAC extraction logfile from 23. March 2019, 9:27

Various / The 60s Love Album - CD3

Used drive : ASUS DRW-24D5MT Adapter: 1 ID: 0

Read mode : Secure
Utilize accurate stream : Yes
Defeat audio cache : Yes
Make use of C2 pointers : No

Read offset correction : 6
Overread into Lead-In and Lead-Out : No
Fill up missing offset samples with silence : Yes
Delete leading and trailing silent blocks : No
Null samples used in CRC calculations : Yes
Used interface : Native Win32 interface for Win NT & 2000
Gap handling : Appended to previous track

Used output format : User Defined Encoder
Selected bitrate : 896 kBit/s
Quality : High
Add ID3 tag : No
Command line compressor : C:\Program Files (x86)\Exact Audio Copy\FLAC\FLAC.EXE
Additional command line options : -8 -V -T "ARTIST=%artist%" -T "TITLE=%title%" -T "ALBUM=%albumtitle%" -T "DATE=%year%" -T "TRACKNUMBER=%tracknr%" -T "GENRE=%genre%" -T "COMMENT=%comment%" -T "BAND=%albuminterpret%" -T "ALBUMARTIST=%albuminterpret%" -T "COMPOSER=%composer%" %haslyrics%–tag-from-file=LYRICS="%lyricsfile%"%haslyrics% -T "DISCNUMBER=%cdnumber%" -T "TOTALDISCS=%totalcds%" -T "TOTALTRACKS=%numtracks%" %hascover%–picture="%coverfile%"%hascover% %source% -o %dest%


TOC of the extracted CD

Track | Start | Length | Start sector | End sector
––––––––––––––––––––––––––––-
1 | 0:00.00 | 3:58.57 | 0 | 17906
2 | 3:58.57 | 2:48.23 | 17907 | 30529
3 | 6:47.05 | 3:37.44 | 30530 | 46848
4 | 10:24.49 | 2:05.61 | 46849 | 56284
5 | 12:30.35 | 2:59.42 | 56285 | 69751
6 | 15:30.02 | 2:29.64 | 69752 | 80990
7 | 17:59.66 | 3:23.07 | 80991 | 96222
8 | 21:22.73 | 2:24.25 | 96223 | 107047
9 | 23:47.23 | 2:48.51 | 107048 | 119698
10 | 26:35.74 | 3:15.61 | 119699 | 134384
11 | 29:51.60 | 3:54.14 | 134385 | 151948
12 | 33:45.74 | 2:06.44 | 151949 | 161442
13 | 35:52.43 | 3:31.26 | 161443 | 177293
14 | 39:23.69 | 2:27.49 | 177294 | 188367
15 | 41:51.43 | 2:48.42 | 188368 | 201009
16 | 44:40.10 | 2:30.36 | 201010 | 212295
17 | 47:10.46 | 2:01.71 | 212296 | 221441
18 | 49:12.42 | 2:41.19 | 221442 | 233535
19 | 51:53.61 | 2:21.34 | 233536 | 244144
20 | 54:15.20 | 4:35.56 | 244145 | 264825


Track 1

Filename E:\Lossless\VA\+VA - The 60s 70s 80s Love Album\VA - The 60s Love Album (2017, CRIMCD590, UK, CD)\CD3\01 Big Brother & The Holding Company With Janis Joplin - Summertime.wav

Pre-gap length 0:00:02.00

Peak level 94.3 %
Extraction speed 4.8 X
Track quality 100.0 %
Test CRC F63CCAF0
Copy CRC F63CCAF0
Accurately ripped (confidence 2) [E7378CD5] (AR v2)
Copy OK

Track 2

Filename E:\Lossless\VA\+VA - The 60s 70s 80s Love Album\VA - The 60s Love Album (2017, CRIMCD590, UK, CD)\CD3\02 Fleetwood Mac - Black Magic Woman.wav

Peak level 92.2 %
Extraction speed 4.1 X
Track quality 99.9 %
Test CRC A17972F4
Copy CRC A17972F4
Accurately ripped (confidence 2) [018D3C8C] (AR v2)
Copy OK

Track 3

Filename E:\Lossless\VA\+VA - The 60s 70s 80s Love Album\VA - The 60s Love Album (2017, CRIMCD590, UK, CD)\CD3\03 Jose Feliciano - Light My Fire.wav

Peak level 85.1 %
Extraction speed 5.3 X
Track quality 100.0 %
Test CRC 0D52916F
Copy CRC 0D52916F
Accurately ripped (confidence 2) [AB5721D9] (AR v2)
Copy OK

Track 4

Filename E:\Lossless\VA\+VA - The 60s 70s 80s Love Album\VA - The 60s Love Album (2017, CRIMCD590, UK, CD)\CD3\04 The Byrds - All I Really Want To Do.wav

Peak level 74.1 %
Extraction speed 4.2 X
Track quality 99.9 %
Test CRC 7D2CC03A
Copy CRC 7D2CC03A
Accurately ripped (confidence 2) [D6680A2A] (AR v2)
Copy OK

Track 5

Filename E:\Lossless\VA\+VA - The 60s 70s 80s Love Album\VA - The 60s Love Album (2017, CRIMCD590, UK, CD)\CD3\05 Scott McKenzie - San Francisco [Be Sure To Wear Flowers In Your Hair].wav

Peak level 94.4 %
Extraction speed 5.7 X
Track quality 100.0 %
Test CRC E60C8443
Copy CRC E60C8443
Accurately ripped (confidence 2) [6857D55D] (AR v2)
Copy OK

Track 6

Filename E:\Lossless\VA\+VA - The 60s 70s 80s Love Album\VA - The 60s Love Album (2017, CRIMCD590, UK, CD)\CD3\06 The Yardbirds - He's Always There.wav

Peak level 94.4 %
Extraction speed 5.7 X
Track quality 100.0 %
Test CRC F506D8C4
Copy CRC F506D8C4
Accurately ripped (confidence 2) [A3723394] (AR v2)
Copy OK

Track 7

Filename E:\Lossless\VA\+VA - The 60s 70s 80s Love Album\VA - The 60s Love Album (2017, CRIMCD590, UK, CD)\CD3\07 The Creation - If I Stay Too Long.wav

Peak level 100.0 %
Extraction speed 6.2 X
Track quality 100.0 %
Test CRC 1FB230C6
Copy CRC 1FB230C6
Accurately ripped (confidence 2) [A3A0C267] (AR v2)
Copy OK

Track 8

Filename E:\Lossless\VA\+VA - The 60s 70s 80s Love Album\VA - The 60s Love Album (2017, CRIMCD590, UK, CD)\CD3\08 The End - Hey Little Girl.wav

Peak level 84.1 %
Extraction speed 6.1 X
Track quality 100.0 %
Test CRC 97291B6E
Copy CRC 97291B6E
Accurately ripped (confidence 2) [87FD12C4] (AR v2)
Copy OK

Track 9

Filename E:\Lossless\VA\+VA - The 60s 70s 80s Love Album\VA - The 60s Love Album (2017, CRIMCD590, UK, CD)\CD3\09 The Box Tops - I Shall Be Released.wav

Peak level 94.4 %
Extraction speed 6.3 X
Track quality 100.0 %
Test CRC 025F8AD3
Copy CRC 025F8AD3
Accurately ripped (confidence 2) [8686A110] (AR v2)
Copy OK

Track 10

Filename E:\Lossless\VA\+VA - The 60s 70s 80s Love Album\VA - The 60s Love Album (2017, CRIMCD590, UK, CD)\CD3\10 Chicken Shack - I'd Rather Go Blind.wav

Peak level 80.4 %
Extraction speed 6.8 X
Track quality 100.0 %
Test CRC 0403CA57
Copy CRC 0403CA57
Accurately ripped (confidence 2) [4773AA11] (AR v2)
Copy OK

Track 11

Filename E:\Lossless\VA\+VA - The 60s 70s 80s Love Album\VA - The 60s Love Album (2017, CRIMCD590, UK, CD)\CD3\11 The Fifth Dimension - Aquarius [Let The Sunshine In].wav

Peak level 70.8 %
Extraction speed 7.2 X
Track quality 100.0 %
Test CRC 2DCD2834
Copy CRC 2DCD2834
Accurately ripped (confidence 2) [C838B4D7] (AR v2)
Copy OK

Track 12

Filename E:\Lossless\VA\+VA - The 60s 70s 80s Love Album\VA - The 60s Love Album (2017, CRIMCD590, UK, CD)\CD3\12 The Lovin' Spoonful - Do You Believe In Magic.wav

Peak level 94.4 %
Extraction speed 6.6 X
Track quality 100.0 %
Test CRC 0F6889C8
Copy CRC 0F6889C8
Accurately ripped (confidence 2) [F1F8BA17] (AR v2)
Copy OK

Track 13

Filename E:\Lossless\VA\+VA - The 60s 70s 80s Love Album\VA - The 60s Love Album (2017, CRIMCD590, UK, CD)\CD3\13 Blood, Sweat & Tears - You've Made Me So Very Happy.wav

Peak level 94.4 %
Extraction speed 7.5 X
Track quality 100.0 %
Test CRC 2DA25760
Copy CRC 2DA25760
Accurately ripped (confidence 2) [303E5106] (AR v2)
Copy OK

Track 14

Filename E:\Lossless\VA\+VA - The 60s 70s 80s Love Album\VA - The 60s Love Album (2017, CRIMCD590, UK, CD)\CD3\14 Reparata & The Delrons - Captain Of Your Ship.wav

Peak level 83.1 %
Extraction speed 7.1 X
Track quality 100.0 %
Test CRC FE7B5842
Copy CRC FE7B5842
Accurately ripped (confidence 2) [318ACF32] (AR v2)
Copy OK

Track 15

Filename E:\Lossless\VA\+VA - The 60s 70s 80s Love Album\VA - The 60s Love Album (2017, CRIMCD590, UK, CD)\CD3\15 Paul Revere & The Raiders - I'm Not Your Stepping Stone.wav

Peak level 85.1 %
Extraction speed 7.5 X
Track quality 100.0 %
Test CRC 5E438169
Copy CRC 5E438169
Accurately ripped (confidence 2) [E81E520A] (AR v2)
Copy OK

Track 16

Filename E:\Lossless\VA\+VA - The 60s 70s 80s Love Album\VA - The 60s Love Album (2017, CRIMCD590, UK, CD)\CD3\16 Billy Joe Royal - Hush.wav

Peak level 100.0 %
Extraction speed 7.5 X
Track quality 100.0 %
Test CRC E734C783
Copy CRC E734C783
Accurately ripped (confidence 2) [E0FBED04] (AR v2)
Copy OK

Track 17

Filename E:\Lossless\VA\+VA - The 60s 70s 80s Love Album\VA - The 60s Love Album (2017, CRIMCD590, UK, CD)\CD3\17 Crazy Elephant - Gimme Gimme Good Lovin'.wav

Peak level 89.9 %
Extraction speed 7.3 X
Track quality 100.0 %
Test CRC A8C00D5D
Copy CRC A8C00D5D
Accurately ripped (confidence 2) [7E2A0D9A] (AR v2)
Copy OK

Track 18

Filename E:\Lossless\VA\+VA - The 60s 70s 80s Love Album\VA - The 60s Love Album (2017, CRIMCD590, UK, CD)\CD3\18 The Guess Who - Shakin' All Over.wav

Peak level 94.4 %
Extraction speed 7.8 X
Track quality 100.0 %
Test CRC 3345052D
Copy CRC 3345052D
Accurately ripped (confidence 2) [42293F55] (AR v2)
Copy OK

Track 19

Filename E:\Lossless\VA\+VA - The 60s 70s 80s Love Album\VA - The 60s Love Album (2017, CRIMCD590, UK, CD)\CD3\19 Sir Douglas Quintet - She's About A Mover.wav

Peak level 81.3 %
Extraction speed 7.7 X
Track quality 100.0 %
Test CRC 2A7DED4D
Copy CRC 2A7DED4D
Accurately ripped (confidence 2) [35FD5373] (AR v2)
Copy OK

Track 20

Filename E:\Lossless\VA\+VA - The 60s 70s 80s Love Album\VA - The 60s Love Album (2017, CRIMCD590, UK, CD)\CD3\20 The Youngbloods - Get Together.wav

Peak level 94.4 %
Extraction speed 8.8 X
Track quality 100.0 %
Test CRC D50314F1
Copy CRC D50314F1
Accurately ripped (confidence 2) [9336524C] (AR v2)
Copy OK


All tracks accurately ripped

No errors occurred

End of status report

–– AcoustID Plugin V1.2.0

Total fingerprints: 20


–– CUETools DB Plugin V2.1.6

[CTDB TOCID: PJAcCsFI8ynTLCaGHiavYJJkyPk-] found
Submit result: PJAcCsFI8ynTLCaGHiavYJJkyPk- has been confirmed
Track | CTDB Status
1 | (3/3) Accurately ripped
2 | (3/3) Accurately ripped
3 | (3/3) Accurately ripped
4 | (3/3) Accurately ripped
5 | (3/3) Accurately ripped
6 | (3/3) Accurately ripped
7 | (3/3) Accurately ripped
8 | (3/3) Accurately ripped
9 | (3/3) Accurately ripped
10 | (3/3) Accurately ripped
11 | (3/3) Accurately ripped
12 | (3/3) Accurately ripped
13 | (3/3) Accurately ripped
14 | (3/3) Accurately ripped
15 | (3/3) Accurately ripped
16 | (3/3) Accurately ripped
17 | (3/3) Accurately ripped
18 | (3/3) Accurately ripped
19 | (3/3) Accurately ripped
20 | (3/3) Accurately ripped


==== Log checksum 75D428877AC6C288ECDE853C3CC89B95EC7476DC3F6F92E6231013509F6B942E ====

Thanks to the Original ripper dalaylama !

VA - The 70s Love Album (2017)

VA - Love Album Collection: The 60s Love Album / The 70s Love Album / The 80s Love Album (2017)

VA - The 70s Love Album (2017)
EAC Rip | FLAC (tracks+log+.cue) | Artwork included | 03:25:21 | 1,3 Gb
Pop, Rock, Country, Soul | Label: Crimson, Sony Music

Tracklist:
Disc 1
1. The Three Degrees – Woman In Love
2. Linda Lewis – It's In His Kiss
3. The O'Jays – Love Train
4. The Isley Brothers – Summer Breeze (Part One)
5. The Drifters – There Goes My First Love
6. Dionne Warwick – I'll Never Love This Way Again
7. The Emotions – Best Of My Love
8. Earth, Wind & Fire – After The Love Has Gone
9. Billy Ocean – Love Really Hurts Without You
10. Heatwave – Always And Forever
11. Tina Charles – I Love To Love
12. Chairmen Of The Board – Give Me Just A Little More Time
13. Manhattans – Kiss And Say Goodbye
14. Gladys Knight And The Pips – Best Thing That Ever Happened To Me
15. Johnny Mathis & Deniece Williams – Too Much, Too Little, Too Late
16. Harold Melvin And The Blue Notes – If You Don't Know Me By Now
17. Billy Paul – Me & Mrs Jones
18. Dana – Please Tell Him That I Said Hello
19. Deniece Williams – Free
20. Bill Withers – Lovely Day

Disc 2
1. Lou Reed – Perfect Day
2. Sad Café – Every Day Hurts
3. Patti Smith Group – Because The Night
4. Daryl Hall & John Oates – Sara Smile
5. Meat Loaf – Two Out Of Three Ain't Bad
6. Average White Band – Queen Of My Soul
7. T. Rex – Dreamy Lady
8. Boz Scaggs – What Can I Say
9. Showaddywaddy – When
10. Bay City Rollers – Give A Little Love
11. The Dooleys – Love Of My Life
12. Smokie – If You Think You Know How To Love Me
13. Edison Lighthouse – Love Grows (Where My Rosemary Goes)
14. Leo Sayer – When I Need You
15. Christie – Yellow River
16. Boney M. – Sunny
17. Dawn – Tie A Yellow Ribbon Round The Ole Oak Tree (feat. Tony Orlando)
18. Johnny Mathis – I'm Stone In Love With You
19. Art Garfunkel – I Only Have Eyes For You
20. Colin Blunstone – Say You Don't Mind

Disc 3
1. Andy Williams – (Where Do I Begin) Love Story
2. Perry Como – And I Love You So
3. John Denver – Annie's Song
4. Mary MacGregor – Torn Between Two Lovers
5. Gary Shearston – I Get A Kick Out Of You
6. Barry Manilow – Could It Be Magic
7. The New Seekers – You Won't Find Another Fool Like Me
8. Johnny Nash – Tears On My Pillow
9. Marianne Faithfull – It's All Over Now, Baby Blue
10. Tammy Wynette – Stand By Your Man
11. Charlie Rich – The Most Beautiful Girl
12. Terry Jacks – Seasons In The Sun
13. Fleetwood Mac – Albatross
14. Freda Payne – Band Of Gold
15. Eric Carmen – All By Myself
16. Anne-Marie David – Wonderful Dream
17. The Delfonics – Ready Or Not Here I Come (Can't Hide From Love)
18. Nilsson – Without You
19. The Imperials – Who's Gonna Love Me?
20. Dolly Parton – I Will Always Love You

Exact Audio Copy V1.0 beta 6 from 9. April 2015

EAC extraction logfile from 23. March 2019, 10:04

Various / The 70s Love Album CD1

Used drive : TSSTcorpCD/DVDW SH-S182D Adapter: 1 ID: 1

Read mode : Secure
Utilize accurate stream : Yes
Defeat audio cache : Yes
Make use of C2 pointers : No

Read offset correction : 6
Overread into Lead-In and Lead-Out : No
Fill up missing offset samples with silence : Yes
Delete leading and trailing silent blocks : No
Null samples used in CRC calculations : Yes
Used interface : Native Win32 interface for Win NT & 2000
Gap handling : Appended to previous track

Used output format : User Defined Encoder
Selected bitrate : 896 kBit/s
Quality : High
Add ID3 tag : No
Command line compressor : C:\Program Files (x86)\Exact Audio Copy\FLAC\FLAC.EXE
Additional command line options : -8 -V -T "ARTIST=%artist%" -T "TITLE=%title%" -T "ALBUM=%albumtitle%" -T "DATE=%year%" -T "TRACKNUMBER=%tracknr%" -T "GENRE=%genre%" -T "COMMENT=%comment%" -T "BAND=%albuminterpret%" -T "ALBUMARTIST=%albuminterpret%" -T "COMPOSER=%composer%" %haslyrics%–tag-from-file=LYRICS="%lyricsfile%"%haslyrics% -T "DISCNUMBER=%cdnumber%" -T "TOTALDISCS=%totalcds%" -T "TOTALTRACKS=%numtracks%" %hascover%–picture="%coverfile%"%hascover% %source% -o %dest%


TOC of the extracted CD

Track | Start | Length | Start sector | End sector
––––––––––––––––––––––––––––-
1 | 0:00.00 | 4:13.17 | 0 | 18991
2 | 4:13.17 | 3:21.65 | 18992 | 34131
3 | 7:35.07 | 2:59.34 | 34132 | 47590
4 | 10:34.41 | 3:09.53 | 47591 | 61818
5 | 13:44.19 | 3:04.24 | 61819 | 75642
6 | 16:48.43 | 3:30.59 | 75643 | 91451
7 | 20:19.27 | 3:40.00 | 91452 | 107951
8 | 23:59.27 | 3:56.20 | 107952 | 125671
9 | 27:55.47 | 3:00.65 | 125672 | 139236
10 | 30:56.37 | 3:38.17 | 139237 | 155603
11 | 34:34.54 | 3:03.23 | 155604 | 169351
12 | 37:38.02 | 2:40.25 | 169352 | 181376
13 | 40:18.27 | 4:28.49 | 181377 | 201525
14 | 44:47.01 | 3:47.52 | 201526 | 218602
15 | 48:34.53 | 2:57.10 | 218603 | 231887
16 | 51:31.63 | 3:27.73 | 231888 | 247485
17 | 54:59.61 | 4:42.24 | 247486 | 268659
18 | 59:42.10 | 3:20.60 | 268660 | 283719
19 | 63:02.70 | 2:52.54 | 283720 | 296673
20 | 65:55.49 | 4:11.39 | 296674 | 315537


Track 1

Filename E:\Lossless\VA\+VA - The 60s 70s 80s Love Album\VA - The 70s Love Album (2017, CRIMCD591, UK, CD)\CD1\01 - The Three Degrees - Woman In Love.wav

Pre-gap length 0:00:02.00

Peak level 91.2 %
Extraction speed 4.8 X
Track quality 100.0 %
Test CRC 60E7F1A0
Copy CRC 60E7F1A0
Accurately ripped (confidence 2) [CA08DC5A] (AR v2)
Copy OK

Track 2

Filename E:\Lossless\VA\+VA - The 60s 70s 80s Love Album\VA - The 70s Love Album (2017, CRIMCD591, UK, CD)\CD1\02 - Linda Lewis - It's In His Kiss.wav

Peak level 94.4 %
Extraction speed 4.3 X
Track quality 99.9 %
Test CRC 2EA81600
Copy CRC 2EA81600
Accurately ripped (confidence 2) [28F037E7] (AR v2)
Copy OK

Track 3

Filename E:\Lossless\VA\+VA - The 60s 70s 80s Love Album\VA - The 70s Love Album (2017, CRIMCD591, UK, CD)\CD1\03 - Love Train - Love Train.wav

Peak level 79.4 %
Extraction speed 5.2 X
Track quality 100.0 %
Test CRC A33F10B9
Copy CRC A33F10B9
Accurately ripped (confidence 2) [43F9E023] (AR v2)
Copy OK

Track 4

Filename E:\Lossless\VA\+VA - The 60s 70s 80s Love Album\VA - The 70s Love Album (2017, CRIMCD591, UK, CD)\CD1\04 - The Isley Brothers - Summer Breeze Pt.1.wav

Peak level 79.4 %
Extraction speed 5.5 X
Track quality 100.0 %
Test CRC 5DC69B65
Copy CRC 5DC69B65
Accurately ripped (confidence 2) [BB8FA09B] (AR v2)
Copy OK

Track 5

Filename E:\Lossless\VA\+VA - The 60s 70s 80s Love Album\VA - The 70s Love Album (2017, CRIMCD591, UK, CD)\CD1\05 - The Drifters - There Goes My First Love.wav

Peak level 94.4 %
Extraction speed 5.8 X
Track quality 100.0 %
Test CRC 5F001407
Copy CRC 5F001407
Accurately ripped (confidence 2) [035BCC0B] (AR v2)
Copy OK

Track 6

Filename E:\Lossless\VA\+VA - The 60s 70s 80s Love Album\VA - The 70s Love Album (2017, CRIMCD591, UK, CD)\CD1\06 - Dionne Warwick - I'll Never Love This Way Again.wav

Peak level 94.4 %
Extraction speed 5.4 X
Track quality 99.9 %
Test CRC BD3E72F7
Copy CRC BD3E72F7
Accurately ripped (confidence 2) [B3A1B362] (AR v2)
Copy OK

Track 7

Filename E:\Lossless\VA\+VA - The 60s 70s 80s Love Album\VA - The 70s Love Album (2017, CRIMCD591, UK, CD)\CD1\07 - The Emotions - Best Of My Love.wav

Peak level 94.4 %
Extraction speed 6.4 X
Track quality 100.0 %
Test CRC 31B0AA5B
Copy CRC 31B0AA5B
Accurately ripped (confidence 2) [A913EBC1] (AR v2)
Copy OK

Track 8

Filename E:\Lossless\VA\+VA - The 60s 70s 80s Love Album\VA - The 70s Love Album (2017, CRIMCD591, UK, CD)\CD1\08 - Earth, Wind & Fire - After The Love Has Gone.wav

Peak level 91.2 %
Extraction speed 6.7 X
Track quality 100.0 %
Test CRC A696A2A3
Copy CRC A696A2A3
Accurately ripped (confidence 2) [AE1B95CC] (AR v2)
Copy OK

Track 9

Filename E:\Lossless\VA\+VA - The 60s 70s 80s Love Album\VA - The 70s Love Album (2017, CRIMCD591, UK, CD)\CD1\09 - Billy Ocean - Love Really Hurts Without You.wav

Peak level 69.1 %
Extraction speed 6.6 X
Track quality 100.0 %
Test CRC BBAB9235
Copy CRC BBAB9235
Accurately ripped (confidence 2) [DBFD38B7] (AR v2)
Copy OK

Track 10

Filename E:\Lossless\VA\+VA - The 60s 70s 80s Love Album\VA - The 70s Love Album (2017, CRIMCD591, UK, CD)\CD1\10 - Heatwave - Always And Forever.wav

Peak level 86.2 %
Extraction speed 7.2 X
Track quality 100.0 %
Test CRC 6384F922
Copy CRC 6384F922
Accurately ripped (confidence 2) [EDB671E3] (AR v2)
Copy OK

Track 11

Filename E:\Lossless\VA\+VA - The 60s 70s 80s Love Album\VA - The 70s Love Album (2017, CRIMCD591, UK, CD)\CD1\11 - Tina Charles - I Love To Love.wav

Peak level 94.4 %
Extraction speed 7.0 X
Track quality 100.0 %
Test CRC E9DEE414
Copy CRC E9DEE414
Accurately ripped (confidence 2) [0897B897] (AR v2)
Copy OK

Track 12

Filename E:\Lossless\VA\+VA - The 60s 70s 80s Love Album\VA - The 70s Love Album (2017, CRIMCD591, UK, CD)\CD1\12 - Chairmen of the Board - Give Me Just A Little More Time.wav

Peak level 81.7 %
Extraction speed 5.9 X
Track quality 99.9 %
Test CRC 17FE1CCE
Copy CRC 17FE1CCE
Accurately ripped (confidence 2) [B13941B8] (AR v2)
Copy OK

Track 13

Filename E:\Lossless\VA\+VA - The 60s 70s 80s Love Album\VA - The 70s Love Album (2017, CRIMCD591, UK, CD)\CD1\13 - The Manhattans - Kiss & Say Goodbye.wav

Peak level 94.4 %
Extraction speed 8.0 X
Track quality 100.0 %
Test CRC 08ED6F27
Copy CRC 08ED6F27
Accurately ripped (confidence 2) [AA03F530] (AR v2)
Copy OK

Track 14

Filename E:\Lossless\VA\+VA - The 60s 70s 80s Love Album\VA - The 70s Love Album (2017, CRIMCD591, UK, CD)\CD1\14 - Gladys Knight & The Pips - Best Thing That Ever Happened.wav

Peak level 93.6 %
Extraction speed 8.0 X
Track quality 100.0 %
Test CRC B1AF845C
Copy CRC B1AF845C
Accurately ripped (confidence 2) [7D69D3AB] (AR v2)
Copy OK

Track 15

Filename E:\Lossless\VA\+VA - The 60s 70s 80s Love Album\VA - The 70s Love Album (2017, CRIMCD591, UK, CD)\CD1\15 - Johnny Mathis & Deniece Williams - Too Much, Too Little, Too Late.wav

Peak level 94.4 %
Extraction speed 7.8 X
Track quality 100.0 %
Test CRC 18D2415E
Copy CRC 18D2415E
Accurately ripped (confidence 2) [5422F52A] (AR v2)
Copy OK

Track 16

Filename E:\Lossless\VA\+VA - The 60s 70s 80s Love Album\VA - The 70s Love Album (2017, CRIMCD591, UK, CD)\CD1\16 - Harold Melvin & The Blue Notes - If You Don't Know Me By Now.wav

Peak level 94.4 %
Extraction speed 8.1 X
Track quality 100.0 %
Test CRC 73527355
Copy CRC 73527355
Accurately ripped (confidence 2) [FC8CB908] (AR v2)
Copy OK

Track 17

Filename E:\Lossless\VA\+VA - The 60s 70s 80s Love Album\VA - The 70s Love Album (2017, CRIMCD591, UK, CD)\CD1\17 - Billy Paul - Me And Mrs Jones.wav

Peak level 83.9 %
Extraction speed 8.7 X
Track quality 100.0 %
Test CRC 67E8DECF
Copy CRC 67E8DECF
Accurately ripped (confidence 2) [8ECF779A] (AR v2)
Copy OK

Track 18

Filename E:\Lossless\VA\+VA - The 60s 70s 80s Love Album\VA - The 70s Love Album (2017, CRIMCD591, UK, CD)\CD1\18 - Dana - Please Tell Him That I Said Hello.wav

Peak level 94.4 %
Extraction speed 8.5 X
Track quality 100.0 %
Test CRC 160EE479
Copy CRC 160EE479
Accurately ripped (confidence 2) [EA181414] (AR v2)
Copy OK

Track 19

Filename E:\Lossless\VA\+VA - The 60s 70s 80s Love Album\VA - The 70s Love Album (2017, CRIMCD591, UK, CD)\CD1\19 - Deniece Williams - Free.wav

Peak level 93.9 %
Extraction speed 8.6 X
Track quality 100.0 %
Test CRC 685A2B47
Copy CRC 685A2B47
Accurately ripped (confidence 2) [6019D939] (AR v2)
Copy OK

Track 20

Filename E:\Lossless\VA\+VA - The 60s 70s 80s Love Album\VA - The 70s Love Album (2017, CRIMCD591, UK, CD)\CD1\20 - Bill Withers - Lovely Day.wav

Peak level 91.2 %
Extraction speed 9.1 X
Track quality 100.0 %
Test CRC 2A10240B
Copy CRC 2A10240B
Accurately ripped (confidence 2) [79A21E01] (AR v2)
Copy OK


All tracks accurately ripped

No errors occurred

End of status report

–– CUETools DB Plugin V2.1.6

[CTDB TOCID: 07xuP6.wogubCGczexY3gbnUXU0-] database access error: Время ожидания операции истекло


==== Log checksum 7673B4F4735829A8E0640E0866A6DA481B5B4033FD2CC0F05B4AFF64FF51FEA9 ====

Exact Audio Copy V1.3 from 2. September 2016

EAC extraction logfile from 23. March 2019, 10:04

Various / The 70s Love Album - CD2

Used drive : ASUS DRW-24D5MT Adapter: 1 ID: 0

Read mode : Secure
Utilize accurate stream : Yes
Defeat audio cache : Yes
Make use of C2 pointers : No

Read offset correction : 6
Overread into Lead-In and Lead-Out : No
Fill up missing offset samples with silence : Yes
Delete leading and trailing silent blocks : No
Null samples used in CRC calculations : Yes
Used interface : Native Win32 interface for Win NT & 2000
Gap handling : Appended to previous track

Used output format : User Defined Encoder
Selected bitrate : 896 kBit/s
Quality : High
Add ID3 tag : No
Command line compressor : C:\Program Files (x86)\Exact Audio Copy\FLAC\FLAC.EXE
Additional command line options : -8 -V -T "ARTIST=%artist%" -T "TITLE=%title%" -T "ALBUM=%albumtitle%" -T "DATE=%year%" -T "TRACKNUMBER=%tracknr%" -T "GENRE=%genre%" -T "COMMENT=%comment%" -T "BAND=%albuminterpret%" -T "ALBUMARTIST=%albuminterpret%" -T "COMPOSER=%composer%" %haslyrics%–tag-from-file=LYRICS="%lyricsfile%"%haslyrics% -T "DISCNUMBER=%cdnumber%" -T "TOTALDISCS=%totalcds%" -T "TOTALTRACKS=%numtracks%" %hascover%–picture="%coverfile%"%hascover% %source% -o %dest%


TOC of the extracted CD

Track | Start | Length | Start sector | End sector
––––––––––––––––––––––––––––-
1 | 0:00.00 | 3:44.26 | 0 | 16825
2 | 3:44.26 | 4:05.44 | 16826 | 35244
3 | 7:49.70 | 3:23.19 | 35245 | 50488
4 | 11:13.14 | 3:08.36 | 50489 | 64624
5 | 14:21.50 | 4:47.49 | 64625 | 86198
6 | 19:09.24 | 4:34.65 | 86199 | 106813
7 | 23:44.14 | 2:53.55 | 106814 | 119843
8 | 26:37.69 | 3:00.32 | 119844 | 133375
9 | 29:38.26 | 2:52.49 | 133376 | 146324
10 | 32:31.00 | 3:13.44 | 146325 | 160843
11 | 35:44.44 | 3:07.03 | 160844 | 174871
12 | 38:51.47 | 3:26.61 | 174872 | 190382
13 | 42:18.33 | 2:50.53 | 190383 | 203185
14 | 45:09.11 | 4:09.57 | 203186 | 221917
15 | 49:18.68 | 2:47.74 | 221918 | 234516
16 | 52:06.67 | 3:16.74 | 234517 | 249290
17 | 55:23.66 | 3:26.04 | 249291 | 264744
18 | 58:49.70 | 3:31.12 | 264745 | 280581
19 | 62:21.07 | 3:40.67 | 280582 | 297148
20 | 66:01.74 | 3:16.41 | 297149 | 311889


Track 1

Filename E:\Lossless\VA\+VA - The 60s 70s 80s Love Album\VA - The 70s Love Album (2017, CRIMCD591, UK, CD)\CD2\01 Lou Reed - Perfect Day.wav

Pre-gap length 0:00:02.00

Peak level 91.2 %
Extraction speed 4.7 X
Track quality 100.0 %
Test CRC EA9D4244
Copy CRC EA9D4244
Accurately ripped (confidence 2) [C583C6ED] (AR v2)
Copy OK

Track 2

Filename E:\Lossless\VA\+VA - The 60s 70s 80s Love Album\VA - The 70s Love Album (2017, CRIMCD591, UK, CD)\CD2\02 Sad Cafe - Every Day Hurts.wav

Peak level 94.4 %
Extraction speed 5.2 X
Track quality 100.0 %
Test CRC C01173EF
Copy CRC C01173EF
Accurately ripped (confidence 2) [8E155BED] (AR v2)
Copy OK

Track 3

Filename E:\Lossless\VA\+VA - The 60s 70s 80s Love Album\VA - The 70s Love Album (2017, CRIMCD591, UK, CD)\CD2\03 Patti Smith Group - Because The Night.wav

Peak level 88.1 %
Extraction speed 5.4 X
Track quality 100.0 %
Test CRC 5A4CD32E
Copy CRC 5A4CD32E
Accurately ripped (confidence 2) [C47DD051] (AR v2)
Copy OK

Track 4

Filename E:\Lossless\VA\+VA - The 60s 70s 80s Love Album\VA - The 70s Love Album (2017, CRIMCD591, UK, CD)\CD2\04 Hall & Oates - Sara Smile.wav

Peak level 94.4 %
Extraction speed 5.6 X
Track quality 100.0 %
Test CRC 01BD870D
Copy CRC 01BD870D
Accurately ripped (confidence 2) [6AAB2999] (AR v2)
Copy OK

Track 5

Filename E:\Lossless\VA\+VA - The 60s 70s 80s Love Album\VA - The 70s Love Album (2017, CRIMCD591, UK, CD)\CD2\05 Meat Loaf - Two Out Of Three Ain't Bad.wav

Peak level 94.4 %
Extraction speed 6.3 X
Track quality 100.0 %
Test CRC 47BD5BD9
Copy CRC 47BD5BD9
Accurately ripped (confidence 2) [6F36F11F] (AR v2)
Copy OK

Track 6

Filename E:\Lossless\VA\+VA - The 60s 70s 80s Love Album\VA - The 70s Love Album (2017, CRIMCD591, UK, CD)\CD2\06 Average White Band - Queen Of My Soul.wav

Peak level 70.4 %
Extraction speed 6.0 X
Track quality 99.9 %
Test CRC 082441E1
Copy CRC 082441E1
Accurately ripped (confidence 2) [6BAF3A4C] (AR v2)
Copy OK

Track 7

Filename E:\Lossless\VA\+VA - The 60s 70s 80s Love Album\VA - The 70s Love Album (2017, CRIMCD591, UK, CD)\CD2\07 T-Rex - Dreamy Lady.wav

Peak level 75.8 %
Extraction speed 6.4 X
Track quality 100.0 %
Test CRC 73C4389A
Copy CRC 73C4389A
Accurately ripped (confidence 2) [D6B0C89F] (AR v2)
Copy OK

Track 8

Filename E:\Lossless\VA\+VA - The 60s 70s 80s Love Album\VA - The 70s Love Album (2017, CRIMCD591, UK, CD)\CD2\08 Boz Scaggs - What Can I Say.wav

Peak level 94.4 %
Extraction speed 6.7 X
Track quality 100.0 %
Test CRC 29B44807
Copy CRC 29B44807
Accurately ripped (confidence 2) [83F70421] (AR v2)
Copy OK

Track 9

Filename E:\Lossless\VA\+VA - The 60s 70s 80s Love Album\VA - The 70s Love Album (2017, CRIMCD591, UK, CD)\CD2\09 Showaddywaddy - When.wav

Peak level 79.4 %
Extraction speed 5.9 X
Track quality 99.9 %
Test CRC 5C8A12BE
Copy CRC 5C8A12BE
Accurately ripped (confidence 2) [09E43112] (AR v2)
Copy OK

Track 10

Filename E:\Lossless\VA\+VA - The 60s 70s 80s Love Album\VA - The 70s Love Album (2017, CRIMCD591, UK, CD)\CD2\10 Bay City Rollers - Give A Little Love.wav

Peak level 100.0 %
Extraction speed 7.2 X
Track quality 100.0 %
Test CRC 69C54B25
Copy CRC 69C54B25
Accurately ripped (confidence 2) [16957356] (AR v2)
Copy OK

Track 11

Filename E:\Lossless\VA\+VA - The 60s 70s 80s Love Album\VA - The 70s Love Album (2017, CRIMCD591, UK, CD)\CD2\11 The Dooleys - Love Of My Life.wav

Peak level 94.4 %
Extraction speed 7.2 X
Track quality 100.0 %
Test CRC B5E4017E
Copy CRC B5E4017E
Accurately ripped (confidence 2) [2D337E29] (AR v2)
Copy OK

Track 12

Filename E:\Lossless\VA\+VA - The 60s 70s 80s Love Album\VA - The 70s Love Album (2017, CRIMCD591, UK, CD)\CD2\12 Smokie - If You Think You Know How To Love Me.wav

Peak level 94.4 %
Extraction speed 6.6 X
Track quality 99.9 %
Test CRC 47C08714
Copy CRC 47C08714
Accurately ripped (confidence 2) [BD2F97B9] (AR v2)
Copy OK

Track 13

Filename E:\Lossless\VA\+VA - The 60s 70s 80s Love Album\VA - The 70s Love Album (2017, CRIMCD591, UK, CD)\CD2\13 Edison Lighthouse - Love Grows Where My Rosemary Goes.wav

Peak level 85.1 %
Extraction speed 7.6 X
Track quality 100.0 %
Test CRC F24A8746
Copy CRC F24A8746
Accurately ripped (confidence 2) [0BFDDB0B] (AR v2)
Copy OK

Track 14

Filename E:\Lossless\VA\+VA - The 60s 70s 80s Love Album\VA - The 70s Love Album (2017, CRIMCD591, UK, CD)\CD2\14 Leo Sayer - When I Need You.wav

Peak level 91.2 %
Extraction speed 8.2 X
Track quality 100.0 %
Test CRC D2328862
Copy CRC D2328862
Accurately ripped (confidence 2) [403F5894] (AR v2)
Copy OK

Track 15

Filename E:\Lossless\VA\+VA - The 60s 70s 80s Love Album\VA - The 70s Love Album (2017, CRIMCD591, UK, CD)\CD2\15 Christie - Yellow River.wav

Peak level 94.4 %
Extraction speed 6.7 X
Track quality 99.9 %
Test CRC 3D898985
Copy CRC 3D898985
Accurately ripped (confidence 2) [9879137D] (AR v2)
Copy OK

Track 16

Filename E:\Lossless\VA\+VA - The 60s 70s 80s Love Album\VA - The 70s Love Album (2017, CRIMCD591, UK, CD)\CD2\16 Boney M - Sunny.wav

Peak level 82.2 %
Extraction speed 8.2 X
Track quality 100.0 %
Test CRC B544A087
Copy CRC B544A087
Accurately ripped (confidence 2) [75987C0E] (AR v2)
Copy OK

Track 17

Filename E:\Lossless\VA\+VA - The 60s 70s 80s Love Album\VA - The 70s Love Album (2017, CRIMCD591, UK, CD)\CD2\17 Dawn Feat. Tony Orlando - Tie A Yellow Ribbon Round The Ole Oak Tree.wav

Peak level 94.4 %
Extraction speed 8.5 X
Track quality 100.0 %
Test CRC 22B9283D
Copy CRC 22B9283D
Accurately ripped (confidence 2) [5C186DB9] (AR v2)
Copy OK

Track 18

Filename E:\Lossless\VA\+VA - The 60s 70s 80s Love Album\VA - The 70s Love Album (2017, CRIMCD591, UK, CD)\CD2\18 Johnny Mathis - I'm Stone In Love With You.wav

Peak level 94.4 %
Extraction speed 7.6 X
Track quality 99.9 %
Test CRC 55C8F69E
Copy CRC 55C8F69E
Accurately ripped (confidence 2) [3DDFAB89] (AR v2)
Copy OK

Track 19

Filename E:\Lossless\VA\+VA - The 60s 70s 80s Love Album\VA - The 70s Love Album (2017, CRIMCD591, UK, CD)\CD2\19 Art Garfunkel - I Only Have Eyes For You.wav

Peak level 94.4 %
Extraction speed 8.9 X
Track quality 100.0 %
Test CRC BBE62494
Copy CRC BBE62494
Accurately ripped (confidence 2) [E6405D55] (AR v2)
Copy OK

Track 20

Filename E:\Lossless\VA\+VA - The 60s 70s 80s Love Album\VA - The 70s Love Album (2017, CRIMCD591, UK, CD)\CD2\20 Colin Blunstone - Say You Don't Mind.wav

Peak level 94.4 %
Extraction speed 7.7 X
Track quality 99.9 %
Test CRC 845B607A
Copy CRC 845B607A
Accurately ripped (confidence 2) [21EF0514] (AR v2)
Copy OK


All tracks accurately ripped

No errors occurred

End of status report

–– AcoustID Plugin V1.2.0

Total fingerprints: 20


–– CUETools DB Plugin V2.1.6

[CTDB TOCID: MJN2rt_uifOCOBzPV7fNFLgZRns-] database access error: Время ожидания операции истекло


==== Log checksum 117FA9F1D490B8A2B0978E7911BDFC76A191050DEE6A6C3F6EBDC29E237F30D4 ====

Exact Audio Copy V1.0 beta 6 from 9. April 2015

EAC extraction logfile from 23. March 2019, 11:03

Various Artists / The 70s Love Album

Used drive : TSSTcorpCD/DVDW SH-S182D Adapter: 1 ID: 1

Read mode : Secure
Utilize accurate stream : Yes
Defeat audio cache : Yes
Make use of C2 pointers : No

Read offset correction : 6
Overread into Lead-In and Lead-Out : No
Fill up missing offset samples with silence : Yes
Delete leading and trailing silent blocks : No
Null samples used in CRC calculations : Yes
Used interface : Native Win32 interface for Win NT & 2000
Gap handling : Appended to previous track

Used output format : User Defined Encoder
Selected bitrate : 896 kBit/s
Quality : High
Add ID3 tag : No
Command line compressor : C:\Program Files (x86)\Exact Audio Copy\FLAC\FLAC.EXE
Additional command line options : -8 -V -T "ARTIST=%artist%" -T "TITLE=%title%" -T "ALBUM=%albumtitle%" -T "DATE=%year%" -T "TRACKNUMBER=%tracknr%" -T "GENRE=%genre%" -T "COMMENT=%comment%" -T "BAND=%albuminterpret%" -T "ALBUMARTIST=%albuminterpret%" -T "COMPOSER=%composer%" %haslyrics%–tag-from-file=LYRICS="%lyricsfile%"%haslyrics% -T "DISCNUMBER=%cdnumber%" -T "TOTALDISCS=%totalcds%" -T "TOTALTRACKS=%numtracks%" %hascover%–picture="%coverfile%"%hascover% %source% -o %dest%


TOC of the extracted CD

Track | Start | Length | Start sector | End sector
––––––––––––––––––––––––––––-
1 | 0:00.00 | 3:12.08 | 0 | 14407
2 | 3:12.08 | 3:19.41 | 14408 | 29373
3 | 6:31.49 | 3:00.11 | 29374 | 42884
4 | 9:31.60 | 3:40.70 | 42885 | 59454
5 | 13:12.55 | 3:39.65 | 59455 | 75944
6 | 16:52.45 | 4:18.04 | 75945 | 95298
7 | 21:10.49 | 3:12.43 | 95299 | 109741
8 | 24:23.17 | 3:19.34 | 109742 | 124700
9 | 27:42.51 | 3:49.46 | 124701 | 141921
10 | 31:32.22 | 2:39.26 | 141922 | 153872
11 | 34:11.48 | 2:43.24 | 153873 | 166121
12 | 36:54.72 | 3:31.13 | 166122 | 181959
13 | 40:26.10 | 3:06.08 | 181960 | 195917
14 | 43:32.18 | 2:54.73 | 195918 | 209040
15 | 46:27.16 | 4:55.62 | 209041 | 231227
16 | 51:23.03 | 2:39.26 | 231228 | 243178
17 | 54:02.29 | 2:00.64 | 243179 | 252242
18 | 56:03.18 | 3:23.07 | 252243 | 267474
19 | 59:26.25 | 3:35.49 | 267475 | 283648
20 | 63:01.74 | 2:53.74 | 283649 | 296697


Track 1

Filename E:\Lossless\VA\+VA - The 60s 70s 80s Love Album\VA - The 70s Love Album (2017, CRIMCD591, UK, CD)\CD3\01 - Andy Williams - (Where Do I Begin) Love Story.wav

Pre-gap length 0:00:02.00

Peak level 94.4 %
Extraction speed 4.5 X
Track quality 100.0 %
Test CRC 28A5CBD2
Copy CRC 28A5CBD2
Accurately ripped (confidence 2) [B35BB365] (AR v2)
Copy OK

Track 2

Filename E:\Lossless\VA\+VA - The 60s 70s 80s Love Album\VA - The 70s Love Album (2017, CRIMCD591, UK, CD)\CD3\02 - Perry Como - And I Love You So.wav

Peak level 94.4 %
Extraction speed 4.3 X
Track quality 99.9 %
Test CRC 4D9CC05E
Copy CRC 4D9CC05E
Accurately ripped (confidence 2) [A7B9BE42] (AR v2)
Copy OK

Track 3

Filename E:\Lossless\VA\+VA - The 60s 70s 80s Love Album\VA - The 70s Love Album (2017, CRIMCD591, UK, CD)\CD3\03 - John Denver - Annie's Song.wav

Peak level 94.4 %
Extraction speed 5.2 X
Track quality 100.0 %
Test CRC 7EE22BF2
Copy CRC 7EE22BF2
Accurately ripped (confidence 2) [29109D08] (AR v2)
Copy OK

Track 4

Filename E:\Lossless\VA\+VA - The 60s 70s 80s Love Album\VA - The 70s Love Album (2017, CRIMCD591, UK, CD)\CD3\04 - Mary MacGregor - Torn Between Two Lovers.wav

Peak level 78.5 %
Extraction speed 5.6 X
Track quality 100.0 %
Test CRC 91A15279
Copy CRC 91A15279
Accurately ripped (confidence 2) [CE81BD46] (AR v2)
Copy OK

Track 5

Filename E:\Lossless\VA\+VA - The 60s 70s 80s Love Album\VA - The 70s Love Album (2017, CRIMCD591, UK, CD)\CD3\05 - Gary Shearston - I Get A Kick Out Of You.wav

Peak level 85.1 %
Extraction speed 6.0 X
Track quality 100.0 %
Test CRC 65C79BED
Copy CRC 65C79BED
Accurately ripped (confidence 2) [0EB23304] (AR v2)
Copy OK

Track 6

Filename E:\Lossless\VA\+VA - The 60s 70s 80s Love Album\VA - The 70s Love Album (2017, CRIMCD591, UK, CD)\CD3\06 - Barry Manilow - Could It Be Magic.wav

Peak level 94.3 %
Extraction speed 6.4 X
Track quality 100.0 %
Test CRC DF9A65CF
Copy CRC DF9A65CF
Accurately ripped (confidence 2) [163C8A96] (AR v2)
Copy OK

Track 7

Filename E:\Lossless\VA\+VA - The 60s 70s 80s Love Album\VA - The 70s Love Album (2017, CRIMCD591, UK, CD)\CD3\07 - The New Seekers - You Won't Find Another Fool Like Me.wav

Peak level 86.1 %
Extraction speed 5.5 X
Track quality 99.9 %
Test CRC 46152F4D
Copy CRC 46152F4D
Accurately ripped (confidence 2) [C25208E0] (AR v2)
Copy OK

Track 8

Filename E:\Lossless\VA\+VA - The 60s 70s 80s Love Album\VA - The 70s Love Album (2017, CRIMCD591, UK, CD)\CD3\08 - Johnny Nash - Tears On My Pillow.wav

Peak level 94.4 %
Extraction speed 6.6 X
Track quality 100.0 %
Test CRC 1F028CAF
Copy CRC 1F028CAF
Accurately ripped (confidence 2) [E799824F] (AR v2)
Copy OK

Track 9

Filename E:\Lossless\VA\+VA - The 60s 70s 80s Love Album\VA - The 70s Love Album (2017, CRIMCD591, UK, CD)\CD3\09 - Marianne Faithfull - It's All Over Now, Baby Blue.wav

Peak level 91.2 %
Extraction speed 7.0 X
Track quality 100.0 %
Test CRC BC51697E
Copy CRC BC51697E
Accurately ripped (confidence 2) [6EFD2994] (AR v2)
Copy OK

Track 10

Filename E:\Lossless\VA\+VA - The 60s 70s 80s Love Album\VA - The 70s Love Album (2017, CRIMCD591, UK, CD)\CD3\10 - Tammy Wynette - Stand By Your Man.wav

Peak level 94.4 %
Extraction speed 5.8 X
Track quality 99.9 %
Test CRC F35E880B
Copy CRC F35E880B
Accurately ripped (confidence 2) [414F4A26] (AR v2)
Copy OK

Track 11

Filename E:\Lossless\VA\+VA - The 60s 70s 80s Love Album\VA - The 70s Love Album (2017, CRIMCD591, UK, CD)\CD3\11 - Charlie Rich - The Most Beautiful Girl In The World.wav

Peak level 94.4 %
Extraction speed 5.2 X
Track quality 99.9 %
Test CRC 6477BE71
Copy CRC 6477BE71
Accurately ripped (confidence 2) [DDC97EC2] (AR v2)
Copy OK

Track 12

Filename E:\Lossless\VA\+VA - The 60s 70s 80s Love Album\VA - The 70s Love Album (2017, CRIMCD591, UK, CD)\CD3\12 - Terry Jacks - Seasons In The Sun.wav

Peak level 79.4 %
Extraction speed 4.0 X
Track quality 99.9 %
Test CRC A018502C
Copy CRC A018502C
Accurately ripped (confidence 2) [7B6164D2] (AR v2)
Copy OK

Track 13

Filename E:\Lossless\VA\+VA - The 60s 70s 80s Love Album\VA - The 70s Love Album (2017, CRIMCD591, UK, CD)\CD3\13 - Fleetwood Mac - Albatross.wav

Peak level 92.7 %
Extraction speed 4.6 X
Track quality 100.0 %
Test CRC B0B69A22
Copy CRC B0B69A22
Accurately ripped (confidence 2) [3C78AA26] (AR v2)
Copy OK

Track 14

Filename E:\Lossless\VA\+VA - The 60s 70s 80s Love Album\VA - The 70s Love Album (2017, CRIMCD591, UK, CD)\CD3\14 - Freda Payne - Band Of Gold.wav

Peak level 86.1 %
Extraction speed 3.9 X
Track quality 99.9 %
Test CRC 41C42573
Copy CRC 41C42573
Accurately ripped (confidence 2) [91A9C54E] (AR v2)
Copy OK

Track 15

Filename E:\Lossless\VA\+VA - The 60s 70s 80s Love Album\VA - The 70s Love Album (2017, CRIMCD591, UK, CD)\CD3\15 - Eric Carmen - All By Myself.wav

Peak level 100.0 %
Extraction speed 4.7 X
Track quality 99.9 %
Test CRC 0827264D
Copy CRC 0827264D
Accurately ripped (confidence 2) [2E4A385D] (AR v2)
Copy OK

Track 16

Filename E:\Lossless\VA\+VA - The 60s 70s 80s Love Album\VA - The 70s Love Album (2017, CRIMCD591, UK, CD)\CD3\16 - Anne-Marie David - Wonderful Dream.wav

Peak level 74.1 %
Extraction speed 4.1 X
Track quality 99.9 %
Test CRC 1D4112A4
Copy CRC 1D4112A4
Accurately ripped (confidence 2) [423D6753] (AR v2)
Copy OK

Track 17

Filename E:\Lossless\VA\+VA - The 60s 70s 80s Love Album\VA - The 70s Love Album (2017, CRIMCD591, UK, CD)\CD3\17 - The Delfonics - Ready Or Not Here I Come (Can't Hide From Love).wav

Peak level 85.1 %
Extraction speed 3.6 X
Track quality 99.9 %
Test CRC B9C76B56
Copy CRC B9C76B56
Accurately ripped (confidence 2) [4400344A] (AR v2)
Copy OK

Track 18

Filename E:\Lossless\VA\+VA - The 60s 70s 80s Love Album\VA - The 70s Love Album (2017, CRIMCD591, UK, CD)\CD3\18 - Harry Nilsson - Without You.wav

Peak level 94.4 %
Extraction speed 5.1 X
Track quality 100.0 %
Test CRC 508634FA
Copy CRC 508634FA
Accurately ripped (confidence 2) [64429574] (AR v2)
Copy OK

Track 19

Filename E:\Lossless\VA\+VA - The 60s 70s 80s Love Album\VA - The 70s Love Album (2017, CRIMCD591, UK, CD)\CD3\19 - The Imperials - Who's Gonna Love Me.wav

Peak level 90.6 %
Extraction speed 5.3 X
Track quality 100.0 %
Test CRC 43C9D834
Copy CRC 43C9D834
Accurately ripped (confidence 2) [0386EA5A] (AR v2)
Copy OK

Track 20

Filename E:\Lossless\VA\+VA - The 60s 70s 80s Love Album\VA - The 70s Love Album (2017, CRIMCD591, UK, CD)\CD3\20 - Dolly Parton - I Will Always Love You.wav

Peak level 85.1 %
Extraction speed 4.5 X
Track quality 99.9 %
Test CRC 7E413388
Copy CRC 7E413388
Accurately ripped (confidence 2) [B613282A] (AR v2)
Copy OK


All tracks accurately ripped

No errors occurred

End of status report

–– CUETools DB Plugin V2.1.6

[CTDB TOCID: fpNqFWKE8kr7FdEv0SHBId8yp2o-] database access error: Время ожидания операции истекло


==== Log checksum 695B680A50A8024156A097C5A9506F37E43B2AB92B53E223D33196A3257AA32B ====

Thanks to the Original ripper dalaylama !

VA - The 80s Love Album (2017)

VA - Love Album Collection: The 60s Love Album / The 70s Love Album / The 80s Love Album (2017)

VA - The 80s Love Album (2017)
EAC Rip | FLAC (tracks+log+.cue) | Artwork included | 03:57:09 | 1,56 Gb
Pop, Rock, Soul | Label: Crimson, Sony Music

Tracklist:
Disc 1
1. Joyce Sims – Come Into My Life
2. Dionne Warwick – Heartbreaker
3. Air Supply – All Out Of Love
4. Gloria Estefan – Can't Stay Away From You
5. Marvin Gaye – Sexual Healing
6. Billy Ocean – Suddenly
7. Cyndi Lauper – True Colours
8. Michael Bolton – How Am I Supposed To Live Without You
9. Donna Summer – The Woman In Me
10. Five Star – Rain Or Shine
11. Lisa Stansfield – All Around The World
12. The S.O.S. Band – Just Be Good To Me
13. Leo Sayer – More Than I Can Say
14. Phyllis Nelson – Move Closer
15. Odyssey – If You're Lookin' For A Way Out
16. Amii Stewart – Friends
17. Champaign – How 'Bout Us
18. Luther Vandross – So Amazing
19. Gene Chandler – Does She Have A Friend
20. Sugar Minott – Good Thing Going (We've Got A Good Thing Going)

Disc 2
1. Paul Young – Every Time You Go Away
2. Fairground Attraction – Perfect
3. Eighth Wonder – Cross My Heart
4. Bangles – Eternal Flame
5. Belinda Carlisle – I Get Weak
6. Nick Heyward – Whistle Down The Wind
7. The Lotus Eaters – The First Picture Of You
8. Dee C. Lee – See The Day
9. Fiction Factory – (Feels Like) Heaven
10. Terence Trent D'Arby – Wishing Well
11. Deacon Blue – When Will You (Make My Telephone Ring)
12. Haircut 100 – Love Plus One
13. Boy Meets Girl – Waiting For A Star To Fall
14. Daryl Hall & John Oates – One On One
15. H2O – I Dream To Sleep
16. Martika – More Than You Know
17. Will To Power – Baby I Love Your Way - Freebird
18. Rick Springfield – State Of The Heart
19. Owen Paul – My Favourite Waste Of Time
20. Taylor Dayne – Tell It To My Heart

Disc 3
1. REO Speedwagon – Keep On Loving You
2. Toto – I Won't Hold You Back
3. Journey – Open Arms
4. Europe – Carrie
5. Bonnie Tyler – Total Eclipse Of The Heart
6. Mr. Mister – Broken Wings
7. Bros – Cat Among The Pigeons
8. Frankie Knuckles – Your Love
9. Farley "Jackmaster" Funk – Love Can't Turn Around
10. The Jacksons – Lovely One
11. Cherrelle – I Didn't Mean To Turn You On
12. Alexander O'Neal – If You Were Here Tonight
13. Pointer Sisters – Slow Hand
14. Jermaine Jackson – Do What You Do
15. Average White Band – Let's Go Round Again
16. Kate Robbins And Beyond – More Than In Love
17. The Nolans – Don't Love Me Too Hard
18. Dolly Parton & Kenny Rogers – Islands In The Stream
19. Showaddywaddy – Why Do Lovers Break Each Others Hearts
20. Chas And Dave – Ain't No Pleasing You

Exact Audio Copy V1.3 from 2. September 2016

EAC extraction logfile from 23. March 2019, 10:55

Various Artists / The 80s Love Album

Used drive : ASUS DRW-24D5MT Adapter: 1 ID: 0

Read mode : Secure
Utilize accurate stream : Yes
Defeat audio cache : Yes
Make use of C2 pointers : No

Read offset correction : 6
Overread into Lead-In and Lead-Out : No
Fill up missing offset samples with silence : Yes
Delete leading and trailing silent blocks : No
Null samples used in CRC calculations : Yes
Used interface : Native Win32 interface for Win NT & 2000
Gap handling : Appended to previous track

Used output format : User Defined Encoder
Selected bitrate : 896 kBit/s
Quality : High
Add ID3 tag : No
Command line compressor : C:\Program Files (x86)\Exact Audio Copy\FLAC\FLAC.EXE
Additional command line options : -8 -V -T "ARTIST=%artist%" -T "TITLE=%title%" -T "ALBUM=%albumtitle%" -T "DATE=%year%" -T "TRACKNUMBER=%tracknr%" -T "GENRE=%genre%" -T "COMMENT=%comment%" -T "BAND=%albuminterpret%" -T "ALBUMARTIST=%albuminterpret%" -T "COMPOSER=%composer%" %haslyrics%–tag-from-file=LYRICS="%lyricsfile%"%haslyrics% -T "DISCNUMBER=%cdnumber%" -T "TOTALDISCS=%totalcds%" -T "TOTALTRACKS=%numtracks%" %hascover%–picture="%coverfile%"%hascover% %source% -o %dest%


TOC of the extracted CD

Track | Start | Length | Start sector | End sector
––––––––––––––––––––––––––––-
1 | 0:00.00 | 3:44.18 | 0 | 16817
2 | 3:44.18 | 4:14.46 | 16818 | 35913
3 | 7:58.64 | 3:51.31 | 35914 | 53269
4 | 11:50.20 | 3:56.02 | 53270 | 70971
5 | 15:46.22 | 3:58.54 | 70972 | 88875
6 | 19:45.01 | 3:50.17 | 88876 | 106142
7 | 23:35.18 | 3:46.50 | 106143 | 123142
8 | 27:21.68 | 4:12.69 | 123143 | 142111
9 | 31:34.62 | 3:53.07 | 142112 | 159593
10 | 35:27.69 | 3:56.07 | 159594 | 177300
11 | 39:24.01 | 4:21.22 | 177301 | 196897
12 | 43:45.23 | 4:08.59 | 196898 | 215556
13 | 47:54.07 | 3:35.23 | 215557 | 231704
14 | 51:29.30 | 4:31.68 | 231705 | 252097
15 | 56:01.23 | 4:28.38 | 252098 | 272235
16 | 60:29.61 | 4:45.62 | 272236 | 293672
17 | 65:15.48 | 3:18.27 | 293673 | 308549
18 | 68:34.00 | 3:35.26 | 308550 | 324700
19 | 72:09.26 | 4:10.65 | 324701 | 343515
20 | 76:20.16 | 3:32.74 | 343516 | 359489


Track 1

Filename E:\Lossless\VA\+VA - The 60s 70s 80s Love Album\VA - The 80s Love Album (2017, CRIMCD592, UK, CD)\CD1\01 - Joyce Sims - Come Into My Life.wav

Pre-gap length 0:00:02.00

Peak level 89.6 %
Extraction speed 4.7 X
Track quality 100.0 %
Test CRC 6555C8F2
Copy CRC 6555C8F2
Accurately ripped (confidence 3) [931689C8] (AR v2)
Copy OK

Track 2

Filename E:\Lossless\VA\+VA - The 60s 70s 80s Love Album\VA - The 80s Love Album (2017, CRIMCD592, UK, CD)\CD1\02 - Dionne Warwick - Heartbreaker.wav

Peak level 94.4 %
Extraction speed 4.7 X
Track quality 99.9 %
Test CRC 7E0A644F
Copy CRC 7E0A644F
Accurately ripped (confidence 3) [4DB6F7E0] (AR v2)
Copy OK

Track 3

Filename E:\Lossless\VA\+VA - The 60s 70s 80s Love Album\VA - The 80s Love Album (2017, CRIMCD592, UK, CD)\CD1\03 - Air Supply - All Out Of Love.wav

Peak level 91.2 %
Extraction speed 4.9 X
Track quality 99.9 %
Test CRC 2D5E29BE
Copy CRC 2D5E29BE
Accurately ripped (confidence 3) [ECCE605C] (AR v2)
Copy OK

Track 4

Filename E:\Lossless\VA\+VA - The 60s 70s 80s Love Album\VA - The 80s Love Album (2017, CRIMCD592, UK, CD)\CD1\04 - Gloria Estefan & Miami Sound Machine - Can't Stay Away From You.wav

Peak level 74.1 %
Extraction speed 5.2 X
Track quality 99.9 %
Test CRC 1DF4413F
Copy CRC 1DF4413F
Accurately ripped (confidence 3) [3F720EEF] (AR v2)
Copy OK

Track 5

Filename E:\Lossless\VA\+VA - The 60s 70s 80s Love Album\VA - The 80s Love Album (2017, CRIMCD592, UK, CD)\CD1\05 - Marvin Gaye - Sexual Healing.wav

Peak level 91.2 %
Extraction speed 5.5 X
Track quality 99.9 %
Test CRC 8045F8BD
Copy CRC 8045F8BD
Accurately ripped (confidence 3) [68A5D324] (AR v2)
Copy OK

Track 6

Filename E:\Lossless\VA\+VA - The 60s 70s 80s Love Album\VA - The 80s Love Album (2017, CRIMCD592, UK, CD)\CD1\06 - Billy Ocean - Suddenly.wav

Peak level 94.4 %
Extraction speed 6.5 X
Track quality 100.0 %
Test CRC 2944FD0A
Copy CRC 2944FD0A
Accurately ripped (confidence 3) [487EB4CF] (AR v2)
Copy OK

Track 7

Filename E:\Lossless\VA\+VA - The 60s 70s 80s Love Album\VA - The 80s Love Album (2017, CRIMCD592, UK, CD)\CD1\07 - Cyndi Lauper - True Colours.wav

Peak level 94.4 %
Extraction speed 6.7 X
Track quality 100.0 %
Test CRC 5287CACA
Copy CRC 5287CACA
Accurately ripped (confidence 3) [0E3F6DF9] (AR v2)
Copy OK

Track 8

Filename E:\Lossless\VA\+VA - The 60s 70s 80s Love Album\VA - The 80s Love Album (2017, CRIMCD592, UK, CD)\CD1\08 - Michael Bolton - How Am I Supposed To Live Without You.wav

Peak level 85.1 %
Extraction speed 7.1 X
Track quality 100.0 %
Test CRC 8EA94459
Copy CRC 8EA94459
Accurately ripped (confidence 3) [1B7CE509] (AR v2)
Copy OK

Track 9

Filename E:\Lossless\VA\+VA - The 60s 70s 80s Love Album\VA - The 80s Love Album (2017, CRIMCD592, UK, CD)\CD1\09 - Donna Summer - The Woman In Me.wav

Peak level 94.4 %
Extraction speed 6.6 X
Track quality 100.0 %
Test CRC B650D12E
Copy CRC B650D12E
Accurately ripped (confidence 3) [5E1FC358] (AR v2)
Copy OK

Track 10

Filename E:\Lossless\VA\+VA - The 60s 70s 80s Love Album\VA - The 80s Love Album (2017, CRIMCD592, UK, CD)\CD1\10 - Five Star - Rain Or Shine.wav

Peak level 94.4 %
Extraction speed 7.6 X
Track quality 100.0 %
Test CRC CF8045AB
Copy CRC CF8045AB
Accurately ripped (confidence 3) [ACCCDCBC] (AR v2)
Copy OK

Track 11

Filename E:\Lossless\VA\+VA - The 60s 70s 80s Love Album\VA - The 80s Love Album (2017, CRIMCD592, UK, CD)\CD1\11 - Lisa Stansfield - All Around The World.wav

Peak level 94.4 %
Extraction speed 6.2 X
Track quality 99.9 %
Test CRC 6894BE6A
Copy CRC 6894BE6A
Accurately ripped (confidence 3) [14A22759] (AR v2)
Copy OK

Track 12

Filename E:\Lossless\VA\+VA - The 60s 70s 80s Love Album\VA - The 80s Love Album (2017, CRIMCD592, UK, CD)\CD1\12 - S.O.S. Band - Just Be Good To Me.wav

Peak level 85.1 %
Extraction speed 8.0 X
Track quality 100.0 %
Test CRC 9BD6CE5D
Copy CRC 9BD6CE5D
Accurately ripped (confidence 3) [930511B2] (AR v2)
Copy OK

Track 13

Filename E:\Lossless\VA\+VA - The 60s 70s 80s Love Album\VA - The 80s Love Album (2017, CRIMCD592, UK, CD)\CD1\13 - Leo Sayer - More Than I Can Say.wav

Peak level 94.4 %
Extraction speed 8.1 X
Track quality 100.0 %
Test CRC D27F0637
Copy CRC D27F0637
Accurately ripped (confidence 3) [4AC54441] (AR v2)
Copy OK

Track 14

Filename E:\Lossless\VA\+VA - The 60s 70s 80s Love Album\VA - The 80s Love Album (2017, CRIMCD592, UK, CD)\CD1\14 - Phyllis Nelson - Move Closer.wav

Peak level 94.3 %
Extraction speed 7.6 X
Track quality 99.9 %
Test CRC AB89BACE
Copy CRC AB89BACE
Accurately ripped (confidence 3) [AEEB1DA8] (AR v2)
Copy OK

Track 15

Filename E:\Lossless\VA\+VA - The 60s 70s 80s Love Album\VA - The 80s Love Album (2017, CRIMCD592, UK, CD)\CD1\15 - Odyssey - If You're Lookin' For A Way Out.wav

Peak level 94.4 %
Extraction speed 8.8 X
Track quality 100.0 %
Test CRC 549D9DA2
Copy CRC 549D9DA2
Accurately ripped (confidence 3) [B482CD5C] (AR v2)
Copy OK

Track 16

Filename E:\Lossless\VA\+VA - The 60s 70s 80s Love Album\VA - The 80s Love Album (2017, CRIMCD592, UK, CD)\CD1\16 - Amii Stewart - Friends.wav

Peak level 79.4 %
Extraction speed 8.0 X
Track quality 99.9 %
Test CRC F86C7A21
Copy CRC F86C7A21
Accurately ripped (confidence 3) [DAC80223] (AR v2)
Copy OK

Track 17

Filename E:\Lossless\VA\+VA - The 60s 70s 80s Love Album\VA - The 80s Love Album (2017, CRIMCD592, UK, CD)\CD1\17 - Champaign - How 'Bout Us.wav

Peak level 94.4 %
Extraction speed 8.8 X
Track quality 100.0 %
Test CRC D72216BD
Copy CRC D72216BD
Accurately ripped (confidence 3) [60778613] (AR v2)
Copy OK

Track 18

Filename E:\Lossless\VA\+VA - The 60s 70s 80s Love Album\VA - The 80s Love Album (2017, CRIMCD592, UK, CD)\CD1\18 - Luther Vandross - So Amazing.wav

Peak level 85.1 %
Extraction speed 9.2 X
Track quality 100.0 %
Test CRC BB0B302D
Copy CRC BB0B302D
Accurately ripped (confidence 3) [AC0217D3] (AR v2)
Copy OK

Track 19

Filename E:\Lossless\VA\+VA - The 60s 70s 80s Love Album\VA - The 80s Love Album (2017, CRIMCD592, UK, CD)\CD1\19 - Gene Chandler - Does She Have A Friend.wav

Peak level 93.8 %
Extraction speed 9.4 X
Track quality 100.0 %
Test CRC 3834FD7A
Copy CRC 3834FD7A
Accurately ripped (confidence 3) [5519FFC8] (AR v2)
Copy OK

Track 20

Filename E:\Lossless\VA\+VA - The 60s 70s 80s Love Album\VA - The 80s Love Album (2017, CRIMCD592, UK, CD)\CD1\20 - Sugar Minott - Good Thing Going (We've Got A Good Thing Going).wav

Peak level 91.2 %
Extraction speed 9.2 X
Track quality 100.0 %
Test CRC C1646B6C
Copy CRC C1646B6C
Accurately ripped (confidence 3) [B7D3624F] (AR v2)
Copy OK


All tracks accurately ripped

No errors occurred

End of status report

–– AcoustID Plugin V1.2.0

Total fingerprints: 20


–– CUETools DB Plugin V2.1.6

[CTDB TOCID: gtPSk8czC6AMni5jOBOJgVanJtM-] database access error: Время ожидания операции истекло


==== Log checksum 54C212902AD80B689DDEF9ADDB74F96FB13C6DD62EF6449422518117C127DD6C ====

Exact Audio Copy V1.3 from 2. September 2016

EAC extraction logfile from 23. March 2019, 11:39

Various / The 80s Love Album - CD2

Used drive : ASUS DRW-24D5MT Adapter: 1 ID: 0

Read mode : Secure
Utilize accurate stream : Yes
Defeat audio cache : Yes
Make use of C2 pointers : No

Read offset correction : 6
Overread into Lead-In and Lead-Out : No
Fill up missing offset samples with silence : Yes
Delete leading and trailing silent blocks : No
Null samples used in CRC calculations : Yes
Used interface : Native Win32 interface for Win NT & 2000
Gap handling : Appended to previous track

Used output format : User Defined Encoder
Selected bitrate : 896 kBit/s
Quality : High
Add ID3 tag : No
Command line compressor : C:\Program Files (x86)\Exact Audio Copy\FLAC\FLAC.EXE
Additional command line options : -8 -V -T "ARTIST=%artist%" -T "TITLE=%title%" -T "ALBUM=%albumtitle%" -T "DATE=%year%" -T "TRACKNUMBER=%tracknr%" -T "GENRE=%genre%" -T "COMMENT=%comment%" -T "BAND=%albuminterpret%" -T "ALBUMARTIST=%albuminterpret%" -T "COMPOSER=%composer%" %haslyrics%–tag-from-file=LYRICS="%lyricsfile%"%haslyrics% -T "DISCNUMBER=%cdnumber%" -T "TOTALDISCS=%totalcds%" -T "TOTALTRACKS=%numtracks%" %hascover%–picture="%coverfile%"%hascover% %source% -o %dest%


TOC of the extracted CD

Track | Start | Length | Start sector | End sector
––––––––––––––––––––––––––––-
1 | 0:00.00 | 3:47.68 | 0 | 17092
2 | 3:47.68 | 3:37.58 | 17093 | 33425
3 | 7:25.51 | 3:28.23 | 33426 | 49048
4 | 10:53.74 | 3:56.34 | 49049 | 66782
5 | 14:50.33 | 4:16.03 | 66783 | 85985
6 | 19:06.36 | 3:41.39 | 85986 | 102599
7 | 22:48.00 | 3:40.28 | 102600 | 119127
8 | 26:28.28 | 4:38.59 | 119128 | 140036
9 | 31:07.12 | 3:30.05 | 140037 | 155791
10 | 34:37.17 | 3:32.52 | 155792 | 171743
11 | 38:09.69 | 4:21.22 | 171744 | 191340
12 | 42:31.16 | 3:33.60 | 191341 | 207375
13 | 46:05.01 | 4:32.34 | 207376 | 227809
14 | 50:37.35 | 4:07.47 | 227810 | 246381
15 | 54:45.07 | 3:55.33 | 246382 | 264039
16 | 58:40.40 | 4:03.18 | 264040 | 282282
17 | 62:43.58 | 4:07.17 | 282283 | 300824
18 | 66:51.00 | 3:51.15 | 300825 | 318164
19 | 70:42.15 | 3:27.60 | 318165 | 333749
20 | 74:10.00 | 3:34.22 | 333750 | 349821


Track 1

Filename E:\Lossless\VA\+VA - The 60s 70s 80s Love Album\VA - The 80s Love Album (2017, CRIMCD592, UK, CD)\CD2\01 Paul Young - Every Time You Go Away.wav

Pre-gap length 0:00:02.00

Peak level 79.4 %
Extraction speed 4.7 X
Track quality 100.0 %
Test CRC B56A1804
Copy CRC B56A1804
Accurately ripped (confidence 3) [176BC070] (AR v2)
Copy OK

Track 2

Filename E:\Lossless\VA\+VA - The 60s 70s 80s Love Album\VA - The 80s Love Album (2017, CRIMCD592, UK, CD)\CD2\02 Fairground Attraction - Perfect.wav

Peak level 94.4 %
Extraction speed 4.4 X
Track quality 99.9 %
Test CRC A5C215DF
Copy CRC A5C215DF
Accurately ripped (confidence 3) [12FC1028] (AR v2)
Copy OK

Track 3

Filename E:\Lossless\VA\+VA - The 60s 70s 80s Love Album\VA - The 80s Love Album (2017, CRIMCD592, UK, CD)\CD2\03 Eighth Wonder - Cross My Heart.wav

Peak level 79.3 %
Extraction speed 5.3 X
Track quality 100.0 %
Test CRC A7A1E023
Copy CRC A7A1E023
Accurately ripped (confidence 3) [401423DE] (AR v2)
Copy OK

Track 4

Filename E:\Lossless\VA\+VA - The 60s 70s 80s Love Album\VA - The 80s Love Album (2017, CRIMCD592, UK, CD)\CD2\04 The Bangles - Eternal Flame.wav

Peak level 85.1 %
Extraction speed 5.7 X
Track quality 100.0 %
Test CRC 53640D12
Copy CRC 53640D12
Accurately ripped (confidence 3) [F615ADB0] (AR v2)
Copy OK

Track 5

Filename E:\Lossless\VA\+VA - The 60s 70s 80s Love Album\VA - The 80s Love Album (2017, CRIMCD592, UK, CD)\CD2\05 Belinda Carlisle - I Get Weak.wav

Peak level 82.2 %
Extraction speed 6.2 X
Track quality 100.0 %
Test CRC 9D2A3670
Copy CRC 9D2A3670
Accurately ripped (confidence 3) [B5F1FEA8] (AR v2)
Copy OK

Track 6

Filename E:\Lossless\VA\+VA - The 60s 70s 80s Love Album\VA - The 80s Love Album (2017, CRIMCD592, UK, CD)\CD2\06 Nick Heyward - Whistle Down The Wind.wav

Peak level 79.4 %
Extraction speed 6.1 X
Track quality 100.0 %
Test CRC A6D608BD
Copy CRC A6D608BD
Accurately ripped (confidence 3) [11A842E3] (AR v2)
Copy OK

Track 7

Filename E:\Lossless\VA\+VA - The 60s 70s 80s Love Album\VA - The 80s Love Album (2017, CRIMCD592, UK, CD)\CD2\07 Lotus Eaters - The First Picture Of You.wav

Peak level 82.2 %
Extraction speed 6.5 X
Track quality 100.0 %
Test CRC CBD7C41B
Copy CRC CBD7C41B
Accurately ripped (confidence 3) [E212A5F5] (AR v2)
Copy OK

Track 8

Filename E:\Lossless\VA\+VA - The 60s 70s 80s Love Album\VA - The 80s Love Album (2017, CRIMCD592, UK, CD)\CD2\08 Dee C Lee - See The Day.wav

Peak level 94.4 %
Extraction speed 7.2 X
Track quality 100.0 %
Test CRC 749A93BA
Copy CRC 749A93BA
Accurately ripped (confidence 3) [DC01F695] (AR v2)
Copy OK

Track 9

Filename E:\Lossless\VA\+VA - The 60s 70s 80s Love Album\VA - The 80s Love Album (2017, CRIMCD592, UK, CD)\CD2\09 The Fiction Factory - Feels Like Heaven.wav

Peak level 88.0 %
Extraction speed 7.1 X
Track quality 100.0 %
Test CRC 0A1D1E98
Copy CRC 0A1D1E98
Accurately ripped (confidence 3) [99E5D837] (AR v2)
Copy OK

Track 10

Filename E:\Lossless\VA\+VA - The 60s 70s 80s Love Album\VA - The 80s Love Album (2017, CRIMCD592, UK, CD)\CD2\10 Terence Trent D'Arby - Wishing Well.wav

Peak level 89.1 %
Extraction speed 7.4 X
Track quality 100.0 %
Test CRC 95CF3E7F
Copy CRC 95CF3E7F
Accurately ripped (confidence 3) [9163D38E] (AR v2)
Copy OK

Track 11

Filename E:\Lossless\VA\+VA - The 60s 70s 80s Love Album\VA - The 80s Love Album (2017, CRIMCD592, UK, CD)\CD2\11 Deacon Blue - When Will You Make My Telephone Ring!.wav

Peak level 94.4 %
Extraction speed 7.0 X
Track quality 99.9 %
Test CRC 12D55005
Copy CRC 12D55005
Accurately ripped (confidence 3) [D7E55EC0] (AR v2)
Copy OK

Track 12

Filename E:\Lossless\VA\+VA - The 60s 70s 80s Love Album\VA - The 80s Love Album (2017, CRIMCD592, UK, CD)\CD2\12 Haircut 100 - Love Plus One.wav

Peak level 94.4 %
Extraction speed 6.8 X
Track quality 99.9 %
Test CRC 069CA2E4
Copy CRC 069CA2E4
Accurately ripped (confidence 3) [FD9C3F1F] (AR v2)
Copy OK

Track 13

Filename E:\Lossless\VA\+VA - The 60s 70s 80s Love Album\VA - The 80s Love Album (2017, CRIMCD592, UK, CD)\CD2\13 Boy Meets Girl - Waiting For A Star To Fall.wav

Peak level 91.2 %
Extraction speed 8.3 X
Track quality 100.0 %
Test CRC 492E90A4
Copy CRC 492E90A4
Accurately ripped (confidence 3) [8F4178C8] (AR v2)
Copy OK

Track 14

Filename E:\Lossless\VA\+VA - The 60s 70s 80s Love Album\VA - The 80s Love Album (2017, CRIMCD592, UK, CD)\CD2\14 Hall & Oates - One On One.wav

Peak level 94.4 %
Extraction speed 7.5 X
Track quality 99.9 %
Test CRC 9D6654F8
Copy CRC 9D6654F8
Accurately ripped (confidence 3) [EFB1C97B] (AR v2)
Copy OK

Track 15

Filename E:\Lossless\VA\+VA - The 60s 70s 80s Love Album\VA - The 80s Love Album (2017, CRIMCD592, UK, CD)\CD2\15 H20 - Dream To Sleep.wav

Peak level 94.4 %
Extraction speed 8.5 X
Track quality 100.0 %
Test CRC 81313FA5
Copy CRC 81313FA5
Accurately ripped (confidence 3) [279FD373] (AR v2)
Copy OK

Track 16

Filename E:\Lossless\VA\+VA - The 60s 70s 80s Love Album\VA - The 80s Love Album (2017, CRIMCD592, UK, CD)\CD2\16 Martika - More Than You Know.wav

Peak level 79.4 %
Extraction speed 8.9 X
Track quality 100.0 %
Test CRC 40248C2C
Copy CRC 40248C2C
Accurately ripped (confidence 3) [96A37350] (AR v2)
Copy OK

Track 17

Filename E:\Lossless\VA\+VA - The 60s 70s 80s Love Album\VA - The 80s Love Album (2017, CRIMCD592, UK, CD)\CD2\17 Will To Power - Baby I Love Your Way [Freebird] [Free Baby].wav

Peak level 94.4 %
Extraction speed 9.0 X
Track quality 100.0 %
Test CRC 87E6CB7B
Copy CRC 87E6CB7B
Accurately ripped (confidence 3) [C7A33698] (AR v2)
Copy OK

Track 18

Filename E:\Lossless\VA\+VA - The 60s 70s 80s Love Album\VA - The 80s Love Album (2017, CRIMCD592, UK, CD)\CD2\18 Rick Springfield - State Of The Heart.wav

Peak level 94.4 %
Extraction speed 9.1 X
Track quality 100.0 %
Test CRC 3E9897C2
Copy CRC 3E9897C2
Accurately ripped (confidence 3) [FFF92D1B] (AR v2)
Copy OK

Track 19

Filename E:\Lossless\VA\+VA - The 60s 70s 80s Love Album\VA - The 80s Love Album (2017, CRIMCD592, UK, CD)\CD2\19 Owen Paul - My Favourite Waste Of Time.wav

Peak level 94.4 %
Extraction speed 8.0 X
Track quality 99.9 %
Test CRC 452A907E
Copy CRC 452A907E
Accurately ripped (confidence 3) [B7E6AEE0] (AR v2)
Copy OK

Track 20

Filename E:\Lossless\VA\+VA - The 60s 70s 80s Love Album\VA - The 80s Love Album (2017, CRIMCD592, UK, CD)\CD2\20 Taylor Dayne - Tell It To My Heart.wav

Peak level 90.0 %
Extraction speed 9.3 X
Track quality 100.0 %
Test CRC 5EB191AC
Copy CRC 5EB191AC
Accurately ripped (confidence 3) [F35D1B0D] (AR v2)
Copy OK


All tracks accurately ripped

No errors occurred

End of status report

–– AcoustID Plugin V1.2.0

Total fingerprints: 20


–– CUETools DB Plugin V2.1.6

[CTDB TOCID: ZxdjyAHvpd1fT_xHQg69.SJRvWo-] database access error: Время ожидания операции истекло


==== Log checksum 016CC03D8633918E6802237388207002C22059DB9EA42E5C98F08D2C6FDC4564 ====

Exact Audio Copy V1.0 beta 6 from 9. April 2015

EAC extraction logfile from 23. March 2019, 12:21

Various Artists / The 80s Love Album CD3

Used drive : TSSTcorpCD/DVDW SH-S182D Adapter: 1 ID: 1

Read mode : Secure
Utilize accurate stream : Yes
Defeat audio cache : Yes
Make use of C2 pointers : No

Read offset correction : 6
Overread into Lead-In and Lead-Out : No
Fill up missing offset samples with silence : Yes
Delete leading and trailing silent blocks : No
Null samples used in CRC calculations : Yes
Used interface : Native Win32 interface for Win NT & 2000
Gap handling : Appended to previous track

Used output format : User Defined Encoder
Selected bitrate : 896 kBit/s
Quality : High
Add ID3 tag : No
Command line compressor : C:\Program Files (x86)\Exact Audio Copy\FLAC\FLAC.EXE
Additional command line options : -8 -V -T "ARTIST=%artist%" -T "TITLE=%title%" -T "ALBUM=%albumtitle%" -T "DATE=%year%" -T "TRACKNUMBER=%tracknr%" -T "GENRE=%genre%" -T "COMMENT=%comment%" -T "BAND=%albuminterpret%" -T "ALBUMARTIST=%albuminterpret%" -T "COMPOSER=%composer%" %haslyrics%–tag-from-file=LYRICS="%lyricsfile%"%haslyrics% -T "DISCNUMBER=%cdnumber%" -T "TOTALDISCS=%totalcds%" -T "TOTALTRACKS=%numtracks%" %hascover%–picture="%coverfile%"%hascover% %source% -o %dest%


TOC of the extracted CD

Track | Start | Length | Start sector | End sector
––––––––––––––––––––––––––––-
1 | 0:00.00 | 3:22.17 | 0 | 15166
2 | 3:22.17 | 4:54.69 | 15167 | 37285
3 | 8:17.11 | 3:18.72 | 37286 | 52207
4 | 11:36.08 | 4:32.22 | 52208 | 72629
5 | 16:08.30 | 4:28.66 | 72630 | 92795
6 | 20:37.21 | 4:24.28 | 92796 | 112623
7 | 25:01.49 | 4:07.51 | 112624 | 131199
8 | 29:09.25 | 3:42.08 | 131200 | 147857
9 | 32:51.33 | 3:43.46 | 147858 | 164628
10 | 36:35.04 | 4:54.14 | 164629 | 186692
11 | 41:29.18 | 4:00.06 | 186693 | 204698
12 | 45:29.24 | 3:45.13 | 204699 | 221586
13 | 49:14.37 | 3:49.07 | 221587 | 238768
14 | 53:03.44 | 4:18.05 | 238769 | 258123
15 | 57:21.49 | 3:24.12 | 258124 | 273435
16 | 60:45.61 | 3:52.00 | 273436 | 290835
17 | 64:37.61 | 3:44.32 | 290836 | 307667
18 | 68:22.18 | 4:11.09 | 307668 | 326501
19 | 72:33.27 | 2:48.37 | 326502 | 339138
20 | 75:21.64 | 4:10.13 | 339139 | 357901


Track 1

Filename E:\Lossless\VA\+VA - The 60s 70s 80s Love Album\VA - The 80s Love Album (2017, CRIMCD592, UK, CD)\CD3\01 - REO Speedwagon - Keep On Loving You.wav

Pre-gap length 0:00:02.00

Peak level 94.4 %
Extraction speed 4.6 X
Track quality 100.0 %
Test CRC 4D8C7C97
Copy CRC 4D8C7C97
Accurately ripped (confidence 3) [586A136E] (AR v2)
Copy OK

Track 2

Filename E:\Lossless\VA\+VA - The 60s 70s 80s Love Album\VA - The 80s Love Album (2017, CRIMCD592, UK, CD)\CD3\02 - Toto - I Won't Hold You Back.wav

Peak level 94.4 %
Extraction speed 5.3 X
Track quality 100.0 %
Test CRC 36DF86B5
Copy CRC 36DF86B5
Accurately ripped (confidence 3) [C1FC6E34] (AR v2)
Copy OK

Track 3

Filename E:\Lossless\VA\+VA - The 60s 70s 80s Love Album\VA - The 80s Love Album (2017, CRIMCD592, UK, CD)\CD3\03 - Journey - Open Arms.wav

Peak level 94.4 %
Extraction speed 5.4 X
Track quality 100.0 %
Test CRC 7E605986
Copy CRC 7E605986
Accurately ripped (confidence 3) [0DFE3453] (AR v2)
Copy OK

Track 4

Filename E:\Lossless\VA\+VA - The 60s 70s 80s Love Album\VA - The 80s Love Album (2017, CRIMCD592, UK, CD)\CD3\04 - Europe - Carrie.wav

Peak level 94.4 %
Extraction speed 6.0 X
Track quality 100.0 %
Test CRC FC2386CC
Copy CRC FC2386CC
Accurately ripped (confidence 3) [E5E87B36] (AR v2)
Copy OK

Track 5

Filename E:\Lossless\VA\+VA - The 60s 70s 80s Love Album\VA - The 80s Love Album (2017, CRIMCD592, UK, CD)\CD3\05 - Bonnie Tyler - Total Eclipse Of The Heart.wav

Peak level 79.5 %
Extraction speed 5.7 X
Track quality 99.9 %
Test CRC 7D64FDEC
Copy CRC 7D64FDEC
Accurately ripped (confidence 3) [DCFC7CDC] (AR v2)
Copy OK

Track 6

Filename E:\Lossless\VA\+VA - The 60s 70s 80s Love Album\VA - The 80s Love Album (2017, CRIMCD592, UK, CD)\CD3\06 - Mr. Mister - Broken Wings.wav

Peak level 71.7 %
Extraction speed 6.6 X
Track quality 100.0 %
Test CRC E84BADF0
Copy CRC E84BADF0
Accurately ripped (confidence 3) [77EF3AD9] (AR v2)
Copy OK

Track 7

Filename E:\Lossless\VA\+VA - The 60s 70s 80s Love Album\VA - The 80s Love Album (2017, CRIMCD592, UK, CD)\CD3\07 - Bros - Cat Among The Pigeons.wav

Peak level 94.4 %
Extraction speed 6.1 X
Track quality 99.9 %
Test CRC CEBC0552
Copy CRC CEBC0552
Accurately ripped (confidence 3) [341224CF] (AR v2)
Copy OK

Track 8

Filename E:\Lossless\VA\+VA - The 60s 70s 80s Love Album\VA - The 80s Love Album (2017, CRIMCD592, UK, CD)\CD3\08 - Frankie Knuckles - Your Love.wav

Peak level 80.3 %
Extraction speed 6.2 X
Track quality 99.9 %
Test CRC 2F32F105
Copy CRC 2F32F105
Accurately ripped (confidence 3) [A8174ADD] (AR v2)
Copy OK

Track 9

Filename E:\Lossless\VA\+VA - The 60s 70s 80s Love Album\VA - The 80s Love Album (2017, CRIMCD592, UK, CD)\CD3\09 - Farley 'Jackmaster' Funk - Love Can't Turn Around.wav

Peak level 79.4 %
Extraction speed 7.1 X
Track quality 100.0 %
Test CRC 3F9D4F7F
Copy CRC 3F9D4F7F
Accurately ripped (confidence 3) [6F88BD9A] (AR v2)
Copy OK

Track 10

Filename E:\Lossless\VA\+VA - The 60s 70s 80s Love Album\VA - The 80s Love Album (2017, CRIMCD592, UK, CD)\CD3\10 - The Jacksons - Lovely One.wav

Peak level 94.4 %
Extraction speed 7.9 X
Track quality 100.0 %
Test CRC 902CA7CB
Copy CRC 902CA7CB
Accurately ripped (confidence 3) [6905DCCD] (AR v2)
Copy OK

Track 11

Filename E:\Lossless\VA\+VA - The 60s 70s 80s Love Album\VA - The 80s Love Album (2017, CRIMCD592, UK, CD)\CD3\11 - Cherrelle - I Didn't Mean To Turn You On.wav

Peak level 77.3 %
Extraction speed 7.9 X
Track quality 100.0 %
Test CRC C50EDD3B
Copy CRC C50EDD3B
Accurately ripped (confidence 3) [1DC7D87B] (AR v2)
Copy OK

Track 12

Filename E:\Lossless\VA\+VA - The 60s 70s 80s Love Album\VA - The 80s Love Album (2017, CRIMCD592, UK, CD)\CD3\12 - Alexander O'Neal - If You Were Here Tonight.wav

Peak level 94.4 %
Extraction speed 8.0 X
Track quality 100.0 %
Test CRC 98E6E29F
Copy CRC 98E6E29F
Accurately ripped (confidence 3) [33D1043D] (AR v2)
Copy OK

Track 13

Filename E:\Lossless\VA\+VA - The 60s 70s 80s Love Album\VA - The 80s Love Album (2017, CRIMCD592, UK, CD)\CD3\13 - Pointer Sisters - Slow Hand.wav

Peak level 94.4 %
Extraction speed 7.3 X
Track quality 99.9 %
Test CRC 97AEB1A2
Copy CRC 97AEB1A2
Accurately ripped (confidence 3) [F0622F46] (AR v2)
Copy OK

Track 14

Filename E:\Lossless\VA\+VA - The 60s 70s 80s Love Album\VA - The 80s Love Album (2017, CRIMCD592, UK, CD)\CD3\14 - Jermaine Jackson - Do What You Do.wav

Peak level 94.4 %
Extraction speed 8.6 X
Track quality 100.0 %
Test CRC 6E9D438F
Copy CRC 6E9D438F
Accurately ripped (confidence 3) [D3B814AE] (AR v2)
Copy OK

Track 15

Filename E:\Lossless\VA\+VA - The 60s 70s 80s Love Album\VA - The 80s Love Album (2017, CRIMCD592, UK, CD)\CD3\15 - Average White Band - Let's Go Round Again.wav

Peak level 94.2 %
Extraction speed 7.4 X
Track quality 99.9 %
Test CRC 29D4305D
Copy CRC 29D4305D
Accurately ripped (confidence 3) [5DAA176F] (AR v2)
Copy OK

Track 16

Filename E:\Lossless\VA\+VA - The 60s 70s 80s Love Album\VA - The 80s Love Album (2017, CRIMCD592, UK, CD)\CD3\16 - Kate Robbins And Beyond - More Than In Love.wav

Peak level 94.4 %
Extraction speed 8.7 X
Track quality 100.0 %
Test CRC 19E83231
Copy CRC 19E83231
Accurately ripped (confidence 3) [250335D7] (AR v2)
Copy OK

Track 17

Filename E:\Lossless\VA\+VA - The 60s 70s 80s Love Album\VA - The 80s Love Album (2017, CRIMCD592, UK, CD)\CD3\17 - The Nolans - Don't Love Me Too Hard.wav

Peak level 94.4 %
Extraction speed 7.7 X
Track quality 99.9 %
Test CRC ABE80A1F
Copy CRC ABE80A1F
Accurately ripped (confidence 3) [519C5DAC] (AR v2)
Copy OK

Track 18

Filename E:\Lossless\VA\+VA - The 60s 70s 80s Love Album\VA - The 80s Love Album (2017, CRIMCD592, UK, CD)\CD3\18 - Dolly Parton & Kenny Rogers - Islands In The Stream.wav

Peak level 94.4 %
Extraction speed 9.4 X
Track quality 100.0 %
Test CRC 79780141
Copy CRC 79780141
Accurately ripped (confidence 3) [2B24F41B] (AR v2)
Copy OK

Track 19

Filename E:\Lossless\VA\+VA - The 60s 70s 80s Love Album\VA - The 80s Love Album (2017, CRIMCD592, UK, CD)\CD3\19 - Showaddywaddy - Why Do Lovers Break Each Others Hearts.wav

Peak level 75.9 %
Extraction speed 8.9 X
Track quality 100.0 %
Test CRC BA935CD2
Copy CRC BA935CD2
Accurately ripped (confidence 3) [E803CFA7] (AR v2)
Copy OK

Track 20

Filename E:\Lossless\VA\+VA - The 60s 70s 80s Love Album\VA - The 80s Love Album (2017, CRIMCD592, UK, CD)\CD3\20 - Chas And Dave - Ain't No Pleasing You.wav

Peak level 94.4 %
Extraction speed 9.7 X
Track quality 100.0 %
Test CRC BD054855
Copy CRC BD054855
Accurately ripped (confidence 3) [732DE641] (AR v2)
Copy OK


All tracks accurately ripped

No errors occurred

End of status report

–– CUETools DB Plugin V2.1.6

[CTDB TOCID: VIJovqT_.IIk1gKrmO.gNBo3XE8-] database access error: Время ожидания операции истекло


==== Log checksum 2B795764B519F8408C66BE66CA7A5D9A610AC4B241685C4942BCC33FD9F637BC ====

Thanks to the Original ripper dalaylama !