Subcategories

VA - Masterpieces Of Jazz (2019)

Posted By: delpotro
VA - Masterpieces Of Jazz (2019)

VA - Masterpieces Of Jazz (2019)
EAC Rip | FLAC (tracks+log+.cue) - 382 Mb | MP3 CBR 320 kbps - 287 Mb | 02:03:10
Jazz, Swing, Bop | Label: Delta Music

2 CD, 36 tracks including gems from Artie Shaw, Count Basie, Benny Goodman, Chet Baker, Louis Armstrong, Miles Davis and many more!
Tracklist:
CD 1
01. Artie Shaw - Stardust
02. Benny Goodman - King Porter Stomp
03. Gene Krupa - Love In My Heart
04. Harry James - I'm Beginning To See The Light
05. Tommy Dorsey - Boogie Woogie
06. Chick Webb - Stomping At The Savoy
07. Count Basie - One O Clock Jump
08. Fletcher Henderson - St. Louis Shuffle
09. Duke Ellington - It Don't Mean A Thing (If It Ain'T Got That Swing)
10. Glenn Miller - Moonlight Serenade
11. Jimmie Lunceford - Lunceford Special
12. Jimmy Dorsey - Turn Right
13. Earl Hines - Sweet Georgia Brown
14. Charlie Barnet - Echoes Of Harlem
15. Les Brown - You're The Cream In My Coffee
16. Cab Calloway - Nagasaki
17. Nat King Cole & George Shearing - Let There Be Love
18. Louis Prima - Buona Sera

CD 2
01. Artie Shaw - Night And Day
02. Benny Goodman - Sing, Sing, Sing
03. Chet Baker - My Funny Valentine
04. Duke Ellington - Mood Indigo
05. Louis Armstrong - Mack The Knife
06. Louis Armstrong - Jeepers Creepers
07. John Coltrane - Lazy Bird
08. Nat King Cole - Mona Lisa
09. Oscar Peterson - Too Marvelous For Words
10. Dave Brubeck - Blue Rondo A La Turk
11. Woody Herman - At The Woodchopper'S Ball
12. Chris Barber - Petite Fleur
13. Bros Orch Dorsey - The Most Beautiful Girl In The World
14. Humphrey Lyttelton - Bad Penny Blues
15. Nat King & Trio Cole - Route 66
16. Thelonious Monk - Round Midnight
17. Art Blakey & The Jazz Messengers - Moanin'
18. Miles Davis - Rocker

Exact Audio Copy V1.3 from 2. September 2016

EAC extraction logfile from 26. October 2020, 16:30

Various Artists / Masterpieces Of Jazz

Used drive : PLEXTOR PX-891SAF Adapter: 1 ID: 0

Read mode : Secure
Utilize accurate stream : Yes
Defeat audio cache : Yes
Make use of C2 pointers : No

Read offset correction : 6
Overread into Lead-In and Lead-Out : No
Fill up missing offset samples with silence : Yes
Delete leading and trailing silent blocks : No
Null samples used in CRC calculations : Yes
Used interface : Native Win32 interface for Win NT & 2000
Gap handling : Appended to previous track

Used output format : User Defined Encoder
Selected bitrate : 1024 kBit/s
Quality : High
Add ID3 tag : No
Command line compressor : C:\Program Files (x86)\Exact Audio Copy\Flac\flac.exe
Additional command line options : -8 -V -T "ARTIST=%artist%" -T "TITLE=%title%" -T "ALBUM=%albumtitle%" -T "DATE=%year%" -T "TRACKNUMBER=%tracknr%" -T "GENRE=%genre%" -T "PERFORMER=%albuminterpret%" -T "COMPOSER=%composer%" %haslyrics%–tag-from-file=LYRICS="%lyricsfile%"%haslyrics% -T "ALBUMARTIST=%albumartist%" -T "DISCNUMBER=%cdnumber%" -T "TOTALDISCS=%totalcds%" -T "TOTALTRACKS=%numtracks%" -T "COMMENT=%comment%" %source% -o %dest%


TOC of the extracted CD

Track | Start | Length | Start sector | End sector
––––––––––––––––––––––––––––-
1 | 0:00.00 | 3:38.42 | 0 | 16391
2 | 3:38.42 | 3:07.62 | 16392 | 30478
3 | 6:46.29 | 2:14.26 | 30479 | 40554
4 | 9:00.55 | 3:08.22 | 40555 | 54676
5 | 12:09.02 | 3:13.43 | 54677 | 69194
6 | 15:22.45 | 3:09.47 | 69195 | 83416
7 | 18:32.17 | 3:03.04 | 83417 | 97145
8 | 21:35.21 | 3:01.37 | 97146 | 110757
9 | 24:36.58 | 3:11.35 | 110758 | 125117
10 | 27:48.18 | 3:21.61 | 125118 | 140253
11 | 31:10.04 | 2:51.33 | 140254 | 153111
12 | 34:01.37 | 2:26.11 | 153112 | 164072
13 | 36:27.48 | 2:16.21 | 164073 | 174293
14 | 38:43.69 | 3:27.29 | 174294 | 189847
15 | 42:11.23 | 3:05.27 | 189848 | 203749
16 | 45:16.50 | 2:58.08 | 203750 | 217107
17 | 48:14.58 | 2:46.13 | 217108 | 229570
18 | 51:00.71 | 2:58.67 | 229571 | 242987


Track 1

Filename F:\#EAC new\#wav+flac\#New\VA - Masterpieces Of Jazz\cd 1\01. Artie Shaw - Stardust.wav

Pre-gap length 0:00:02.00

Peak level 83.1 %
Extraction speed 5.0 X
Track quality 100.0 %
Test CRC 3710539E
Copy CRC 3710539E
Track not present in AccurateRip database
Copy OK

Track 2

Filename F:\#EAC new\#wav+flac\#New\VA - Masterpieces Of Jazz\cd 1\02. Benny Goodman - King Porter Stomp.wav

Pre-gap length 0:00:01.00

Peak level 90.3 %
Extraction speed 5.3 X
Track quality 100.0 %
Test CRC 6CF70B47
Copy CRC 6CF70B47
Track not present in AccurateRip database
Copy OK

Track 3

Filename F:\#EAC new\#wav+flac\#New\VA - Masterpieces Of Jazz\cd 1\03. Gene Krupa - Love In My Heart.wav

Pre-gap length 0:00:01.00

Peak level 73.5 %
Extraction speed 5.3 X
Track quality 100.0 %
Test CRC E9F1E646
Copy CRC E9F1E646
Track not present in AccurateRip database
Copy OK

Track 4

Filename F:\#EAC new\#wav+flac\#New\VA - Masterpieces Of Jazz\cd 1\04. Harry James - I'm Beginning To See The Light.wav

Pre-gap length 0:00:01.00

Peak level 86.7 %
Extraction speed 5.9 X
Track quality 100.0 %
Test CRC AA08CB4B
Copy CRC AA08CB4B
Track not present in AccurateRip database
Copy OK

Track 5

Filename F:\#EAC new\#wav+flac\#New\VA - Masterpieces Of Jazz\cd 1\05. Tommy Dorsey - Boogie Woogie.wav

Pre-gap length 0:00:01.00

Peak level 85.8 %
Extraction speed 6.3 X
Track quality 100.0 %
Test CRC B3BCE386
Copy CRC B3BCE386
Track not present in AccurateRip database
Copy OK

Track 6

Filename F:\#EAC new\#wav+flac\#New\VA - Masterpieces Of Jazz\cd 1\06. Chick Webb - Stomping At The Savoy.wav

Pre-gap length 0:00:01.00

Peak level 84.7 %
Extraction speed 6.6 X
Track quality 100.0 %
Test CRC 127AAEFF
Copy CRC 127AAEFF
Track not present in AccurateRip database
Copy OK

Track 7

Filename F:\#EAC new\#wav+flac\#New\VA - Masterpieces Of Jazz\cd 1\07. Count Basie - One O Clock Jump.wav

Pre-gap length 0:00:01.00

Peak level 89.1 %
Extraction speed 6.9 X
Track quality 100.0 %
Test CRC 79FF0657
Copy CRC 79FF0657
Track not present in AccurateRip database
Copy OK

Track 8

Filename F:\#EAC new\#wav+flac\#New\VA - Masterpieces Of Jazz\cd 1\08. Fletcher Henderson - St. Louis Shuffle.wav

Pre-gap length 0:00:01.00

Peak level 75.9 %
Extraction speed 7.1 X
Track quality 100.0 %
Test CRC 704E9758
Copy CRC 704E9758
Track not present in AccurateRip database
Copy OK

Track 9

Filename F:\#EAC new\#wav+flac\#New\VA - Masterpieces Of Jazz\cd 1\09. Duke Ellington - It Don't Mean A Thing (If It Ain'T Got That Swing).wav

Pre-gap length 0:00:01.00

Peak level 71.7 %
Extraction speed 7.5 X
Track quality 100.0 %
Test CRC DFFDDC1F
Copy CRC DFFDDC1F
Track not present in AccurateRip database
Copy OK

Track 10

Filename F:\#EAC new\#wav+flac\#New\VA - Masterpieces Of Jazz\cd 1\10. Glenn Miller - Moonlight Serenade.wav

Pre-gap length 0:00:01.00

Peak level 89.6 %
Extraction speed 6.2 X
Track quality 99.9 %
Test CRC BBCFF783
Copy CRC BBCFF783
Track not present in AccurateRip database
Copy OK

Track 11

Filename F:\#EAC new\#wav+flac\#New\VA - Masterpieces Of Jazz\cd 1\11. Jimmie Lunceford - Lunceford Special.wav

Pre-gap length 0:00:01.00

Peak level 78.4 %
Extraction speed 7.8 X
Track quality 100.0 %
Test CRC BB12C601
Copy CRC BB12C601
Track not present in AccurateRip database
Copy OK

Track 12

Filename F:\#EAC new\#wav+flac\#New\VA - Masterpieces Of Jazz\cd 1\12. Jimmy Dorsey - Turn Right.wav

Pre-gap length 0:00:01.00

Peak level 84.6 %
Extraction speed 7.8 X
Track quality 100.0 %
Test CRC EB233D0B
Copy CRC EB233D0B
Track not present in AccurateRip database
Copy OK

Track 13

Filename F:\#EAC new\#wav+flac\#New\VA - Masterpieces Of Jazz\cd 1\13. Earl Hines - Sweet Georgia Brown.wav

Pre-gap length 0:00:01.00

Peak level 81.8 %
Extraction speed 7.9 X
Track quality 100.0 %
Test CRC 0D738EA3
Copy CRC 0D738EA3
Track not present in AccurateRip database
Copy OK

Track 14

Filename F:\#EAC new\#wav+flac\#New\VA - Masterpieces Of Jazz\cd 1\14. Charlie Barnet - Echoes Of Harlem.wav

Pre-gap length 0:00:01.00

Peak level 78.7 %
Extraction speed 8.6 X
Track quality 100.0 %
Test CRC CEF443A8
Copy CRC CEF443A8
Track not present in AccurateRip database
Copy OK

Track 15

Filename F:\#EAC new\#wav+flac\#New\VA - Masterpieces Of Jazz\cd 1\15. Les Brown - You're The Cream In My Coffee.wav

Pre-gap length 0:00:01.00

Peak level 94.6 %
Extraction speed 8.8 X
Track quality 100.0 %
Test CRC 0926185F
Copy CRC 0926185F
Track not present in AccurateRip database
Copy OK

Track 16

Filename F:\#EAC new\#wav+flac\#New\VA - Masterpieces Of Jazz\cd 1\16. Cab Calloway - Nagasaki.wav

Pre-gap length 0:00:01.00

Peak level 90.0 %
Extraction speed 8.9 X
Track quality 100.0 %
Test CRC DBBD9E12
Copy CRC DBBD9E12
Track not present in AccurateRip database
Copy OK

Track 17

Filename F:\#EAC new\#wav+flac\#New\VA - Masterpieces Of Jazz\cd 1\17. Nat King Cole & George Shearing - Let There Be Love.wav

Pre-gap length 0:00:01.00

Peak level 93.7 %
Extraction speed 9.0 X
Track quality 100.0 %
Test CRC 0411D970
Copy CRC 0411D970
Track not present in AccurateRip database
Copy OK

Track 18

Filename F:\#EAC new\#wav+flac\#New\VA - Masterpieces Of Jazz\cd 1\18. Louis Prima - Buona Sera.wav

Pre-gap length 0:00:01.00

Peak level 78.3 %
Extraction speed 9.2 X
Track quality 100.0 %
Test CRC F66CB755
Copy CRC F66CB755
Track not present in AccurateRip database
Copy OK


None of the tracks are present in the AccurateRip database

No errors occurred

End of status report

–– CUETools DB Plugin V2.1.6

[CTDB TOCID: I7vlLnpbWHkkIih1na4uzVlHEmE-] found
Submit result: I7vlLnpbWHkkIih1na4uzVlHEmE- has been confirmed
Track | CTDB Status
1 | (3/3) Accurately ripped
2 | (3/3) Accurately ripped
3 | (3/3) Accurately ripped
4 | (3/3) Accurately ripped
5 | (3/3) Accurately ripped
6 | (3/3) Accurately ripped
7 | (3/3) Accurately ripped
8 | (3/3) Accurately ripped
9 | (3/3) Accurately ripped
10 | (3/3) Accurately ripped
11 | (3/3) Accurately ripped
12 | (3/3) Accurately ripped
13 | (3/3) Accurately ripped
14 | (3/3) Accurately ripped
15 | (3/3) Accurately ripped
16 | (3/3) Accurately ripped
17 | (3/3) Accurately ripped
18 | (3/3) Accurately ripped


==== Log checksum 721B17B846A495FC45DCD53632F8A8896FB2A8AF6646F45AEF11CF1DC6E63902 ====

––––––––––––––––––––––––––––––

Exact Audio Copy V1.3 from 2. September 2016

EAC extraction logfile from 26. October 2020, 16:30

Various Artists / Masterpieces Of Jazz

Used drive : PLEXTOR PX-891SAF Adapter: 1 ID: 0

Read mode : Secure
Utilize accurate stream : Yes
Defeat audio cache : Yes
Make use of C2 pointers : No

Read offset correction : 6
Overread into Lead-In and Lead-Out : No
Fill up missing offset samples with silence : Yes
Delete leading and trailing silent blocks : No
Null samples used in CRC calculations : Yes
Used interface : Native Win32 interface for Win NT & 2000
Gap handling : Appended to previous track

Used output format : User Defined Encoder
Selected bitrate : 1024 kBit/s
Quality : High
Add ID3 tag : No
Command line compressor : C:\Program Files (x86)\Exact Audio Copy\Flac\flac.exe
Additional command line options : -8 -V -T "ARTIST=%artist%" -T "TITLE=%title%" -T "ALBUM=%albumtitle%" -T "DATE=%year%" -T "TRACKNUMBER=%tracknr%" -T "GENRE=%genre%" -T "PERFORMER=%albuminterpret%" -T "COMPOSER=%composer%" %haslyrics%–tag-from-file=LYRICS="%lyricsfile%"%haslyrics% -T "ALBUMARTIST=%albumartist%" -T "DISCNUMBER=%cdnumber%" -T "TOTALDISCS=%totalcds%" -T "TOTALTRACKS=%numtracks%" -T "COMMENT=%comment%" %source% -o %dest%


TOC of the extracted CD

Track | Start | Length | Start sector | End sector
––––––––––––––––––––––––––––-
1 | 0:00.00 | 3:38.42 | 0 | 16391
2 | 3:38.42 | 3:07.62 | 16392 | 30478
3 | 6:46.29 | 2:14.26 | 30479 | 40554
4 | 9:00.55 | 3:08.22 | 40555 | 54676
5 | 12:09.02 | 3:13.43 | 54677 | 69194
6 | 15:22.45 | 3:09.47 | 69195 | 83416
7 | 18:32.17 | 3:03.04 | 83417 | 97145
8 | 21:35.21 | 3:01.37 | 97146 | 110757
9 | 24:36.58 | 3:11.35 | 110758 | 125117
10 | 27:48.18 | 3:21.61 | 125118 | 140253
11 | 31:10.04 | 2:51.33 | 140254 | 153111
12 | 34:01.37 | 2:26.11 | 153112 | 164072
13 | 36:27.48 | 2:16.21 | 164073 | 174293
14 | 38:43.69 | 3:27.29 | 174294 | 189847
15 | 42:11.23 | 3:05.27 | 189848 | 203749
16 | 45:16.50 | 2:58.08 | 203750 | 217107
17 | 48:14.58 | 2:46.13 | 217108 | 229570
18 | 51:00.71 | 2:58.67 | 229571 | 242987


Track 1

Filename F:\#EAC new\#wav+flac\#New\VA - Masterpieces Of Jazz\cd 1\01. Artie Shaw - Stardust.wav

Pre-gap length 0:00:02.00

Peak level 83.1 %
Extraction speed 5.0 X
Track quality 100.0 %
Test CRC 3710539E
Copy CRC 3710539E
Track not present in AccurateRip database
Copy OK

Track 2

Filename F:\#EAC new\#wav+flac\#New\VA - Masterpieces Of Jazz\cd 1\02. Benny Goodman - King Porter Stomp.wav

Pre-gap length 0:00:01.00

Peak level 90.3 %
Extraction speed 5.3 X
Track quality 100.0 %
Test CRC 6CF70B47
Copy CRC 6CF70B47
Track not present in AccurateRip database
Copy OK

Track 3

Filename F:\#EAC new\#wav+flac\#New\VA - Masterpieces Of Jazz\cd 1\03. Gene Krupa - Love In My Heart.wav

Pre-gap length 0:00:01.00

Peak level 73.5 %
Extraction speed 5.3 X
Track quality 100.0 %
Test CRC E9F1E646
Copy CRC E9F1E646
Track not present in AccurateRip database
Copy OK

Track 4

Filename F:\#EAC new\#wav+flac\#New\VA - Masterpieces Of Jazz\cd 1\04. Harry James - I'm Beginning To See The Light.wav

Pre-gap length 0:00:01.00

Peak level 86.7 %
Extraction speed 5.9 X
Track quality 100.0 %
Test CRC AA08CB4B
Copy CRC AA08CB4B
Track not present in AccurateRip database
Copy OK

Track 5

Filename F:\#EAC new\#wav+flac\#New\VA - Masterpieces Of Jazz\cd 1\05. Tommy Dorsey - Boogie Woogie.wav

Pre-gap length 0:00:01.00

Peak level 85.8 %
Extraction speed 6.3 X
Track quality 100.0 %
Test CRC B3BCE386
Copy CRC B3BCE386
Track not present in AccurateRip database
Copy OK

Track 6

Filename F:\#EAC new\#wav+flac\#New\VA - Masterpieces Of Jazz\cd 1\06. Chick Webb - Stomping At The Savoy.wav

Pre-gap length 0:00:01.00

Peak level 84.7 %
Extraction speed 6.6 X
Track quality 100.0 %
Test CRC 127AAEFF
Copy CRC 127AAEFF
Track not present in AccurateRip database
Copy OK

Track 7

Filename F:\#EAC new\#wav+flac\#New\VA - Masterpieces Of Jazz\cd 1\07. Count Basie - One O Clock Jump.wav

Pre-gap length 0:00:01.00

Peak level 89.1 %
Extraction speed 6.9 X
Track quality 100.0 %
Test CRC 79FF0657
Copy CRC 79FF0657
Track not present in AccurateRip database
Copy OK

Track 8

Filename F:\#EAC new\#wav+flac\#New\VA - Masterpieces Of Jazz\cd 1\08. Fletcher Henderson - St. Louis Shuffle.wav

Pre-gap length 0:00:01.00

Peak level 75.9 %
Extraction speed 7.1 X
Track quality 100.0 %
Test CRC 704E9758
Copy CRC 704E9758
Track not present in AccurateRip database
Copy OK

Track 9

Filename F:\#EAC new\#wav+flac\#New\VA - Masterpieces Of Jazz\cd 1\09. Duke Ellington - It Don't Mean A Thing (If It Ain'T Got That Swing).wav

Pre-gap length 0:00:01.00

Peak level 71.7 %
Extraction speed 7.5 X
Track quality 100.0 %
Test CRC DFFDDC1F
Copy CRC DFFDDC1F
Track not present in AccurateRip database
Copy OK

Track 10

Filename F:\#EAC new\#wav+flac\#New\VA - Masterpieces Of Jazz\cd 1\10. Glenn Miller - Moonlight Serenade.wav

Pre-gap length 0:00:01.00

Peak level 89.6 %
Extraction speed 6.2 X
Track quality 99.9 %
Test CRC BBCFF783
Copy CRC BBCFF783
Track not present in AccurateRip database
Copy OK

Track 11

Filename F:\#EAC new\#wav+flac\#New\VA - Masterpieces Of Jazz\cd 1\11. Jimmie Lunceford - Lunceford Special.wav

Pre-gap length 0:00:01.00

Peak level 78.4 %
Extraction speed 7.8 X
Track quality 100.0 %
Test CRC BB12C601
Copy CRC BB12C601
Track not present in AccurateRip database
Copy OK

Track 12

Filename F:\#EAC new\#wav+flac\#New\VA - Masterpieces Of Jazz\cd 1\12. Jimmy Dorsey - Turn Right.wav

Pre-gap length 0:00:01.00

Peak level 84.6 %
Extraction speed 7.8 X
Track quality 100.0 %
Test CRC EB233D0B
Copy CRC EB233D0B
Track not present in AccurateRip database
Copy OK

Track 13

Filename F:\#EAC new\#wav+flac\#New\VA - Masterpieces Of Jazz\cd 1\13. Earl Hines - Sweet Georgia Brown.wav

Pre-gap length 0:00:01.00

Peak level 81.8 %
Extraction speed 7.9 X
Track quality 100.0 %
Test CRC 0D738EA3
Copy CRC 0D738EA3
Track not present in AccurateRip database
Copy OK

Track 14

Filename F:\#EAC new\#wav+flac\#New\VA - Masterpieces Of Jazz\cd 1\14. Charlie Barnet - Echoes Of Harlem.wav

Pre-gap length 0:00:01.00

Peak level 78.7 %
Extraction speed 8.6 X
Track quality 100.0 %
Test CRC CEF443A8
Copy CRC CEF443A8
Track not present in AccurateRip database
Copy OK

Track 15

Filename F:\#EAC new\#wav+flac\#New\VA - Masterpieces Of Jazz\cd 1\15. Les Brown - You're The Cream In My Coffee.wav

Pre-gap length 0:00:01.00

Peak level 94.6 %
Extraction speed 8.8 X
Track quality 100.0 %
Test CRC 0926185F
Copy CRC 0926185F
Track not present in AccurateRip database
Copy OK

Track 16

Filename F:\#EAC new\#wav+flac\#New\VA - Masterpieces Of Jazz\cd 1\16. Cab Calloway - Nagasaki.wav

Pre-gap length 0:00:01.00

Peak level 90.0 %
Extraction speed 8.9 X
Track quality 100.0 %
Test CRC DBBD9E12
Copy CRC DBBD9E12
Track not present in AccurateRip database
Copy OK

Track 17

Filename F:\#EAC new\#wav+flac\#New\VA - Masterpieces Of Jazz\cd 1\17. Nat King Cole & George Shearing - Let There Be Love.wav

Pre-gap length 0:00:01.00

Peak level 93.7 %
Extraction speed 9.0 X
Track quality 100.0 %
Test CRC 0411D970
Copy CRC 0411D970
Track not present in AccurateRip database
Copy OK

Track 18

Filename F:\#EAC new\#wav+flac\#New\VA - Masterpieces Of Jazz\cd 1\18. Louis Prima - Buona Sera.wav

Pre-gap length 0:00:01.00

Peak level 78.3 %
Extraction speed 9.2 X
Track quality 100.0 %
Test CRC F66CB755
Copy CRC F66CB755
Track not present in AccurateRip database
Copy OK


None of the tracks are present in the AccurateRip database

No errors occurred

End of status report

–– CUETools DB Plugin V2.1.6

[CTDB TOCID: I7vlLnpbWHkkIih1na4uzVlHEmE-] found
Submit result: I7vlLnpbWHkkIih1na4uzVlHEmE- has been confirmed
Track | CTDB Status
1 | (3/3) Accurately ripped
2 | (3/3) Accurately ripped
3 | (3/3) Accurately ripped
4 | (3/3) Accurately ripped
5 | (3/3) Accurately ripped
6 | (3/3) Accurately ripped
7 | (3/3) Accurately ripped
8 | (3/3) Accurately ripped
9 | (3/3) Accurately ripped
10 | (3/3) Accurately ripped
11 | (3/3) Accurately ripped
12 | (3/3) Accurately ripped
13 | (3/3) Accurately ripped
14 | (3/3) Accurately ripped
15 | (3/3) Accurately ripped
16 | (3/3) Accurately ripped
17 | (3/3) Accurately ripped
18 | (3/3) Accurately ripped


==== Log checksum 721B17B846A495FC45DCD53632F8A8896FB2A8AF6646F45AEF11CF1DC6E63902 ====
Exact Audio Copy V1.3 from 2. September 2016

EAC extraction logfile from 26. October 2020, 16:53

Various Artists / Masterpieces Of Jazz

Used drive : PLEXTOR PX-891SAF Adapter: 1 ID: 0

Read mode : Secure
Utilize accurate stream : Yes
Defeat audio cache : Yes
Make use of C2 pointers : No

Read offset correction : 6
Overread into Lead-In and Lead-Out : No
Fill up missing offset samples with silence : Yes
Delete leading and trailing silent blocks : No
Null samples used in CRC calculations : Yes
Used interface : Native Win32 interface for Win NT & 2000
Gap handling : Appended to previous track

Used output format : User Defined Encoder
Selected bitrate : 1024 kBit/s
Quality : High
Add ID3 tag : No
Command line compressor : C:\Program Files (x86)\Exact Audio Copy\Flac\flac.exe
Additional command line options : -8 -V -T "ARTIST=%artist%" -T "TITLE=%title%" -T "ALBUM=%albumtitle%" -T "DATE=%year%" -T "TRACKNUMBER=%tracknr%" -T "GENRE=%genre%" -T "PERFORMER=%albuminterpret%" -T "COMPOSER=%composer%" %haslyrics%–tag-from-file=LYRICS="%lyricsfile%"%haslyrics% -T "ALBUMARTIST=%albumartist%" -T "DISCNUMBER=%cdnumber%" -T "TOTALDISCS=%totalcds%" -T "TOTALTRACKS=%numtracks%" -T "COMMENT=%comment%" %source% -o %dest%


TOC of the extracted CD

Track | Start | Length | Start sector | End sector
––––––––––––––––––––––––––––-
1 | 0:00.00 | 2:53.63 | 0 | 13037
2 | 2:53.63 | 5:10.45 | 13038 | 36332
3 | 8:04.33 | 2:19.41 | 36333 | 46798
4 | 10:23.74 | 2:57.50 | 46799 | 60123
5 | 13:21.49 | 3:21.68 | 60124 | 75266
6 | 16:43.42 | 2:39.33 | 75267 | 87224
7 | 19:23.00 | 7:05.58 | 87225 | 119157
8 | 26:28.58 | 3:15.28 | 119158 | 133810
9 | 29:44.11 | 2:48.04 | 133811 | 146414
10 | 32:32.15 | 6:44.30 | 146415 | 176744
11 | 39:16.45 | 3:15.70 | 176745 | 191439
12 | 42:32.40 | 2:45.16 | 191440 | 203830
13 | 45:17.56 | 2:20.17 | 203831 | 214347
14 | 47:37.73 | 2:41.57 | 214348 | 226479
15 | 50:19.55 | 3:01.39 | 226480 | 240093
16 | 53:21.19 | 3:10.48 | 240094 | 254391
17 | 56:31.67 | 9:34.11 | 254392 | 297452
18 | 66:06.03 | 3:04.71 | 297453 | 311323


Track 1

Filename F:\#EAC new\#wav+flac\#New\VA - Masterpieces Of Jazz\Nieuwe map\01. Artie Shaw - Night And Day.wav

Pre-gap length 0:00:02.00

Peak level 82.1 %
Extraction speed 4.7 X
Track quality 100.0 %
Test CRC 11591504
Copy CRC 11591504
Track not present in AccurateRip database
Copy OK

Track 2

Filename F:\#EAC new\#wav+flac\#New\VA - Masterpieces Of Jazz\Nieuwe map\02. Benny Goodman - Sing, Sing, Sing.wav

Pre-gap length 0:00:01.00

Peak level 83.8 %
Extraction speed 5.6 X
Track quality 100.0 %
Test CRC C023BDBC
Copy CRC C023BDBC
Track not present in AccurateRip database
Copy OK

Track 3

Filename F:\#EAC new\#wav+flac\#New\VA - Masterpieces Of Jazz\Nieuwe map\03. Chet Baker - My Funny Valentine.wav

Pre-gap length 0:00:01.00

Peak level 79.2 %
Extraction speed 5.4 X
Track quality 100.0 %
Test CRC 0E15E1F4
Copy CRC 0E15E1F4
Track not present in AccurateRip database
Copy OK

Track 4

Filename F:\#EAC new\#wav+flac\#New\VA - Masterpieces Of Jazz\Nieuwe map\04. Duke Ellington - Mood Indigo.wav

Pre-gap length 0:00:01.00

Peak level 86.5 %
Extraction speed 5.9 X
Track quality 100.0 %
Test CRC F84B6F52
Copy CRC F84B6F52
Track not present in AccurateRip database
Copy OK

Track 5

Filename F:\#EAC new\#wav+flac\#New\VA - Masterpieces Of Jazz\Nieuwe map\05. Louis Armstrong - Mack The Knife.wav

Pre-gap length 0:00:01.00

Peak level 88.3 %
Extraction speed 6.3 X
Track quality 100.0 %
Test CRC C732DA60
Copy CRC C732DA60
Track not present in AccurateRip database
Copy OK

Track 6

Filename F:\#EAC new\#wav+flac\#New\VA - Masterpieces Of Jazz\Nieuwe map\06. Louis Armstrong - Jeepers Creepers.wav

Pre-gap length 0:00:01.00

Peak level 79.6 %
Extraction speed 6.4 X
Track quality 100.0 %
Test CRC EA70824C
Copy CRC EA70824C
Track not present in AccurateRip database
Copy OK

Track 7

Filename F:\#EAC new\#wav+flac\#New\VA - Masterpieces Of Jazz\Nieuwe map\07. John Coltrane - Lazy Bird.wav

Pre-gap length 0:00:01.00

Peak level 84.1 %
Extraction speed 7.6 X
Track quality 100.0 %
Test CRC 7D106CA0
Copy CRC 7D106CA0
Track not present in AccurateRip database
Copy OK

Track 8

Filename F:\#EAC new\#wav+flac\#New\VA - Masterpieces Of Jazz\Nieuwe map\08. Nat King Cole - Mona Lisa.wav

Pre-gap length 0:00:01.00

Peak level 87.9 %
Extraction speed 7.4 X
Track quality 100.0 %
Test CRC A9DBA4AC
Copy CRC A9DBA4AC
Track not present in AccurateRip database
Copy OK

Track 9

Filename F:\#EAC new\#wav+flac\#New\VA - Masterpieces Of Jazz\Nieuwe map\09. Oscar Peterson - Too Marvelous For Words.wav

Pre-gap length 0:00:01.00

Peak level 80.0 %
Extraction speed 7.4 X
Track quality 100.0 %
Test CRC F334CB57
Copy CRC F334CB57
Track not present in AccurateRip database
Copy OK

Track 10

Filename F:\#EAC new\#wav+flac\#New\VA - Masterpieces Of Jazz\Nieuwe map\10. Dave Brubeck - Blue Rondo A La Turk.wav

Pre-gap length 0:00:01.00

Peak level 93.0 %
Extraction speed 7.6 X
Track quality 99.9 %
Test CRC 1DEBEC2C
Copy CRC 1DEBEC2C
Track not present in AccurateRip database
Copy OK

Track 11

Filename F:\#EAC new\#wav+flac\#New\VA - Masterpieces Of Jazz\Nieuwe map\11. Woody Herman - At The Woodchopper's Ball.wav

Pre-gap length 0:00:01.00

Peak level 92.4 %
Extraction speed 8.3 X
Track quality 100.0 %
Test CRC 5EDC821A
Copy CRC 5EDC821A
Track not present in AccurateRip database
Copy OK

Track 12

Filename F:\#EAC new\#wav+flac\#New\VA - Masterpieces Of Jazz\Nieuwe map\12. Chris Barber - Petite Fleur.wav

Pre-gap length 0:00:01.00

Peak level 73.6 %
Extraction speed 8.3 X
Track quality 100.0 %
Test CRC DBA32547
Copy CRC DBA32547
Track not present in AccurateRip database
Copy OK

Track 13

Filename F:\#EAC new\#wav+flac\#New\VA - Masterpieces Of Jazz\Nieuwe map\13. Bros Orch Dorsey - The Most Beautiful Girl In The World.wav

Pre-gap length 0:00:01.00

Peak level 82.4 %
Extraction speed 8.1 X
Track quality 100.0 %
Test CRC 36442ED3
Copy CRC 36442ED3
Track not present in AccurateRip database
Copy OK

Track 14

Filename F:\#EAC new\#wav+flac\#New\VA - Masterpieces Of Jazz\Nieuwe map\14. Humphrey Lyttelton - Bad Penny Blues.wav

Pre-gap length 0:00:01.00

Peak level 80.8 %
Extraction speed 8.5 X
Track quality 100.0 %
Test CRC 8242F56D
Copy CRC 8242F56D
Track not present in AccurateRip database
Copy OK

Track 15

Filename F:\#EAC new\#wav+flac\#New\VA - Masterpieces Of Jazz\Nieuwe map\15. Nat King & Trio Cole - Route 66.wav

Pre-gap length 0:00:01.00

Peak level 79.7 %
Extraction speed 8.9 X
Track quality 100.0 %
Test CRC 79A08933
Copy CRC 79A08933
Track not present in AccurateRip database
Copy OK

Track 16

Filename F:\#EAC new\#wav+flac\#New\VA - Masterpieces Of Jazz\Nieuwe map\16. Thelonious Monk - Round Midnight.wav

Pre-gap length 0:00:01.00

Peak level 85.9 %
Extraction speed 9.2 X
Track quality 100.0 %
Test CRC A8700F25
Copy CRC A8700F25
Track not present in AccurateRip database
Copy OK

Track 17

Filename F:\#EAC new\#wav+flac\#New\VA - Masterpieces Of Jazz\Nieuwe map\17. Art Blakey & The Jazz Messengers - Moanin'.wav

Pre-gap length 0:00:01.00

Peak level 86.0 %
Extraction speed 10.6 X
Track quality 100.0 %
Test CRC 152F8667
Copy CRC 152F8667
Track not present in AccurateRip database
Copy OK

Track 18

Filename F:\#EAC new\#wav+flac\#New\VA - Masterpieces Of Jazz\Nieuwe map\18. Miles Davis - Rocker.wav

Pre-gap length 0:00:01.00

Peak level 83.3 %
Extraction speed 7.8 X
Track quality 99.9 %
Test CRC 56F944CA
Copy CRC 56F944CA
Track not present in AccurateRip database
Copy OK


None of the tracks are present in the AccurateRip database

No errors occurred

End of status report

–– CUETools DB Plugin V2.1.6

[CTDB TOCID: tufPblCubRgg1Jt6568DNIqfEsA-] found
Submit result: tufPblCubRgg1Jt6568DNIqfEsA- has been confirmed
Track | CTDB Status
1 | (3/3) Accurately ripped
2 | (3/3) Accurately ripped
3 | (3/3) Accurately ripped
4 | (3/3) Accurately ripped
5 | (3/3) Accurately ripped
6 | (3/3) Accurately ripped
7 | (3/3) Accurately ripped
8 | (3/3) Accurately ripped
9 | (3/3) Accurately ripped
10 | (3/3) Accurately ripped
11 | (3/3) Accurately ripped
12 | (3/3) Accurately ripped
13 | (3/3) Accurately ripped
14 | (3/3) Accurately ripped
15 | (3/3) Accurately ripped
16 | (3/3) Accurately ripped
17 | (3/3) Accurately ripped
18 | (3/3) Accurately ripped


==== Log checksum 459E65327EC1D0C4811685BD1452F7EEAF69214D0784059A684B392BD2904078 ====

––––––––––––––––––––––––––––––

Exact Audio Copy V1.3 from 2. September 2016

EAC extraction logfile from 26. October 2020, 16:53

Various Artists / Masterpieces Of Jazz

Used drive : PLEXTOR PX-891SAF Adapter: 1 ID: 0

Read mode : Secure
Utilize accurate stream : Yes
Defeat audio cache : Yes
Make use of C2 pointers : No

Read offset correction : 6
Overread into Lead-In and Lead-Out : No
Fill up missing offset samples with silence : Yes
Delete leading and trailing silent blocks : No
Null samples used in CRC calculations : Yes
Used interface : Native Win32 interface for Win NT & 2000
Gap handling : Appended to previous track

Used output format : User Defined Encoder
Selected bitrate : 1024 kBit/s
Quality : High
Add ID3 tag : No
Command line compressor : C:\Program Files (x86)\Exact Audio Copy\Flac\flac.exe
Additional command line options : -8 -V -T "ARTIST=%artist%" -T "TITLE=%title%" -T "ALBUM=%albumtitle%" -T "DATE=%year%" -T "TRACKNUMBER=%tracknr%" -T "GENRE=%genre%" -T "PERFORMER=%albuminterpret%" -T "COMPOSER=%composer%" %haslyrics%–tag-from-file=LYRICS="%lyricsfile%"%haslyrics% -T "ALBUMARTIST=%albumartist%" -T "DISCNUMBER=%cdnumber%" -T "TOTALDISCS=%totalcds%" -T "TOTALTRACKS=%numtracks%" -T "COMMENT=%comment%" %source% -o %dest%


TOC of the extracted CD

Track | Start | Length | Start sector | End sector
––––––––––––––––––––––––––––-
1 | 0:00.00 | 2:53.63 | 0 | 13037
2 | 2:53.63 | 5:10.45 | 13038 | 36332
3 | 8:04.33 | 2:19.41 | 36333 | 46798
4 | 10:23.74 | 2:57.50 | 46799 | 60123
5 | 13:21.49 | 3:21.68 | 60124 | 75266
6 | 16:43.42 | 2:39.33 | 75267 | 87224
7 | 19:23.00 | 7:05.58 | 87225 | 119157
8 | 26:28.58 | 3:15.28 | 119158 | 133810
9 | 29:44.11 | 2:48.04 | 133811 | 146414
10 | 32:32.15 | 6:44.30 | 146415 | 176744
11 | 39:16.45 | 3:15.70 | 176745 | 191439
12 | 42:32.40 | 2:45.16 | 191440 | 203830
13 | 45:17.56 | 2:20.17 | 203831 | 214347
14 | 47:37.73 | 2:41.57 | 214348 | 226479
15 | 50:19.55 | 3:01.39 | 226480 | 240093
16 | 53:21.19 | 3:10.48 | 240094 | 254391
17 | 56:31.67 | 9:34.11 | 254392 | 297452
18 | 66:06.03 | 3:04.71 | 297453 | 311323


Track 1

Filename F:\#EAC new\#wav+flac\#New\VA - Masterpieces Of Jazz\Nieuwe map\01. Artie Shaw - Night And Day.wav

Pre-gap length 0:00:02.00

Peak level 82.1 %
Extraction speed 4.7 X
Track quality 100.0 %
Test CRC 11591504
Copy CRC 11591504
Track not present in AccurateRip database
Copy OK

Track 2

Filename F:\#EAC new\#wav+flac\#New\VA - Masterpieces Of Jazz\Nieuwe map\02. Benny Goodman - Sing, Sing, Sing.wav

Pre-gap length 0:00:01.00

Peak level 83.8 %
Extraction speed 5.6 X
Track quality 100.0 %
Test CRC C023BDBC
Copy CRC C023BDBC
Track not present in AccurateRip database
Copy OK

Track 3

Filename F:\#EAC new\#wav+flac\#New\VA - Masterpieces Of Jazz\Nieuwe map\03. Chet Baker - My Funny Valentine.wav

Pre-gap length 0:00:01.00

Peak level 79.2 %
Extraction speed 5.4 X
Track quality 100.0 %
Test CRC 0E15E1F4
Copy CRC 0E15E1F4
Track not present in AccurateRip database
Copy OK

Track 4

Filename F:\#EAC new\#wav+flac\#New\VA - Masterpieces Of Jazz\Nieuwe map\04. Duke Ellington - Mood Indigo.wav

Pre-gap length 0:00:01.00

Peak level 86.5 %
Extraction speed 5.9 X
Track quality 100.0 %
Test CRC F84B6F52
Copy CRC F84B6F52
Track not present in AccurateRip database
Copy OK

Track 5

Filename F:\#EAC new\#wav+flac\#New\VA - Masterpieces Of Jazz\Nieuwe map\05. Louis Armstrong - Mack The Knife.wav

Pre-gap length 0:00:01.00

Peak level 88.3 %
Extraction speed 6.3 X
Track quality 100.0 %
Test CRC C732DA60
Copy CRC C732DA60
Track not present in AccurateRip database
Copy OK

Track 6

Filename F:\#EAC new\#wav+flac\#New\VA - Masterpieces Of Jazz\Nieuwe map\06. Louis Armstrong - Jeepers Creepers.wav

Pre-gap length 0:00:01.00

Peak level 79.6 %
Extraction speed 6.4 X
Track quality 100.0 %
Test CRC EA70824C
Copy CRC EA70824C
Track not present in AccurateRip database
Copy OK

Track 7

Filename F:\#EAC new\#wav+flac\#New\VA - Masterpieces Of Jazz\Nieuwe map\07. John Coltrane - Lazy Bird.wav

Pre-gap length 0:00:01.00

Peak level 84.1 %
Extraction speed 7.6 X
Track quality 100.0 %
Test CRC 7D106CA0
Copy CRC 7D106CA0
Track not present in AccurateRip database
Copy OK

Track 8

Filename F:\#EAC new\#wav+flac\#New\VA - Masterpieces Of Jazz\Nieuwe map\08. Nat King Cole - Mona Lisa.wav

Pre-gap length 0:00:01.00

Peak level 87.9 %
Extraction speed 7.4 X
Track quality 100.0 %
Test CRC A9DBA4AC
Copy CRC A9DBA4AC
Track not present in AccurateRip database
Copy OK

Track 9

Filename F:\#EAC new\#wav+flac\#New\VA - Masterpieces Of Jazz\Nieuwe map\09. Oscar Peterson - Too Marvelous For Words.wav

Pre-gap length 0:00:01.00

Peak level 80.0 %
Extraction speed 7.4 X
Track quality 100.0 %
Test CRC F334CB57
Copy CRC F334CB57
Track not present in AccurateRip database
Copy OK

Track 10

Filename F:\#EAC new\#wav+flac\#New\VA - Masterpieces Of Jazz\Nieuwe map\10. Dave Brubeck - Blue Rondo A La Turk.wav

Pre-gap length 0:00:01.00

Peak level 93.0 %
Extraction speed 7.6 X
Track quality 99.9 %
Test CRC 1DEBEC2C
Copy CRC 1DEBEC2C
Track not present in AccurateRip database
Copy OK

Track 11

Filename F:\#EAC new\#wav+flac\#New\VA - Masterpieces Of Jazz\Nieuwe map\11. Woody Herman - At The Woodchopper's Ball.wav

Pre-gap length 0:00:01.00

Peak level 92.4 %
Extraction speed 8.3 X
Track quality 100.0 %
Test CRC 5EDC821A
Copy CRC 5EDC821A
Track not present in AccurateRip database
Copy OK

Track 12

Filename F:\#EAC new\#wav+flac\#New\VA - Masterpieces Of Jazz\Nieuwe map\12. Chris Barber - Petite Fleur.wav

Pre-gap length 0:00:01.00

Peak level 73.6 %
Extraction speed 8.3 X
Track quality 100.0 %
Test CRC DBA32547
Copy CRC DBA32547
Track not present in AccurateRip database
Copy OK

Track 13

Filename F:\#EAC new\#wav+flac\#New\VA - Masterpieces Of Jazz\Nieuwe map\13. Bros Orch Dorsey - The Most Beautiful Girl In The World.wav

Pre-gap length 0:00:01.00

Peak level 82.4 %
Extraction speed 8.1 X
Track quality 100.0 %
Test CRC 36442ED3
Copy CRC 36442ED3
Track not present in AccurateRip database
Copy OK

Track 14

Filename F:\#EAC new\#wav+flac\#New\VA - Masterpieces Of Jazz\Nieuwe map\14. Humphrey Lyttelton - Bad Penny Blues.wav

Pre-gap length 0:00:01.00

Peak level 80.8 %
Extraction speed 8.5 X
Track quality 100.0 %
Test CRC 8242F56D
Copy CRC 8242F56D
Track not present in AccurateRip database
Copy OK

Track 15

Filename F:\#EAC new\#wav+flac\#New\VA - Masterpieces Of Jazz\Nieuwe map\15. Nat King & Trio Cole - Route 66.wav

Pre-gap length 0:00:01.00

Peak level 79.7 %
Extraction speed 8.9 X
Track quality 100.0 %
Test CRC 79A08933
Copy CRC 79A08933
Track not present in AccurateRip database
Copy OK

Track 16

Filename F:\#EAC new\#wav+flac\#New\VA - Masterpieces Of Jazz\Nieuwe map\16. Thelonious Monk - Round Midnight.wav

Pre-gap length 0:00:01.00

Peak level 85.9 %
Extraction speed 9.2 X
Track quality 100.0 %
Test CRC A8700F25
Copy CRC A8700F25
Track not present in AccurateRip database
Copy OK

Track 17

Filename F:\#EAC new\#wav+flac\#New\VA - Masterpieces Of Jazz\Nieuwe map\17. Art Blakey & The Jazz Messengers - Moanin'.wav

Pre-gap length 0:00:01.00

Peak level 86.0 %
Extraction speed 10.6 X
Track quality 100.0 %
Test CRC 152F8667
Copy CRC 152F8667
Track not present in AccurateRip database
Copy OK

Track 18

Filename F:\#EAC new\#wav+flac\#New\VA - Masterpieces Of Jazz\Nieuwe map\18. Miles Davis - Rocker.wav

Pre-gap length 0:00:01.00

Peak level 83.3 %
Extraction speed 7.8 X
Track quality 99.9 %
Test CRC 56F944CA
Copy CRC 56F944CA
Track not present in AccurateRip database
Copy OK


None of the tracks are present in the AccurateRip database

No errors occurred

End of status report

–– CUETools DB Plugin V2.1.6

[CTDB TOCID: tufPblCubRgg1Jt6568DNIqfEsA-] found
Submit result: tufPblCubRgg1Jt6568DNIqfEsA- has been confirmed
Track | CTDB Status
1 | (3/3) Accurately ripped
2 | (3/3) Accurately ripped
3 | (3/3) Accurately ripped
4 | (3/3) Accurately ripped
5 | (3/3) Accurately ripped
6 | (3/3) Accurately ripped
7 | (3/3) Accurately ripped
8 | (3/3) Accurately ripped
9 | (3/3) Accurately ripped
10 | (3/3) Accurately ripped
11 | (3/3) Accurately ripped
12 | (3/3) Accurately ripped
13 | (3/3) Accurately ripped
14 | (3/3) Accurately ripped
15 | (3/3) Accurately ripped
16 | (3/3) Accurately ripped
17 | (3/3) Accurately ripped
18 | (3/3) Accurately ripped


==== Log checksum 459E65327EC1D0C4811685BD1452F7EEAF69214D0784059A684B392BD2904078 ====

Thanks to the Original ripper !