Subcategories

VA - Nostalgique Arménie (Chants d'amour, d'espoir, d'exil et improvisations 1942 - 1952) (2018)

Posted By: delpotro
VA - Nostalgique Arménie (Chants d'amour, d'espoir, d'exil et improvisations 1942 - 1952) (2018)

VA - Nostalgique Arménie (Chants d'amour, d'espoir, d'exil et improvisations 1942 - 1952) (2018)
EAC Rip | FLAC (tracks+log+.cue) | 01:09:48 | 307 Mb
World | Label: Zaniphil, Buda Music

Popular Western Armenian music uses instruments such as oud, qanun, keman, darbouka, clarinet, mandolin, tambourine, dumbeg and the duduk which is its characteristic. The songs are in several languages: Armenian, Turkish, Greek, Kurdish or other, often a mixture of these languages ​​such as spoken in the streets. The first recordings of Ottoman-Anatolian music played and sung by Armenians, Greeks, Arabs of the Empire, between 1909-1929, were thus made in the United States, then in Europe by companies like Colombia Records, Odeon, Archalouys or other. This precious collection brings together the songs and performances of the great Armenian artists of the Sayat Nova era in the heyday of a cultural and musical reconstruction in the diaspora. It testifies respectfully to the Armenian identity, from Anatolia to the New World.
Tracklist:
01. Sonia Karakach - Anadol Yosması (03:00)
02. Madame Matur - Vourma Avdji (03:08)
03. Oudi Hrant - Agna Yerke (03:26)
04. Oudi Hrant - Çifte Telli (03:20)
05. Monsieur Baboian & Apkar - Sev Sev Atcher (02:41)
06. Oudi Alphonse - Taxim Rast (03:22)
07. Sonia Karakach - Hay Aghtcig (02:51)
08. Sonia Karakach - Yar Yar Aman (02:47)
09. Sonia Karakach - Tamzara Bar (03:09)
10. Sonia Karakach - Toun Vorou Yarnes? (03:01)
11. Sonia Karakach - Ha, Ha, Ha (03:10)
12. Sonia Karakach - Anpakht Em (02:59)
13. Madoyan & Askaryan - Sev Amper (02:06)
14. Sonia Karakach - Iki Telli (02:57)
15. Edward Boghosian & Gulazian Orchestra - Harsin Dvin (02:59)
16. Sayat Nova - Siro Pountch (03:08)
17. Gohar Gasparian - Erginkn Ampel / Kakavik (01:27)
18. Sayat Nova & Shara Talian - Fahradn Merats (02:25)
19. Tatoul Altounian & Lusik Kochian - Parak es, Parti Tzar es (02:46)
20. Le violoniste Karagueozian - Tanzaza (03:08)
21. Le violoniste Karagueozian - Valse tsigane (01:18)
22. Le violoniste Karagueozian - Chant populaire arménien (01:51)
23. Marko Melkon - Dokumacı Kız (03:03)
24. Oudi Hrant - Suzinak Taksim (06:00)

Exact Audio Copy V1.3 from 2. September 2016

EAC extraction logfile from 1. May 2018, 14:25

Unknown Artist / Unknown Title

Used drive : PIONEER BD-RW BDR-208D Adapter: 1 ID: 0

Read mode : Secure
Utilize accurate stream : Yes
Defeat audio cache : Yes
Make use of C2 pointers : No

Read offset correction : 667
Overread into Lead-In and Lead-Out : No
Fill up missing offset samples with silence : Yes
Delete leading and trailing silent blocks : No
Null samples used in CRC calculations : Yes
Used interface : Native Win32 interface for Win NT & 2000
Gap handling : Appended to previous track

Used output format : User Defined Encoder
Selected bitrate : 1024 kBit/s
Quality : High
Add ID3 tag : No
Command line compressor : C:\Program Files (x86)\Exact Audio Copy\Flac\flac.exe
Additional command line options : -8 -e -V -T "ARTIST=%artist%" -T "TITLE=%title%" -T "ALBUM=%albumtitle%" -T "DATE=%year%" -T "TRACKNUMBER=%tracknr%" -T "GENRE=%genre%" -T "PERFORMER=%albuminterpret%" -T "COMPOSER=%composer%" %haslyrics%–tag-from-file=LYRICS="%lyricsfile%"%haslyrics% -T "ALBUMARTIST=%albumartist%" -T "DISCNUMBER=%cdnumber%" -T "TOTALDISCS=%totalcds%" -T "TOTALTRACKS=%numtracks%" -T "COMMENT=%comment%" %source% -o %dest%


TOC of the extracted CD

Track | Start | Length | Start sector | End sector
––––––––––––––––––––––––––––-
1 | 0:00.00 | 2:59.33 | 0 | 13457
2 | 2:59.33 | 3:07.53 | 13458 | 27535
3 | 6:07.11 | 3:25.33 | 27536 | 42943
4 | 9:32.44 | 3:19.40 | 42944 | 57908
5 | 12:52.09 | 2:40.30 | 57909 | 69938
6 | 15:32.39 | 3:21.33 | 69939 | 85046
7 | 18:53.72 | 2:50.21 | 85047 | 97817
8 | 21:44.18 | 2:46.25 | 97818 | 110292
9 | 24:30.43 | 3:08.08 | 110293 | 124400
10 | 27:38.51 | 3:00.37 | 124401 | 137937
11 | 30:39.13 | 3:09.10 | 137938 | 152122
12 | 33:48.23 | 2:58.24 | 152123 | 165496
13 | 36:46.47 | 2:05.45 | 165497 | 174916
14 | 38:52.17 | 2:57.00 | 174917 | 188191
15 | 41:49.17 | 2:58.64 | 188192 | 201605
16 | 44:48.06 | 3:07.16 | 201606 | 215646
17 | 47:55.22 | 1:26.22 | 215647 | 222118
18 | 49:21.44 | 2:24.09 | 222119 | 232927
19 | 51:45.53 | 2:45.05 | 232928 | 245307
20 | 54:30.58 | 3:07.60 | 245308 | 259392
21 | 57:38.43 | 1:17.31 | 259393 | 265198
22 | 58:55.74 | 1:50.50 | 265199 | 273498
23 | 60:46.49 | 3:02.21 | 273499 | 287169
24 | 63:48.70 | 5:59.45 | 287170 | 314139


Track 1

Filename K:\Musique\Armenie\01 - Track01.wav

Pre-gap length 0:00:02.00

Peak level 98.9 %
Extraction speed 4.4 X
Track quality 100.0 %
Test CRC C0850236
Copy CRC C0850236
Track not present in AccurateRip database
Copy OK

Track 2

Filename K:\Musique\Armenie\02 - Track02.wav

Pre-gap length 0:00:02.16

Peak level 93.4 %
Extraction speed 4.7 X
Track quality 100.0 %
Test CRC 5C77CD04
Copy CRC 5C77CD04
Track not present in AccurateRip database
Copy OK

Track 3

Filename K:\Musique\Armenie\03 - Track03.wav

Pre-gap length 0:00:02.00

Peak level 79.7 %
Extraction speed 5.2 X
Track quality 100.0 %
Test CRC DE529399
Copy CRC DE529399
Track not present in AccurateRip database
Copy OK

Track 4

Filename K:\Musique\Armenie\04 - Track04.wav

Pre-gap length 0:00:02.00

Peak level 77.7 %
Extraction speed 4.7 X
Track quality 99.9 %
Test CRC 41B08611
Copy CRC 41B08611
Track not present in AccurateRip database
Copy OK

Track 5

Filename K:\Musique\Armenie\05 - Track05.wav

Pre-gap length 0:00:02.00

Peak level 77.6 %
Extraction speed 5.5 X
Track quality 100.0 %
Test CRC 92479AD2
Copy CRC 92479AD2
Track not present in AccurateRip database
Copy OK

Track 6

Filename K:\Musique\Armenie\06 - Track06.wav

Pre-gap length 0:00:02.00

Peak level 81.1 %
Extraction speed 5.9 X
Track quality 100.0 %
Test CRC 3A7F2E73
Copy CRC 3A7F2E73
Track not present in AccurateRip database
Copy OK

Track 7

Filename K:\Musique\Armenie\07 - Track07.wav

Pre-gap length 0:00:02.00

Peak level 69.0 %
Extraction speed 5.1 X
Track quality 99.9 %
Test CRC 2753389B
Copy CRC 2753389B
Track not present in AccurateRip database
Copy OK

Track 8

Filename K:\Musique\Armenie\08 - Track08.wav

Pre-gap length 0:00:02.00

Peak level 91.5 %
Extraction speed 5.3 X
Track quality 99.9 %
Test CRC 86812567
Copy CRC 86812567
Track not present in AccurateRip database
Copy OK

Track 9

Filename K:\Musique\Armenie\09 - Track09.wav

Pre-gap length 0:00:02.00

Peak level 94.8 %
Extraction speed 6.5 X
Track quality 100.0 %
Test CRC D73B5D58
Copy CRC D73B5D58
Track not present in AccurateRip database
Copy OK

Track 10

Filename K:\Musique\Armenie\10 - Track10.wav

Pre-gap length 0:00:02.00

Peak level 86.2 %
Extraction speed 6.7 X
Track quality 100.0 %
Test CRC 518B294F
Copy CRC 518B294F
Track not present in AccurateRip database
Copy OK

Track 11

Filename K:\Musique\Armenie\11 - Track11.wav

Pre-gap length 0:00:02.00

Peak level 93.6 %
Extraction speed 7.0 X
Track quality 100.0 %
Test CRC 795428BE
Copy CRC 795428BE
Track not present in AccurateRip database
Copy OK

Track 12

Filename K:\Musique\Armenie\12 - Track12.wav

Pre-gap length 0:00:02.00

Peak level 96.6 %
Extraction speed 7.0 X
Track quality 100.0 %
Test CRC 54A03873
Copy CRC 54A03873
Track not present in AccurateRip database
Copy OK

Track 13

Filename K:\Musique\Armenie\13 - Track13.wav

Pre-gap length 0:00:02.00

Peak level 81.0 %
Extraction speed 6.7 X
Track quality 100.0 %
Test CRC 07515D90
Copy CRC 07515D90
Track not present in AccurateRip database
Copy OK

Track 14

Filename K:\Musique\Armenie\14 - Track14.wav

Pre-gap length 0:00:02.00

Peak level 98.8 %
Extraction speed 7.3 X
Track quality 100.0 %
Test CRC 7CF32899
Copy CRC 7CF32899
Track not present in AccurateRip database
Copy OK

Track 15

Filename K:\Musique\Armenie\15 - Track15.wav

Pre-gap length 0:00:02.00

Peak level 55.7 %
Extraction speed 7.6 X
Track quality 100.0 %
Test CRC 98304A17
Copy CRC 98304A17
Track not present in AccurateRip database
Copy OK

Track 16

Filename K:\Musique\Armenie\16 - Track16.wav

Pre-gap length 0:00:02.00

Peak level 84.3 %
Extraction speed 6.6 X
Track quality 99.9 %
Test CRC F232E9BE
Copy CRC F232E9BE
Track not present in AccurateRip database
Copy OK

Track 17

Filename K:\Musique\Armenie\17 - Track17.wav

Pre-gap length 0:00:02.00

Peak level 78.3 %
Extraction speed 5.0 X
Track quality 99.8 %
Test CRC 6D567406
Copy CRC 6D567406
Track not present in AccurateRip database
Copy OK

Track 18

Filename K:\Musique\Armenie\18 - Track18.wav

Pre-gap length 0:00:02.00

Peak level 85.4 %
Extraction speed 7.4 X
Track quality 100.0 %
Test CRC 7CA7EDE9
Copy CRC 7CA7EDE9
Track not present in AccurateRip database
Copy OK

Track 19

Filename K:\Musique\Armenie\19 - Track19.wav

Pre-gap length 0:00:02.00

Peak level 78.4 %
Extraction speed 7.8 X
Track quality 100.0 %
Test CRC 77C2777A
Copy CRC 77C2777A
Track not present in AccurateRip database
Copy OK

Track 20

Filename K:\Musique\Armenie\20 - Track20.wav

Pre-gap length 0:00:02.00

Peak level 95.3 %
Extraction speed 8.0 X
Track quality 100.0 %
Test CRC EFAB1922
Copy CRC EFAB1922
Track not present in AccurateRip database
Copy OK

Track 21

Filename K:\Musique\Armenie\21 - Track21.wav

Pre-gap length 0:00:02.00

Peak level 70.6 %
Extraction speed 6.5 X
Track quality 100.0 %
Test CRC 114B729E
Copy CRC 114B729E
Track not present in AccurateRip database
Copy OK

Track 22

Filename K:\Musique\Armenie\22 - Track22.wav

Pre-gap length 0:00:02.00

Peak level 68.1 %
Extraction speed 7.4 X
Track quality 100.0 %
Test CRC CDBBD0FD
Copy CRC CDBBD0FD
Track not present in AccurateRip database
Copy OK

Track 23

Filename K:\Musique\Armenie\23 - Track23.wav

Pre-gap length 0:00:02.00

Peak level 83.4 %
Extraction speed 7.1 X
Track quality 99.9 %
Test CRC 69E04435
Copy CRC 69E04435
Track not present in AccurateRip database
Copy OK

Track 24

Filename K:\Musique\Armenie\24 - Track24.wav

Pre-gap length 0:00:02.00

Peak level 86.5 %
Extraction speed 9.2 X
Track quality 100.0 %
Test CRC 2DC10F24
Copy CRC 2DC10F24
Track not present in AccurateRip database
Copy OK


None of the tracks are present in the AccurateRip database

No errors occurred

End of status report

–– CUETools DB Plugin V2.1.6

[CTDB TOCID: G5ydzFy2LxRM3ExkDEQZOANFgAo-] disk not present in database
Submit result: G5ydzFy2LxRM3ExkDEQZOANFgAo- has been uploaded


==== Log checksum 3C46EEF508075DB9F395D10187FEAC2202C93328A5FB0C2F1E12DFCCF89CB043 ====

Thanks to the Original ripper Vldmar74 !