Subcategories
Tags
Language
Tags

VA - Rockin' in the USA : Hot 100 Hits of the 80s (2018)

Posted By: delpotro
VA - Rockin' in the USA : Hot 100 Hits of the 80s (2018)

VA - Rockin' in the USA : Hot 100 Hits of the 80s (2018)
EAC Rip | FLAC (tracks+log+.cue) | 01:17:43 | Scans included | 552 Mb
Rock, Pop Rock, New Wave | Label: Ace Records

The 1980s were probably the last real decade for the pop single. It was certainly the last one in which every record that made the Hot 100 was an actual vinyl single. Radio was still breaking big hits and new artists, rather than TV talent shows and the still-nascent Internet. And people still rushed to their local record store to buy what their local station was playing, rather than streaming or downloading it.

Having successfully anthologised the American charts of the 50s, 60s and 70s over a long period of time, Ace is delighted this month to premiere “Rockin’ In The USA”, its first anthology of 1980s US Hot 100 hits.

80s radio made hits for a lot of new names. As had been the case in earlier eras, many of them are still around 30 to almost 40 years later, while the careers of others virtually began and ended with their lone hit. Our earlier series have always embraced both the renowned and the obscure, and this is no different.

Here are almost two dozen of the finest US hits of that decade, all presented as they were originally heard coming over FM Pop radio right across America. Many were also UK hits, and all of them should have been. Some of the best pop and rock of the 80s you will ever hear on the same CD is present on “Rockin’ In The USA”. We are sure it will prove to be as popular as its sister series “The Golden Age Of American Rock’n’Roll”, “Chartbusters USA” and “The Hit List”.
Tracklist:
01. The Romantics - What I like about you
02. Cyndi Lauper - Time after time
03. Huey Lewis & The News - Hope you love me like you say you do
04. The Outfield - Your love
05. Jimmy Hall - I'm happy that love has found you
06. Marshall Crenshaw - Someday someday
07. Greg Guidry - Goin' down
08. Pat Benatar - Hit me with your best shot
09. Paul Carrack - I need you
10. Amy Holland - How do I survive
11. The Go-Go's - Our lips are sealed
12. Rick Springfield - I've done everything for you
13. Balance - Breaking away
14. Face to Face - 10-9-8
15. Daryl Hall - Say it isn't so
16. Karla Bonoff - Personally
17. Mr. Mister - Is it love
18. The Cars - You might think
19. Ronnie Milsap - There's no gettin' over me
20. The Bangles - Walking down your street
21. Deborah Allen - Baby I lied
22. Bruce Hornsby - The valley road
23. John Mellencamp - R.O.C.K. in the U.S.A.

Exact Audio Copy V1.3 from 2. September 2016

EAC extraction logfile from 15. October 2018, 9:14

Various Artists / Rockin' in the USA : Hot 100 hits of the 80s

Used drive : PLEXTOR PX-891SAF Adapter: 1 ID: 0

Read mode : Secure
Utilize accurate stream : Yes
Defeat audio cache : Yes
Make use of C2 pointers : No

Read offset correction : 6
Overread into Lead-In and Lead-Out : No
Fill up missing offset samples with silence : Yes
Delete leading and trailing silent blocks : No
Null samples used in CRC calculations : Yes
Used interface : Native Win32 interface for Win NT & 2000
Gap handling : Appended to previous track

Used output format : User Defined Encoder
Selected bitrate : 1024 kBit/s
Quality : High
Add ID3 tag : No
Command line compressor : C:\Program Files (x86)\Exact Audio Copy\Flac\flac.exe
Additional command line options : -8 -V -T "ARTIST=%artist%" -T "TITLE=%title%" -T "ALBUM=%albumtitle%" -T "DATE=%year%" -T "TRACKNUMBER=%tracknr%" -T "GENRE=%genre%" -T "PERFORMER=%albuminterpret%" -T "COMPOSER=%composer%" %haslyrics%–tag-from-file=LYRICS="%lyricsfile%"%haslyrics% -T "ALBUMARTIST=%albumartist%" -T "DISCNUMBER=%cdnumber%" -T "TOTALDISCS=%totalcds%" -T "TOTALTRACKS=%numtracks%" -T "COMMENT=%comment%" %source% -o %dest%


TOC of the extracted CD

Track | Start | Length | Start sector | End sector
––––––––––––––––––––––––––––-
1 | 0:00.00 | 2:56.17 | 0 | 13216
2 | 2:56.17 | 4:00.35 | 13217 | 31251
3 | 6:56.52 | 3:44.67 | 31252 | 48118
4 | 10:41.44 | 3:23.36 | 48119 | 63379
5 | 14:05.05 | 3:19.04 | 63380 | 78308
6 | 17:24.09 | 2:50.17 | 78309 | 91075
7 | 20:14.26 | 3:44.42 | 91076 | 107917
8 | 23:58.68 | 2:52.07 | 107918 | 120824
9 | 26:51.00 | 2:48.12 | 120825 | 133436
10 | 29:39.12 | 3:10.60 | 133437 | 147746
11 | 32:49.72 | 2:45.74 | 147747 | 160195
12 | 35:35.71 | 2:43.63 | 160196 | 172483
13 | 38:19.59 | 3:16.05 | 172484 | 187188
14 | 41:35.64 | 3:45.10 | 187189 | 204073
15 | 45:20.74 | 3:58.32 | 204074 | 221955
16 | 49:19.31 | 3:34.32 | 221956 | 238037
17 | 52:53.63 | 3:33.49 | 238038 | 254061
18 | 56:27.37 | 3:06.40 | 254062 | 268051
19 | 59:34.02 | 3:15.38 | 268052 | 282714
20 | 62:49.40 | 3:16.24 | 282715 | 297438
21 | 66:05.64 | 4:04.07 | 297439 | 315745
22 | 70:09.71 | 4:43.03 | 315746 | 336973
23 | 74:52.74 | 2:50.19 | 336974 | 349742


Track 1

Filename D:\Rotterdam 6\VA - Rockin' In The USA\01. The Romantics - What I like about you.wav

Pre-gap length 0:00:02.00

Peak level 96.2 %
Extraction speed 5.3 X
Track quality 100.0 %
Test CRC 2761F3BD
Copy CRC 2761F3BD
Track not present in AccurateRip database
Copy OK

Track 2

Filename D:\Rotterdam 6\VA - Rockin' In The USA\02. Cyndi Lauper - Time after time.wav

Pre-gap length 0:00:00.22

Peak level 96.2 %
Extraction speed 6.0 X
Track quality 100.0 %
Test CRC D27E2F50
Copy CRC D27E2F50
Track not present in AccurateRip database
Copy OK

Track 3

Filename D:\Rotterdam 6\VA - Rockin' In The USA\03. Huey Lewis & The News - Hope you love me like you say you do.wav

Pre-gap length 0:00:01.14

Peak level 96.2 %
Extraction speed 6.4 X
Track quality 100.0 %
Test CRC 2E921399
Copy CRC 2E921399
Track not present in AccurateRip database
Copy OK

Track 4

Filename D:\Rotterdam 6\VA - Rockin' In The USA\04. The Outfield - Your love.wav

Pre-gap length 0:00:01.92

Peak level 96.2 %
Extraction speed 5.4 X
Track quality 99.9 %
Test CRC 07388981
Copy CRC 07388981
Track not present in AccurateRip database
Copy OK

Track 5

Filename D:\Rotterdam 6\VA - Rockin' In The USA\05. Jimmy Hall - I'm happy that love has found you.wav

Pre-gap length 0:00:01.16

Peak level 96.2 %
Extraction speed 7.0 X
Track quality 100.0 %
Test CRC 79ABD67F
Copy CRC 79ABD67F
Track not present in AccurateRip database
Copy OK

Track 6

Filename D:\Rotterdam 6\VA - Rockin' In The USA\06. Marshall Crenshaw - Someday someday.wav

Pre-gap length 0:00:01.01

Peak level 96.2 %
Extraction speed 7.1 X
Track quality 100.0 %
Test CRC 703377BA
Copy CRC 703377BA
Track not present in AccurateRip database
Copy OK

Track 7

Filename D:\Rotterdam 6\VA - Rockin' In The USA\07. Greg Guidry - Goin' down.wav

Pre-gap length 0:00:01.24

Peak level 96.1 %
Extraction speed 7.7 X
Track quality 100.0 %
Test CRC 2B260725
Copy CRC 2B260725
Track not present in AccurateRip database
Copy OK

Track 8

Filename D:\Rotterdam 6\VA - Rockin' In The USA\08. Pat Benatar - Hit me with your best shot.wav

Pre-gap length 0:00:01.46

Peak level 86.4 %
Extraction speed 7.7 X
Track quality 100.0 %
Test CRC 5F7E7036
Copy CRC 5F7E7036
Track not present in AccurateRip database
Copy OK

Track 9

Filename D:\Rotterdam 6\VA - Rockin' In The USA\09. Paul Carrack - I need you.wav

Pre-gap length 0:00:01.82

Peak level 94.5 %
Extraction speed 7.8 X
Track quality 100.0 %
Test CRC 2FBEAD84
Copy CRC 2FBEAD84
Track not present in AccurateRip database
Copy OK

Track 10

Filename D:\Rotterdam 6\VA - Rockin' In The USA\10. Amy Holland - How do I survive.wav

Pre-gap length 0:00:01.10

Peak level 96.2 %
Extraction speed 8.2 X
Track quality 100.0 %
Test CRC FA21FC3B
Copy CRC FA21FC3B
Track not present in AccurateRip database
Copy OK

Track 11

Filename D:\Rotterdam 6\VA - Rockin' In The USA\11. The Go-Go's - Our lips are sealed.wav

Pre-gap length 0:00:01.20

Peak level 88.4 %
Extraction speed 6.4 X
Track quality 99.9 %
Test CRC 7072D872
Copy CRC 7072D872
Track not present in AccurateRip database
Copy OK

Track 12

Filename D:\Rotterdam 6\VA - Rockin' In The USA\12. Rick Springfield - I've done everything for you.wav

Pre-gap length 0:00:01.37

Peak level 96.2 %
Extraction speed 8.4 X
Track quality 100.0 %
Test CRC 317E0A69
Copy CRC 317E0A69
Track not present in AccurateRip database
Copy OK

Track 13

Filename D:\Rotterdam 6\VA - Rockin' In The USA\13. Balance - Breaking away.wav

Pre-gap length 0:00:01.25

Peak level 83.6 %
Extraction speed 9.0 X
Track quality 100.0 %
Test CRC 97558D1C
Copy CRC 97558D1C
Track not present in AccurateRip database
Copy OK

Track 14

Filename D:\Rotterdam 6\VA - Rockin' In The USA\14. Face to Face - 10-9-8.wav

Pre-gap length 0:00:01.44

Peak level 96.2 %
Extraction speed 9.2 X
Track quality 100.0 %
Test CRC 2C8C5BCC
Copy CRC 2C8C5BCC
Track not present in AccurateRip database
Copy OK

Track 15

Filename D:\Rotterdam 6\VA - Rockin' In The USA\15. Daryl Hall & John Oates - Say it isn't so.wav

Pre-gap length 0:00:01.02

Peak level 92.9 %
Extraction speed 9.7 X
Track quality 100.0 %
Test CRC CF770625
Copy CRC CF770625
Track not present in AccurateRip database
Copy OK

Track 16

Filename D:\Rotterdam 6\VA - Rockin' In The USA\16. Karla Bonoff - Personally.wav

Pre-gap length 0:00:01.73

Peak level 96.2 %
Extraction speed 7.8 X
Track quality 99.9 %
Test CRC 8D536166
Copy CRC 8D536166
Track not present in AccurateRip database
Copy OK

Track 17

Filename D:\Rotterdam 6\VA - Rockin' In The USA\17. Mr. Mister - Is it love.wav

Pre-gap length 0:00:00.88

Peak level 96.2 %
Extraction speed 10.2 X
Track quality 100.0 %
Test CRC 4E39B954
Copy CRC 4E39B954
Track not present in AccurateRip database
Copy OK

Track 18

Filename D:\Rotterdam 6\VA - Rockin' In The USA\18. The Cars - You might think.wav

Pre-gap length 0:00:01.53

Peak level 96.2 %
Extraction speed 7.8 X
Track quality 99.9 %
Test CRC BF26481B
Copy CRC BF26481B
Track not present in AccurateRip database
Copy OK

Track 19

Filename D:\Rotterdam 6\VA - Rockin' In The USA\19. Ronnie Milsap - There's no gettin' over me.wav

Pre-gap length 0:00:01.78

Peak level 95.2 %
Extraction speed 8.0 X
Track quality 99.9 %
Test CRC 2E6E2427
Copy CRC 2E6E2427
Track not present in AccurateRip database
Copy OK

Track 20

Filename D:\Rotterdam 6\VA - Rockin' In The USA\20. The Bangles - Walking down your street.wav

Pre-gap length 0:00:01.61

Peak level 74.6 %
Extraction speed 10.3 X
Track quality 100.0 %
Test CRC 8EE10B96
Copy CRC 8EE10B96
Track not present in AccurateRip database
Copy OK

Track 21

Filename D:\Rotterdam 6\VA - Rockin' In The USA\21. Deborah Allen - Baby I lied.wav

Pre-gap length 0:00:01.62

Peak level 96.2 %
Extraction speed 11.3 X
Track quality 100.0 %
Test CRC A99E6109
Copy CRC A99E6109
Track not present in AccurateRip database
Copy OK

Track 22

Filename D:\Rotterdam 6\VA - Rockin' In The USA\22. Bruce Hornsby - The valley road.wav

Pre-gap length 0:00:00.50

Peak level 96.1 %
Extraction speed 11.9 X
Track quality 100.0 %
Test CRC 836BE247
Copy CRC 836BE247
Track not present in AccurateRip database
Copy OK

Track 23

Filename D:\Rotterdam 6\VA - Rockin' In The USA\23. John Mellencamp - R.O.C.K. in the U.S.A..wav

Pre-gap length 0:00:00.80

Peak level 91.4 %
Extraction speed 11.0 X
Track quality 100.0 %
Test CRC 708E8E84
Copy CRC 708E8E84
Track not present in AccurateRip database
Copy OK


None of the tracks are present in the AccurateRip database

No errors occurred

End of status report

–– CUETools DB Plugin V2.1.6

[CTDB TOCID: HPnEUDldT8Q6ezuHadFrpc.k7no-] found
Submit result: HPnEUDldT8Q6ezuHadFrpc.k7no- has been confirmed
Track | CTDB Status
1 | (1/1) Accurately ripped
2 | (1/1) Accurately ripped
3 | (1/1) Accurately ripped
4 | (1/1) Accurately ripped
5 | (1/1) Accurately ripped
6 | (1/1) Accurately ripped
7 | (1/1) Accurately ripped
8 | (1/1) Accurately ripped
9 | (1/1) Accurately ripped
10 | (1/1) Accurately ripped
11 | (1/1) Accurately ripped
12 | (1/1) Accurately ripped
13 | (1/1) Accurately ripped
14 | (1/1) Accurately ripped
15 | (1/1) Accurately ripped
16 | (1/1) Accurately ripped
17 | (1/1) Accurately ripped
18 | (1/1) Accurately ripped
19 | (1/1) Accurately ripped
20 | (1/1) Accurately ripped
21 | (1/1) Accurately ripped
22 | (1/1) Accurately ripped
23 | (1/1) Accurately ripped


==== Log checksum 6087FF0E56C53ABB659ED7DC2FA746CBF569C2D35389C7A8A455904326006362 ====

––––––––––––––––––––––––––––––

Exact Audio Copy V1.3 from 2. September 2016

EAC extraction logfile from 15. October 2018, 9:14

Various Artists / Rockin' in the USA : Hot 100 hits of the 80s

Used drive : PLEXTOR PX-891SAF Adapter: 1 ID: 0

Read mode : Secure
Utilize accurate stream : Yes
Defeat audio cache : Yes
Make use of C2 pointers : No

Read offset correction : 6
Overread into Lead-In and Lead-Out : No
Fill up missing offset samples with silence : Yes
Delete leading and trailing silent blocks : No
Null samples used in CRC calculations : Yes
Used interface : Native Win32 interface for Win NT & 2000
Gap handling : Appended to previous track

Used output format : User Defined Encoder
Selected bitrate : 1024 kBit/s
Quality : High
Add ID3 tag : No
Command line compressor : C:\Program Files (x86)\Exact Audio Copy\Flac\flac.exe
Additional command line options : -8 -V -T "ARTIST=%artist%" -T "TITLE=%title%" -T "ALBUM=%albumtitle%" -T "DATE=%year%" -T "TRACKNUMBER=%tracknr%" -T "GENRE=%genre%" -T "PERFORMER=%albuminterpret%" -T "COMPOSER=%composer%" %haslyrics%–tag-from-file=LYRICS="%lyricsfile%"%haslyrics% -T "ALBUMARTIST=%albumartist%" -T "DISCNUMBER=%cdnumber%" -T "TOTALDISCS=%totalcds%" -T "TOTALTRACKS=%numtracks%" -T "COMMENT=%comment%" %source% -o %dest%


TOC of the extracted CD

Track | Start | Length | Start sector | End sector
––––––––––––––––––––––––––––-
1 | 0:00.00 | 2:56.17 | 0 | 13216
2 | 2:56.17 | 4:00.35 | 13217 | 31251
3 | 6:56.52 | 3:44.67 | 31252 | 48118
4 | 10:41.44 | 3:23.36 | 48119 | 63379
5 | 14:05.05 | 3:19.04 | 63380 | 78308
6 | 17:24.09 | 2:50.17 | 78309 | 91075
7 | 20:14.26 | 3:44.42 | 91076 | 107917
8 | 23:58.68 | 2:52.07 | 107918 | 120824
9 | 26:51.00 | 2:48.12 | 120825 | 133436
10 | 29:39.12 | 3:10.60 | 133437 | 147746
11 | 32:49.72 | 2:45.74 | 147747 | 160195
12 | 35:35.71 | 2:43.63 | 160196 | 172483
13 | 38:19.59 | 3:16.05 | 172484 | 187188
14 | 41:35.64 | 3:45.10 | 187189 | 204073
15 | 45:20.74 | 3:58.32 | 204074 | 221955
16 | 49:19.31 | 3:34.32 | 221956 | 238037
17 | 52:53.63 | 3:33.49 | 238038 | 254061
18 | 56:27.37 | 3:06.40 | 254062 | 268051
19 | 59:34.02 | 3:15.38 | 268052 | 282714
20 | 62:49.40 | 3:16.24 | 282715 | 297438
21 | 66:05.64 | 4:04.07 | 297439 | 315745
22 | 70:09.71 | 4:43.03 | 315746 | 336973
23 | 74:52.74 | 2:50.19 | 336974 | 349742


Track 1

Filename D:\Rotterdam 6\VA - Rockin' In The USA\01. The Romantics - What I like about you.wav

Pre-gap length 0:00:02.00

Peak level 96.2 %
Extraction speed 5.3 X
Track quality 100.0 %
Test CRC 2761F3BD
Copy CRC 2761F3BD
Track not present in AccurateRip database
Copy OK

Track 2

Filename D:\Rotterdam 6\VA - Rockin' In The USA\02. Cyndi Lauper - Time after time.wav

Pre-gap length 0:00:00.22

Peak level 96.2 %
Extraction speed 6.0 X
Track quality 100.0 %
Test CRC D27E2F50
Copy CRC D27E2F50
Track not present in AccurateRip database
Copy OK

Track 3

Filename D:\Rotterdam 6\VA - Rockin' In The USA\03. Huey Lewis & The News - Hope you love me like you say you do.wav

Pre-gap length 0:00:01.14

Peak level 96.2 %
Extraction speed 6.4 X
Track quality 100.0 %
Test CRC 2E921399
Copy CRC 2E921399
Track not present in AccurateRip database
Copy OK

Track 4

Filename D:\Rotterdam 6\VA - Rockin' In The USA\04. The Outfield - Your love.wav

Pre-gap length 0:00:01.92

Peak level 96.2 %
Extraction speed 5.4 X
Track quality 99.9 %
Test CRC 07388981
Copy CRC 07388981
Track not present in AccurateRip database
Copy OK

Track 5

Filename D:\Rotterdam 6\VA - Rockin' In The USA\05. Jimmy Hall - I'm happy that love has found you.wav

Pre-gap length 0:00:01.16

Peak level 96.2 %
Extraction speed 7.0 X
Track quality 100.0 %
Test CRC 79ABD67F
Copy CRC 79ABD67F
Track not present in AccurateRip database
Copy OK

Track 6

Filename D:\Rotterdam 6\VA - Rockin' In The USA\06. Marshall Crenshaw - Someday someday.wav

Pre-gap length 0:00:01.01

Peak level 96.2 %
Extraction speed 7.1 X
Track quality 100.0 %
Test CRC 703377BA
Copy CRC 703377BA
Track not present in AccurateRip database
Copy OK

Track 7

Filename D:\Rotterdam 6\VA - Rockin' In The USA\07. Greg Guidry - Goin' down.wav

Pre-gap length 0:00:01.24

Peak level 96.1 %
Extraction speed 7.7 X
Track quality 100.0 %
Test CRC 2B260725
Copy CRC 2B260725
Track not present in AccurateRip database
Copy OK

Track 8

Filename D:\Rotterdam 6\VA - Rockin' In The USA\08. Pat Benatar - Hit me with your best shot.wav

Pre-gap length 0:00:01.46

Peak level 86.4 %
Extraction speed 7.7 X
Track quality 100.0 %
Test CRC 5F7E7036
Copy CRC 5F7E7036
Track not present in AccurateRip database
Copy OK

Track 9

Filename D:\Rotterdam 6\VA - Rockin' In The USA\09. Paul Carrack - I need you.wav

Pre-gap length 0:00:01.82

Peak level 94.5 %
Extraction speed 7.8 X
Track quality 100.0 %
Test CRC 2FBEAD84
Copy CRC 2FBEAD84
Track not present in AccurateRip database
Copy OK

Track 10

Filename D:\Rotterdam 6\VA - Rockin' In The USA\10. Amy Holland - How do I survive.wav

Pre-gap length 0:00:01.10

Peak level 96.2 %
Extraction speed 8.2 X
Track quality 100.0 %
Test CRC FA21FC3B
Copy CRC FA21FC3B
Track not present in AccurateRip database
Copy OK

Track 11

Filename D:\Rotterdam 6\VA - Rockin' In The USA\11. The Go-Go's - Our lips are sealed.wav

Pre-gap length 0:00:01.20

Peak level 88.4 %
Extraction speed 6.4 X
Track quality 99.9 %
Test CRC 7072D872
Copy CRC 7072D872
Track not present in AccurateRip database
Copy OK

Track 12

Filename D:\Rotterdam 6\VA - Rockin' In The USA\12. Rick Springfield - I've done everything for you.wav

Pre-gap length 0:00:01.37

Peak level 96.2 %
Extraction speed 8.4 X
Track quality 100.0 %
Test CRC 317E0A69
Copy CRC 317E0A69
Track not present in AccurateRip database
Copy OK

Track 13

Filename D:\Rotterdam 6\VA - Rockin' In The USA\13. Balance - Breaking away.wav

Pre-gap length 0:00:01.25

Peak level 83.6 %
Extraction speed 9.0 X
Track quality 100.0 %
Test CRC 97558D1C
Copy CRC 97558D1C
Track not present in AccurateRip database
Copy OK

Track 14

Filename D:\Rotterdam 6\VA - Rockin' In The USA\14. Face to Face - 10-9-8.wav

Pre-gap length 0:00:01.44

Peak level 96.2 %
Extraction speed 9.2 X
Track quality 100.0 %
Test CRC 2C8C5BCC
Copy CRC 2C8C5BCC
Track not present in AccurateRip database
Copy OK

Track 15

Filename D:\Rotterdam 6\VA - Rockin' In The USA\15. Daryl Hall & John Oates - Say it isn't so.wav

Pre-gap length 0:00:01.02

Peak level 92.9 %
Extraction speed 9.7 X
Track quality 100.0 %
Test CRC CF770625
Copy CRC CF770625
Track not present in AccurateRip database
Copy OK

Track 16

Filename D:\Rotterdam 6\VA - Rockin' In The USA\16. Karla Bonoff - Personally.wav

Pre-gap length 0:00:01.73

Peak level 96.2 %
Extraction speed 7.8 X
Track quality 99.9 %
Test CRC 8D536166
Copy CRC 8D536166
Track not present in AccurateRip database
Copy OK

Track 17

Filename D:\Rotterdam 6\VA - Rockin' In The USA\17. Mr. Mister - Is it love.wav

Pre-gap length 0:00:00.88

Peak level 96.2 %
Extraction speed 10.2 X
Track quality 100.0 %
Test CRC 4E39B954
Copy CRC 4E39B954
Track not present in AccurateRip database
Copy OK

Track 18

Filename D:\Rotterdam 6\VA - Rockin' In The USA\18. The Cars - You might think.wav

Pre-gap length 0:00:01.53

Peak level 96.2 %
Extraction speed 7.8 X
Track quality 99.9 %
Test CRC BF26481B
Copy CRC BF26481B
Track not present in AccurateRip database
Copy OK

Track 19

Filename D:\Rotterdam 6\VA - Rockin' In The USA\19. Ronnie Milsap - There's no gettin' over me.wav

Pre-gap length 0:00:01.78

Peak level 95.2 %
Extraction speed 8.0 X
Track quality 99.9 %
Test CRC 2E6E2427
Copy CRC 2E6E2427
Track not present in AccurateRip database
Copy OK

Track 20

Filename D:\Rotterdam 6\VA - Rockin' In The USA\20. The Bangles - Walking down your street.wav

Pre-gap length 0:00:01.61

Peak level 74.6 %
Extraction speed 10.3 X
Track quality 100.0 %
Test CRC 8EE10B96
Copy CRC 8EE10B96
Track not present in AccurateRip database
Copy OK

Track 21

Filename D:\Rotterdam 6\VA - Rockin' In The USA\21. Deborah Allen - Baby I lied.wav

Pre-gap length 0:00:01.62

Peak level 96.2 %
Extraction speed 11.3 X
Track quality 100.0 %
Test CRC A99E6109
Copy CRC A99E6109
Track not present in AccurateRip database
Copy OK

Track 22

Filename D:\Rotterdam 6\VA - Rockin' In The USA\22. Bruce Hornsby - The valley road.wav

Pre-gap length 0:00:00.50

Peak level 96.1 %
Extraction speed 11.9 X
Track quality 100.0 %
Test CRC 836BE247
Copy CRC 836BE247
Track not present in AccurateRip database
Copy OK

Track 23

Filename D:\Rotterdam 6\VA - Rockin' In The USA\23. John Mellencamp - R.O.C.K. in the U.S.A..wav

Pre-gap length 0:00:00.80

Peak level 91.4 %
Extraction speed 11.0 X
Track quality 100.0 %
Test CRC 708E8E84
Copy CRC 708E8E84
Track not present in AccurateRip database
Copy OK


None of the tracks are present in the AccurateRip database

No errors occurred

End of status report

–– CUETools DB Plugin V2.1.6

[CTDB TOCID: HPnEUDldT8Q6ezuHadFrpc.k7no-] found
Submit result: HPnEUDldT8Q6ezuHadFrpc.k7no- has been confirmed
Track | CTDB Status
1 | (1/1) Accurately ripped
2 | (1/1) Accurately ripped
3 | (1/1) Accurately ripped
4 | (1/1) Accurately ripped
5 | (1/1) Accurately ripped
6 | (1/1) Accurately ripped
7 | (1/1) Accurately ripped
8 | (1/1) Accurately ripped
9 | (1/1) Accurately ripped
10 | (1/1) Accurately ripped
11 | (1/1) Accurately ripped
12 | (1/1) Accurately ripped
13 | (1/1) Accurately ripped
14 | (1/1) Accurately ripped
15 | (1/1) Accurately ripped
16 | (1/1) Accurately ripped
17 | (1/1) Accurately ripped
18 | (1/1) Accurately ripped
19 | (1/1) Accurately ripped
20 | (1/1) Accurately ripped
21 | (1/1) Accurately ripped
22 | (1/1) Accurately ripped
23 | (1/1) Accurately ripped


==== Log checksum 6087FF0E56C53ABB659ED7DC2FA746CBF569C2D35389C7A8A455904326006362 ====

Thanks to the Original ripper funkyman !