Subcategories

Various Artists - Tibetan Freedom Concert (1997) {3 CD Capitol Records 7243 8 59110 2 6}

Posted By: ruskaval
Various Artists - Tibetan Freedom Concert (1997) {3 CD Capitol Records 7243 8 59110 2 6}

Various Artists - Tibetan Freedom Concert (1997) {3 CD Capitol Records 7243 8 59110 2 6}
EAC rip (secure mode) | FLAC (tracks)+CUE+LOG -> 985 Mb | MP3 @320 -> 361 Mb
Full Artwork @ 600 dpi (png) -> 1.24 Gb | Data -> 177 Mb | 5% repair rar
© 1997 Capitol Records, Inc. / Grand Royal | 7243 8 59110 2 6
Alternative / Indie / Jam Band / Electronic / Britpop / Rap / Post-Grunge / World Music

The Tibetan Freedom Concert was the largest rock charity event of 1997, a two-day event held in June that featured many of the biggest names in rock and rap. Appropriately, it was filmed and recorded with the intention of being released later in the year as a charity record. The triple-disc set, The Tibetan Freedom Concert, is the extraordinary document of that weekend, containing one performance apiece from the 36 artists who appeared at the concert.
Various Artists - Tibetan Freedom Concert (1997) {3 CD Capitol Records 7243 8 59110 2 6}

As expected with any charity album this size, there's a fair amount of filler on the album, as well as a number of missed opportunities – for instance, Noel Gallagher's solo electric reading of "Cast No Shadow" would have been more affecting on an acoustic, while the Mighty Mighty Bosstones simply sound out of place. Fortunately, these are exceptions to the rule – there's a lot of wonderful music here, including the Jon Spencer Blues' Explosion's frenetic "Blues Explosion Man," Radiohead's stark, gorgeous "Fake Plastic Trees," Biz Markie's wild medley, Pavement's shambling epic "Type Slowly," Lee Perry's "Heads of Government," Blur's haunting "Beetlebum," Björk performing "Hyper-Ballad" with a string quartet, Rancid saluting Jimmy Cliff with "The Harder They Come," Cibo Matto's "Birthday Cake," Beck's "Asshole," and and the Beastie Boys' raucous "Root Down."

Various Artists - Tibetan Freedom Concert (1997) {3 CD Capitol Records 7243 8 59110 2 6}


These moments were where it was at musically during the weekend, even if there were some other great performances – part of the fun of this kind of package is to sit down and find the hidden gems, and a set as extensive as Tibetan Freedom Concert certainly has a number of them, which make the album worthwhile.
Various Artists - Tibetan Freedom Concert (1997) {3 CD Capitol Records 7243 8 59110 2 6}


Tracklist & personnel:

Disc One - New York City, 7 June 1997


01 - Monks - Opening Prayers
02 - Ben Harper - Ground On Down
03 - The Jon Spencer Blues Explosion - Blues Explosion Man
04 - Yungchen Lhamo - Om Mani Padme Hung
05 - Patti Smith - About A Boy
06 - Radiohead - Fake Plastic Trees
07 - A Tribe Called Quest - Oh My God
08 - U2 - One
09 - Noel Gallagher - Cast No Shadow
10 - Sonic Youth - Wildflower
11 - Porno For Pyros - Meija
12 - Nawang Khechog - The Celebration
13 - Foo Fighters - This Is A Call
14 - KRS-1 - The Bridge Is Over-Black Cop-South Bronx Medley
15 - Biz Markie - Star Spangled Banner-Nobody Beats The Biz
16 - Monks - Closing Prayers

Various Artists - Tibetan Freedom Concert (1997) {3 CD Capitol Records 7243 8 59110 2 6}


Disc Two - New York City, 8 June 1997

01 - Monks - Opening Prayers
02 - Eddie Vedder & Mike McCready - Yellow Ledbetter
03 - Mighty Mighty Bosstones - Noise Brigade
04 - Pavement - Type Slowly
05 - Dadon - Gyi Ma Gyi
06 - Lee Perry Featuring Mad Professor & Robotiks Band - Heads Of Government
07 - Taj Mahal And The Phantom Blues Band - She Caught The Katy
08 - Blur - Beetlebum
09 - Michael Stipe & Mike Mills - Electrolite
10 - Chaksam-Pa - Ajo Sotop
11 - Alanis Morissette - Wake Up
12 - Bjork - Hyper-Ballad
13 - Rancid - The Harder They Come
14 - Beastie Boys - Root Down
15 - Monks - Closing Prayers

Various Artists - Tibetan Freedom Concert (1997) {3 CD Capitol Records 7243 8 59110 2 6}


Disc Three - San Francisco, 15 & 16 June 1996 (enhanced cd)

01 - Cibo Matto - Birthday Cake
02 - Beck - Asshole
03 - De La Soul - Me, Myself & I
04 - The Fugees - Fu Gee La
05 - Rage Against The Machine - Bulls On Parade

Various Artists - Tibetan Freedom Concert (1997) {3 CD Capitol Records 7243 8 59110 2 6}


Exact Audio Copy V1.3 from 2. September 2016

EAC extraction logfile from 15. February 2018, 13:14

Various Artists / Tibetan Freedom Concert (CD1)

Used drive : ATAPI iHAS122 F Adapter: 1 ID: 2

Read mode : Secure
Utilize accurate stream : Yes
Defeat audio cache : Yes
Make use of C2 pointers : No

Read offset correction : 6
Overread into Lead-In and Lead-Out : No
Fill up missing offset samples with silence : Yes
Delete leading and trailing silent blocks : No
Null samples used in CRC calculations : Yes
Used interface : Native Win32 interface for Win NT & 2000
Gap handling : Appended to previous track

Used output format : User Defined Encoder
Selected bitrate : 1024 kBit/s
Quality : High
Add ID3 tag : No
Command line compressor : C:\Program Files (x86)\Exact Audio Copy_v1.3\Flac\flac.exe
Additional command line options : -8 -V -T "ARTIST=%artist%" -T "TITLE=%title%" -T "ALBUM=%albumtitle%" -T "DATE=%year%" -T "TRACKNUMBER=%tracknr%" -T "TOTALTRACKS=%numtracks%" -T "GENRE=%genre%" -T "ALBUMARTIST=%albumartist%" -T "ALBUM ARTIST=%albumartist%" -T "COMMENT=EAC Secure Mode, Test & Copy, AccurateRip, FLAC -8" %source%


TOC of the extracted CD

Track | Start | Length | Start sector | End sector
––––––––––––––––––––––––––––-
1 | 0:00.00 | 1:12.45 | 0 | 5444
2 | 1:12.45 | 5:10.65 | 5445 | 28759
3 | 6:23.35 | 4:02.50 | 28760 | 46959
4 | 10:26.10 | 3:08.30 | 46960 | 61089
5 | 13:34.40 | 6:59.35 | 61090 | 92549
6 | 20:34.00 | 5:01.15 | 92550 | 115139
7 | 25:35.15 | 2:34.32 | 115140 | 126721
8 | 28:09.47 | 4:57.10 | 126722 | 149006
9 | 33:06.57 | 4:51.35 | 149007 | 170866
10 | 37:58.17 | 9:29.48 | 170867 | 213589
11 | 47:27.65 | 3:43.07 | 213590 | 230321
12 | 51:10.72 | 3:44.18 | 230322 | 247139
13 | 54:55.15 | 3:45.42 | 247140 | 264056
14 | 58:40.57 | 3:43.65 | 264057 | 280846
15 | 62:24.47 | 3:03.73 | 280847 | 294644
16 | 65:28.45 | 1:21.20 | 294645 | 300739


Track 1

Filename E:\Rips\Various Artists - Tibetan Freedom Concert (1997) [FLAC] {3 CD Capitol}\Disc 1of2\01 - Monks - Opening Prayers.wav

Pre-gap length 0:00:02.00

Peak level 74.9 %
Extraction speed 3.9 X
Track quality 100.0 %
Test CRC 865FAD4D
Copy CRC 865FAD4D
Accurately ripped (confidence 13) [05915F7A] (AR v2)
Copy OK

Track 2

Filename E:\Rips\Various Artists - Tibetan Freedom Concert (1997) [FLAC] {3 CD Capitol}\Disc 1of2\02 - Ben Harper - Ground On Down.wav

Pre-gap length 0:00:00.03

Peak level 100.0 %
Extraction speed 5.6 X
Track quality 100.0 %
Test CRC B51FA1F3
Copy CRC B51FA1F3
Accurately ripped (confidence 13) [2B366D11] (AR v2)
Copy OK

Track 3

Filename E:\Rips\Various Artists - Tibetan Freedom Concert (1997) [FLAC] {3 CD Capitol}\Disc 1of2\03 - The Jon Spencer Blues Explosion - Blues Explosion Man.wav

Peak level 99.9 %
Extraction speed 5.1 X
Track quality 99.9 %
Test CRC 26095107
Copy CRC 26095107
Accurately ripped (confidence 13) [ED85898B] (AR v2)
Copy OK

Track 4

Filename E:\Rips\Various Artists - Tibetan Freedom Concert (1997) [FLAC] {3 CD Capitol}\Disc 1of2\04 - Yungchen Lhamo - Om Mani Padme Hung.wav

Pre-gap length 0:00:00.05

Peak level 62.5 %
Extraction speed 6.3 X
Track quality 100.0 %
Test CRC F8402669
Copy CRC F8402669
Accurately ripped (confidence 14) [27D26DBE] (AR v2)
Copy OK

Track 5

Filename E:\Rips\Various Artists - Tibetan Freedom Concert (1997) [FLAC] {3 CD Capitol}\Disc 1of2\05 - Patti Smith - About A Boy.wav

Pre-gap length 0:00:00.03

Peak level 100.0 %
Extraction speed 7.4 X
Track quality 100.0 %
Test CRC E4AB8364
Copy CRC E4AB8364
Accurately ripped (confidence 14) [526FEEED] (AR v2)
Copy OK

Track 6

Filename E:\Rips\Various Artists - Tibetan Freedom Concert (1997) [FLAC] {3 CD Capitol}\Disc 1of2\06 - Radiohead - Fake Plastic Trees.wav

Peak level 99.6 %
Extraction speed 7.8 X
Track quality 100.0 %
Test CRC 6CB2F30F
Copy CRC 6CB2F30F
Accurately ripped (confidence 13) [73B4D301] (AR v2)
Copy OK

Track 7

Filename E:\Rips\Various Artists - Tibetan Freedom Concert (1997) [FLAC] {3 CD Capitol}\Disc 1of2\07 - A Tribe Called Quest - Oh My God.wav

Pre-gap length 0:00:10.15

Peak level 100.0 %
Extraction speed 7.4 X
Track quality 100.0 %
Test CRC 80209308
Copy CRC 80209308
Accurately ripped (confidence 13) [4130E92A] (AR v2)
Copy OK

Track 8

Filename E:\Rips\Various Artists - Tibetan Freedom Concert (1997) [FLAC] {3 CD Capitol}\Disc 1of2\08 - U2 - One.wav

Pre-gap length 0:00:14.12

Peak level 100.0 %
Extraction speed 7.2 X
Track quality 99.9 %
Test CRC 765FFC92
Copy CRC 765FFC92
Accurately ripped (confidence 13) [5C090A23] (AR v2)
Copy OK

Track 9

Filename E:\Rips\Various Artists - Tibetan Freedom Concert (1997) [FLAC] {3 CD Capitol}\Disc 1of2\09 - Noel Gallagher - Cast No Shadow.wav

Pre-gap length 0:00:11.27

Peak level 100.0 %
Extraction speed 7.4 X
Track quality 99.9 %
Test CRC 42423FCD
Copy CRC 42423FCD
Accurately ripped (confidence 13) [48B7141B] (AR v2)
Copy OK

Track 10

Filename E:\Rips\Various Artists - Tibetan Freedom Concert (1997) [FLAC] {3 CD Capitol}\Disc 1of2\10 - Sonic Youth - Wildflower.wav

Pre-gap length 0:00:26.57

Peak level 100.0 %
Extraction speed 9.8 X
Track quality 100.0 %
Test CRC 98DA4AAC
Copy CRC 98DA4AAC
Accurately ripped (confidence 13) [533775E2] (AR v2)
Copy OK

Track 11

Filename E:\Rips\Various Artists - Tibetan Freedom Concert (1997) [FLAC] {3 CD Capitol}\Disc 1of2\11 - Porno For Pyros - Meija.wav

Pre-gap length 0:00:15.25

Peak level 100.0 %
Extraction speed 7.7 X
Track quality 99.9 %
Test CRC FB86BF23
Copy CRC FB86BF23
Accurately ripped (confidence 13) [34A7DC00] (AR v2)
Copy OK

Track 12

Filename E:\Rips\Various Artists - Tibetan Freedom Concert (1997) [FLAC] {3 CD Capitol}\Disc 1of2\12 - Nawang Khechog - The Celebration.wav

Pre-gap length 0:00:00.05

Peak level 98.7 %
Extraction speed 9.9 X
Track quality 100.0 %
Test CRC 8BB5A54C
Copy CRC 8BB5A54C
Accurately ripped (confidence 14) [6EB97F0B] (AR v2)
Copy OK

Track 13

Filename E:\Rips\Various Artists - Tibetan Freedom Concert (1997) [FLAC] {3 CD Capitol}\Disc 1of2\13 - Foo Fighters - This Is A Call.wav

Pre-gap length 0:00:11.45

Peak level 100.0 %
Extraction speed 10.0 X
Track quality 100.0 %
Test CRC E090EC07
Copy CRC E090EC07
Accurately ripped (confidence 13) [E480F4E7] (AR v2)
Copy OK

Track 14

Filename E:\Rips\Various Artists - Tibetan Freedom Concert (1997) [FLAC] {3 CD Capitol}\Disc 1of2\14 - KRS-1 - The Bridge Is Over-Black Cop-South Bronx Medley.wav

Pre-gap length 0:00:06.25

Peak level 100.0 %
Extraction speed 10.2 X
Track quality 100.0 %
Test CRC E502AC7B
Copy CRC E502AC7B
Accurately ripped (confidence 13) [7E740023] (AR v2)
Copy OK

Track 15

Filename E:\Rips\Various Artists - Tibetan Freedom Concert (1997) [FLAC] {3 CD Capitol}\Disc 1of2\15 - Biz Markie - Star Spangled Banner-Nobody Beats The Biz.wav

Pre-gap length 0:00:13.52

Peak level 99.9 %
Extraction speed 10.0 X
Track quality 100.0 %
Test CRC FF1D1281
Copy CRC FF1D1281
Accurately ripped (confidence 13) [5549CCCD] (AR v2)
Copy OK

Track 16

Filename E:\Rips\Various Artists - Tibetan Freedom Concert (1997) [FLAC] {3 CD Capitol}\Disc 1of2\16 - Monks - Closing Prayers.wav

Pre-gap length 0:00:07.58

Peak level 70.7 %
Extraction speed 8.1 X
Track quality 100.0 %
Test CRC 6945F4B2
Copy CRC 6945F4B2
Accurately ripped (confidence 13) [79584DC9] (AR v2)
Copy OK


All tracks accurately ripped

No errors occurred

End of status report

–– CUETools DB Plugin V2.1.6

[CTDB TOCID: L8kk80_DiL80QT51Mq5kymAOmCw-] found
Submit result: L8kk80_DiL80QT51Mq5kymAOmCw- has been confirmed
Track | CTDB Status
1 | (17/18) Accurately ripped
2 | (17/18) Accurately ripped
3 | (17/18) Accurately ripped
4 | (17/18) Accurately ripped
5 | (17/18) Accurately ripped
6 | (17/18) Accurately ripped
7 | (17/18) Accurately ripped
8 | (17/18) Accurately ripped
9 | (17/18) Accurately ripped
10 | (17/18) Accurately ripped
11 | (17/18) Accurately ripped
12 | (17/18) Accurately ripped
13 | (17/18) Accurately ripped
14 | (16/18) Accurately ripped
15 | (16/18) Accurately ripped
16 | (16/18) Accurately ripped


==== Log checksum FBB5A26DDD52120331EF1734AA639CA74666CA9C663EEAE80940122DD23A973B ====
Exact Audio Copy V1.3 from 2. September 2016

EAC extraction logfile from 15. February 2018, 13:54

Various Artists / Tibetan Freedom Concert (CD2)

Used drive : ATAPI iHAS122 F Adapter: 1 ID: 2

Read mode : Secure
Utilize accurate stream : Yes
Defeat audio cache : Yes
Make use of C2 pointers : No

Read offset correction : 6
Overread into Lead-In and Lead-Out : No
Fill up missing offset samples with silence : Yes
Delete leading and trailing silent blocks : No
Null samples used in CRC calculations : Yes
Used interface : Native Win32 interface for Win NT & 2000
Gap handling : Appended to previous track

Used output format : User Defined Encoder
Selected bitrate : 1024 kBit/s
Quality : High
Add ID3 tag : No
Command line compressor : C:\Program Files (x86)\Exact Audio Copy_v1.3\Flac\flac.exe
Additional command line options : -8 -V -T "ARTIST=%artist%" -T "TITLE=%title%" -T "ALBUM=%albumtitle%" -T "DATE=%year%" -T "TRACKNUMBER=%tracknr%" -T "TOTALTRACKS=%numtracks%" -T "GENRE=%genre%" -T "ALBUMARTIST=%albumartist%" -T "ALBUM ARTIST=%albumartist%" -T "COMMENT=EAC Secure Mode, Test & Copy, AccurateRip, FLAC -8" %source%


TOC of the extracted CD

Track | Start | Length | Start sector | End sector
––––––––––––––––––––––––––––-
1 | 0:00.00 | 2:24.30 | 0 | 10829
2 | 2:24.30 | 5:44.12 | 10830 | 36641
3 | 8:08.42 | 2:35.00 | 36642 | 48266
4 | 10:43.42 | 6:48.00 | 48267 | 78866
5 | 17:31.42 | 3:43.48 | 78867 | 95639
6 | 21:15.15 | 5:27.65 | 95640 | 120229
7 | 26:43.05 | 3:42.25 | 120230 | 136904
8 | 30:25.30 | 5:56.02 | 136905 | 163606
9 | 36:21.32 | 5:18.45 | 163607 | 187501
10 | 41:40.02 | 5:10.65 | 187502 | 210816
11 | 46:50.67 | 5:16.48 | 210817 | 234564
12 | 52:07.40 | 6:24.70 | 234565 | 263434
13 | 58:32.35 | 2:30.05 | 263435 | 274689
14 | 61:02.40 | 4:12.62 | 274690 | 293651
15 | 65:15.27 | 2:10.28 | 293652 | 303429


Track 1

Filename E:\Rips\Various Artists - Tibetan Freedom Concert (1997) [FLAC] {3 CD Capitol}\Disc 2of2\01 - Monks - Opening Prayers.wav

Pre-gap length 0:00:02.00

Peak level 74.9 %
Extraction speed 3.6 X
Track quality 99.9 %
Test CRC 5F561E06
Copy CRC 5F561E06
Accurately ripped (confidence 14) [F1FFDFB1] (AR v2)
Copy OK

Track 2

Filename E:\Rips\Various Artists - Tibetan Freedom Concert (1997) [FLAC] {3 CD Capitol}\Disc 2of2\02 - Eddie Vedder & Mike McCready - Yellow Ledbetter.wav

Pre-gap length 0:00:00.05

Peak level 99.9 %
Extraction speed 6.0 X
Track quality 100.0 %
Test CRC 310823F1
Copy CRC 310823F1
Accurately ripped (confidence 14) [451AA674] (AR v2)
Copy OK

Track 3

Filename E:\Rips\Various Artists - Tibetan Freedom Concert (1997) [FLAC] {3 CD Capitol}\Disc 2of2\03 - Mighty Mighty Bosstones - Noise Brigade.wav

Pre-gap length 0:00:15.25

Peak level 100.0 %
Extraction speed 4.4 X
Track quality 99.9 %
Test CRC C8B8AE67
Copy CRC C8B8AE67
Accurately ripped (confidence 14) [F27127CD] (AR v2)
Copy OK

Track 4

Filename E:\Rips\Various Artists - Tibetan Freedom Concert (1997) [FLAC] {3 CD Capitol}\Disc 2of2\04 - Pavement - Type Slowly.wav

Pre-gap length 0:00:19.10

Peak level 98.1 %
Extraction speed 6.4 X
Track quality 99.9 %
Test CRC EEC2F97C
Copy CRC EEC2F97C
Accurately ripped (confidence 14) [B00A59E5] (AR v2)
Copy OK

Track 5

Filename E:\Rips\Various Artists - Tibetan Freedom Concert (1997) [FLAC] {3 CD Capitol}\Disc 2of2\05 - Dadon - Gyi Ma Gyi.wav

Pre-gap length 0:00:02.05

Peak level 100.0 %
Extraction speed 7.4 X
Track quality 100.0 %
Test CRC 74E31A0C
Copy CRC 74E31A0C
Accurately ripped (confidence 15) [DD14169C] (AR v2)
Copy OK

Track 6

Filename E:\Rips\Various Artists - Tibetan Freedom Concert (1997) [FLAC] {3 CD Capitol}\Disc 2of2\06 - Lee Perry Featuring Mad Professor & Robotiks Band - Heads Of Government.wav

Pre-gap length 0:00:08.58

Peak level 99.9 %
Extraction speed 8.2 X
Track quality 100.0 %
Test CRC 3150F8BA
Copy CRC 3150F8BA
Accurately ripped (confidence 15) [438BB88F] (AR v2)
Copy OK

Track 7

Filename E:\Rips\Various Artists - Tibetan Freedom Concert (1997) [FLAC] {3 CD Capitol}\Disc 2of2\07 - Taj Mahal And The Phantom Blues Band - She Caught The Katy.wav

Pre-gap length 0:00:18.10

Peak level 100.0 %
Extraction speed 8.3 X
Track quality 100.0 %
Test CRC 7FB7B16F
Copy CRC 7FB7B16F
Accurately ripped (confidence 15) [E5862856] (AR v2)
Copy OK

Track 8

Filename E:\Rips\Various Artists - Tibetan Freedom Concert (1997) [FLAC] {3 CD Capitol}\Disc 2of2\08 - Blur - Beetlebum.wav

Pre-gap length 0:00:02.53

Peak level 100.0 %
Extraction speed 9.2 X
Track quality 100.0 %
Test CRC 3B9B70D7
Copy CRC 3B9B70D7
Accurately ripped (confidence 14) [FB64BEBE] (AR v2)
Copy OK

Track 9

Filename E:\Rips\Various Artists - Tibetan Freedom Concert (1997) [FLAC] {3 CD Capitol}\Disc 2of2\09 - Michael Stipe & Mike Mills - Electrolite.wav

Pre-gap length 0:00:00.02

Peak level 100.0 %
Extraction speed 9.5 X
Track quality 100.0 %
Test CRC E1E610F6
Copy CRC E1E610F6
Accurately ripped (confidence 12) [B2D5D53F] (AR v2)
Copy OK

Track 10

Filename E:\Rips\Various Artists - Tibetan Freedom Concert (1997) [FLAC] {3 CD Capitol}\Disc 2of2\10 - Chaksam-Pa - Ajo Sotop.wav

Pre-gap length 0:00:28.47

Peak level 100.0 %
Extraction speed 9.8 X
Track quality 100.0 %
Test CRC AC66CDB2
Copy CRC AC66CDB2
Accurately ripped (confidence 15) [DBF3CCB6] (AR v2)
Copy OK

Track 11

Filename E:\Rips\Various Artists - Tibetan Freedom Concert (1997) [FLAC] {3 CD Capitol}\Disc 2of2\11 - Alanis Morissette - Wake Up.wav

Pre-gap length 0:00:05.10

Peak level 100.0 %
Extraction speed 10.4 X
Track quality 100.0 %
Test CRC 9D486FD2
Copy CRC 9D486FD2
Accurately ripped (confidence 14) [CA039801] (AR v2)
Copy OK

Track 12

Filename E:\Rips\Various Artists - Tibetan Freedom Concert (1997) [FLAC] {3 CD Capitol}\Disc 2of2\12 - Bjork - Hyper-Ballad.wav

Pre-gap length 0:00:06.28

Peak level 100.0 %
Extraction speed 10.9 X
Track quality 100.0 %
Test CRC 50407A59
Copy CRC 50407A59
Accurately ripped (confidence 15) [E781FDB9] (AR v2)
Copy OK

Track 13

Filename E:\Rips\Various Artists - Tibetan Freedom Concert (1997) [FLAC] {3 CD Capitol}\Disc 2of2\13 - Rancid - The Harder They Come.wav

Pre-gap length 0:00:14.35

Peak level 100.0 %
Extraction speed 7.2 X
Track quality 99.9 %
Test CRC DD925AAA
Copy CRC DD925AAA
Accurately ripped (confidence 14) [0AD2DB8E] (AR v2)
Copy OK

Track 14

Filename E:\Rips\Various Artists - Tibetan Freedom Concert (1997) [FLAC] {3 CD Capitol}\Disc 2of2\14 - Beastie Boys - Root Down.wav

Pre-gap length 0:00:11.45

Peak level 99.9 %
Extraction speed 10.8 X
Track quality 100.0 %
Test CRC 61B3A772
Copy CRC 61B3A772
Accurately ripped (confidence 15) [2B039222] (AR v2)
Copy OK

Track 15

Filename E:\Rips\Various Artists - Tibetan Freedom Concert (1997) [FLAC] {3 CD Capitol}\Disc 2of2\15 - Monks - Closing Prayers.wav

Pre-gap length 0:00:02.02

Peak level 77.0 %
Extraction speed 9.8 X
Track quality 100.0 %
Test CRC 61C910F5
Copy CRC 61C910F5
Accurately ripped (confidence 13) [160B1CE7] (AR v2)
Copy OK


All tracks accurately ripped

No errors occurred

End of status report

–– CUETools DB Plugin V2.1.6

[CTDB TOCID: tt_kNVh79ZGjvg7FcqWEvmQRGuc-] found
Submit result: tt_kNVh79ZGjvg7FcqWEvmQRGuc- has been confirmed
Track | CTDB Status
1 | (13/14) Accurately ripped
2 | (13/14) Accurately ripped
3 | (13/14) Accurately ripped
4 | (13/14) Accurately ripped
5 | (13/14) Accurately ripped
6 | (13/14) Accurately ripped
7 | (13/14) Accurately ripped
8 | (13/14) Accurately ripped
9 | (13/14) Accurately ripped
10 | (12/14) Accurately ripped
11 | (13/14) Accurately ripped
12 | (13/14) Accurately ripped
13 | (13/14) Accurately ripped
14 | (13/14) Accurately ripped
15 | (14/14) Accurately ripped


==== Log checksum CA0D6A8D138A46A67138B9FEBFC553956A2DC9B8C92981576B1DAA039C555D12 ====
Exact Audio Copy V1.3 from 2. September 2016

EAC extraction logfile from 15. February 2018, 14:20

Various Artists / Tibetan Freedom Concert (CD3)

Used drive : ATAPI iHAS122 F Adapter: 1 ID: 2

Read mode : Secure
Utilize accurate stream : Yes
Defeat audio cache : Yes
Make use of C2 pointers : No

Read offset correction : 6
Overread into Lead-In and Lead-Out : No
Fill up missing offset samples with silence : Yes
Delete leading and trailing silent blocks : No
Null samples used in CRC calculations : Yes
Used interface : Native Win32 interface for Win NT & 2000
Gap handling : Appended to previous track

Used output format : User Defined Encoder
Selected bitrate : 1024 kBit/s
Quality : High
Add ID3 tag : No
Command line compressor : C:\Program Files (x86)\Exact Audio Copy_v1.3\Flac\flac.exe
Additional command line options : -8 -V -T "ARTIST=%artist%" -T "TITLE=%title%" -T "ALBUM=%albumtitle%" -T "DATE=%year%" -T "TRACKNUMBER=%tracknr%" -T "TOTALTRACKS=%numtracks%" -T "GENRE=%genre%" -T "ALBUMARTIST=%albumartist%" -T "ALBUM ARTIST=%albumartist%" -T "COMMENT=EAC Secure Mode, Test & Copy, AccurateRip, FLAC -8" %source%


TOC of the extracted CD

Track | Start | Length | Start sector | End sector
––––––––––––––––––––––––––––-
1 | 0:00.00 | 3:48.46 | 0 | 17145
2 | 3:48.46 | 2:23.40 | 17146 | 27910
3 | 6:12.11 | 3:52.29 | 27911 | 45339
4 | 10:04.40 | 3:52.33 | 45340 | 62772
5 | 13:56.73 | 3:55.13 | 62773 | 80410
6 | 20:24.11 | 28:18.51 | 91811 | 219211


Track 1

Filename E:\Rips\Various Artists - Tibetan Freedom Concert (1997) [FLAC] {3 CD Capitol}\Disc 3of2\01 - Cibo Matto - Birthday Cake.wav

Pre-gap length 0:00:02.00

Peak level 100.0 %
Extraction speed 1.9 X
Track quality 100.0 %
Test CRC 9D6907A5
Copy CRC 9D6907A5
Accurately ripped (confidence 12) [D31BD50D] (AR v2)
Copy OK

Track 2

Filename E:\Rips\Various Artists - Tibetan Freedom Concert (1997) [FLAC] {3 CD Capitol}\Disc 3of2\02 - Beck - Asshole.wav

Peak level 99.9 %
Extraction speed 1.9 X
Track quality 100.0 %
Test CRC 6E9B6107
Copy CRC 6E9B6107
Accurately ripped (confidence 13) [058516FC] (AR v2)
Copy OK

Track 3

Filename E:\Rips\Various Artists - Tibetan Freedom Concert (1997) [FLAC] {3 CD Capitol}\Disc 3of2\03 - De La Soul - Me, Myself & I.wav

Peak level 100.0 %
Extraction speed 1.7 X
Track quality 99.9 %
Test CRC 9B19A88B
Copy CRC 9B19A88B
Accurately ripped (confidence 13) [C64B5D15] (AR v2)
Copy OK

Track 4

Filename E:\Rips\Various Artists - Tibetan Freedom Concert (1997) [FLAC] {3 CD Capitol}\Disc 3of2\04 - The Fugees - Fu Gee La.wav

Peak level 99.9 %
Extraction speed 2.4 X
Track quality 100.0 %
Test CRC 75F4E87F
Copy CRC 75F4E87F
Accurately ripped (confidence 13) [E1E69EC3] (AR v2)
Copy OK

Track 5

Filename E:\Rips\Various Artists - Tibetan Freedom Concert (1997) [FLAC] {3 CD Capitol}\Disc 3of2\05 - Rage Against The Machine - Bulls On Parade.wav

Peak level 99.9 %
Extraction speed 2.6 X
Track quality 100.0 %
Test CRC 8A0CB499
Copy CRC 8A0CB499
Accurately ripped (confidence 13) [07632EEA] (AR v2)
Copy OK


All tracks accurately ripped

No errors occurred

End of status report

–– CUETools DB Plugin V2.1.6

[CTDB TOCID: QYMcgas2TKdH2eUeA_H8G12JUtc-] found
Submit result: QYMcgas2TKdH2eUeA_H8G12JUtc- has been confirmed
Track | CTDB Status
1 | (10/11) Accurately ripped, or (1/11) differs in 2352 samples @03:48:42-03:48:44
2 | (10/11) Accurately ripped, or (1/11) differs in 2330 samples @02:23:36-02:23:38
3 | (10/11) Accurately ripped, or (1/11) differs in 2352 samples @03:52:25-03:52:27
4 | (10/11) Accurately ripped, or (1/11) differs in 2352 samples @03:52:29-03:52:31
5 | (11/11) Accurately ripped


==== Log checksum 4010FD2E976F47B76BDC4726516C2C10559F39EC11CED52EDC73F3A47ACA9CBD ====


Various Artists - Tibetan Freedom Concert (1997) {3 CD Capitol Records 7243 8 59110 2 6}



===