Tags
Language
Tags

Various Artists - Le Monde des musiques traditionnelles / World Of Traditional Music (2018)

Posted By: aasana
Various Artists - Le Monde des musiques traditionnelles / World Of Traditional Music (2018)

Various Artists - Le Monde des musiques traditionnelles / World Of Traditional Music (2018)
EAC Rip | FLAC (tracks+.cue) | 07:09:46 | 2,1 GB
World | Label: Ocora

Review
Celebrating Ocora's archives Alongside Nonesuch's Explorer series, Ocora is perhaps the most important mother lode of authentic 20th-century field recordings of world music. Part of Radio France and the brainchild of the late composer-musicologist Charles Duvelle and Pierre Schaeffer, Ocora began recording African traditional music in the 50s. Disc one of this six-CD set celebrates that heritage with 15 tracks recorded in as many different countries; what is astonishing is that although they are unmediated and unamplified, if you imagine adding electric guitars and bass and a little rock'n'roll showmanship, you can hear the roots of almost everything achieved in later decades by the continent's best-known superstars from Youssou N'Dour to Thomas Mapfumo. From a rock fan's point of view, most extraordinary of all is an ancient chant from Burundi that sounds like the template for Dr John's 1968 landmark New Orleans voodoo album Gris Gris. The second disc does a similar job for the Arabic world and the Far East. Disc three travels to the Indian sub-continent; and the fourth to the Pacific Rim. The fifth one returns to Europe's folk traditions and the final disc crosses the Atlantic to cover north and South America. Most of these `world in a box' compilations irritate the hell out of this reviewer with their global presumption and lack of focus. This one is a notable exception and is enhanced by a 94-page booklet, which is a model of its kind, devoted entirely to erudite descriptions of the music. Indeed, if there is a criticism it is that the text is almost too austere: a little more trumpet-blowing about Ocora's splendid and pioneering role in making these recordings would have been welcome. –Songlines - Nigel Williamson

Tracklist:
1.01 N'Doondo / Garbaare (Mali)
1.02 Binkontina, Pt. 1 (Danse Des Grands Initiés) [Burkina Faso]
1.03 Yenniljo (Chant de Mariage) [Sénégal]
1.04 Irikpe Wanreyou (Bénin)
1.05 Chant Destiné Au Maïdawa (Niger)
1.06 Zavan (Mil Mûr) [Cameroun]
1.07 Chant de Culte Du Bwiti Dissumba (Gabon)
1.08 Divoto (Centrafrique)
1.09 Viki (République Démocratique Du Congo)
1.10 Cimdolobwa (Tanzanie)
1.11 La Femme Abandonnée (Kenya)
1.12 Chant À Voix Chuchotée Et Cithare Inanga (Burundi)
1.13 Muroro (Zimbabwe)
1.14 Dimanche Grand Matin (Île de La Réunion)
1.15 Raha Misy Potraka (Si Quelqu'Un Tombe) [Madagascar]

Exact Audio Copy V1.3 from 2. September 2016

EAC extraction logfile from 17. May 2019, 13:11

Various Artists / Le Monde des musiques traditionnelles

Used drive : ASUS BW-16D1HT Adapter: 1 ID: 0

Read mode : Secure
Utilize accurate stream : Yes
Defeat audio cache : Yes
Make use of C2 pointers : No

Read offset correction : 6
Overread into Lead-In and Lead-Out : No
Fill up missing offset samples with silence : Yes
Delete leading and trailing silent blocks : No
Null samples used in CRC calculations : Yes
Used interface : Native Win32 interface for Win NT & 2000
Gap handling : Appended to previous track

Used output format : User Defined Encoder
Selected bitrate : 1024 kBit/s
Quality : High
Add ID3 tag : No
Command line compressor : C:\Program Files (x86)\Exact Audio Copy\Flac\flac.exe
Additional command line options : -8 -e -V -T "ARTIST=%artist%" -T "TITLE=%title%" -T "ALBUM=%albumtitle%" -T "DATE=%year%" -T "TRACKNUMBER=%tracknr%" -T "GENRE=%genre%" -T "PERFORMER=%albuminterpret%" -T "COMPOSER=%composer%" %haslyrics%–tag-from-file=LYRICS="%lyricsfile%"%haslyrics% -T "ALBUMARTIST=%albumartist%" -T "DISCNUMBER=%cdnumber%" -T "TOTALDISCS=%totalcds%" -T "TOTALTRACKS=%numtracks%" -T "COMMENT=%comment%" %source% -o %dest%


TOC of the extracted CD

Track | Start | Length | Start sector | End sector
––––––––––––––––––––––––––––-
1 | 0:00.00 | 4:17.33 | 0 | 19307
2 | 4:17.33 | 7:13.15 | 19308 | 51797
3 | 11:30.48 | 2:32.01 | 51798 | 63198
4 | 14:02.49 | 3:35.56 | 63199 | 79379
5 | 17:38.30 | 4:40.44 | 79380 | 100423
6 | 22:18.74 | 4:16.29 | 100424 | 119652
7 | 26:35.28 | 4:14.16 | 119653 | 138718
8 | 30:49.44 | 4:18.01 | 138719 | 158069
9 | 35:07.45 | 6:19.44 | 158070 | 186538
10 | 41:27.14 | 3:57.51 | 186539 | 204364
11 | 45:24.65 | 4:30.73 | 204365 | 224687
12 | 49:55.63 | 5:38.14 | 224688 | 250051
13 | 55:34.02 | 10:10.31 | 250052 | 295832
14 | 65:44.33 | 5:41.74 | 295833 | 321481
15 | 71:26.32 | 2:26.31 | 321482 | 332462


Track 1

Filename K:\Musique\Ocora\CD1\01 - [unknown] - N'Doondo , Garbaare (Mali).wav

Pre-gap length 0:00:02.00

Peak level 49.8 %
Extraction speed 5.0 X
Track quality 100.0 %
Test CRC 0790D411
Copy CRC 0790D411
Track not present in AccurateRip database
Copy OK

Track 2

Filename K:\Musique\Ocora\CD1\02 - [unknown] - Binkontina, Pt. 1 (Danse Des Grands Initiés) [Burkina Faso].wav

Pre-gap length 0:00:01.64

Peak level 78.5 %
Extraction speed 6.0 X
Track quality 100.0 %
Test CRC 5C38E0B7
Copy CRC 5C38E0B7
Track not present in AccurateRip database
Copy OK

Track 3

Filename K:\Musique\Ocora\CD1\03 - [unknown] - Yenniljo (Chant de Mariage) [Sénégal].wav

Pre-gap length 0:00:00.86

Peak level 86.1 %
Extraction speed 5.8 X
Track quality 100.0 %
Test CRC 823B98A6
Copy CRC 823B98A6
Track not present in AccurateRip database
Copy OK

Track 4

Filename K:\Musique\Ocora\CD1\04 - [unknown] - Irikpe Wanreyou (Bénin).wav

Pre-gap length 0:00:02.00

Peak level 95.5 %
Extraction speed 6.4 X
Track quality 100.0 %
Test CRC 2DAE48B8
Copy CRC 2DAE48B8
Track not present in AccurateRip database
Copy OK

Track 5

Filename K:\Musique\Ocora\CD1\05 - [unknown] - Chant Destiné Au Maïdawa (Niger).wav

Pre-gap length 0:00:02.00

Peak level 77.1 %
Extraction speed 7.0 X
Track quality 100.0 %
Test CRC 4AAFE4E6
Copy CRC 4AAFE4E6
Track not present in AccurateRip database
Copy OK

Track 6

Filename K:\Musique\Ocora\CD1\06 - [unknown] - Zavan (Mil Mûr) [Cameroun].wav

Pre-gap length 0:00:03.08

Peak level 51.8 %
Extraction speed 7.3 X
Track quality 100.0 %
Test CRC 593ED8AF
Copy CRC 593ED8AF
Track not present in AccurateRip database
Copy OK

Track 7

Filename K:\Musique\Ocora\CD1\07 - [unknown] - Chant de Culte Du Bwiti Dissumba (Gabon).wav

Pre-gap length 0:00:00.64

Peak level 49.0 %
Extraction speed 7.6 X
Track quality 100.0 %
Test CRC 50292411
Copy CRC 50292411
Track not present in AccurateRip database
Copy OK

Track 8

Filename K:\Musique\Ocora\CD1\08 - [unknown] - Divoto (Centrafrique).wav

Pre-gap length 0:00:01.96

Peak level 56.0 %
Extraction speed 8.0 X
Track quality 100.0 %
Test CRC C80FB26A
Copy CRC C80FB26A
Track not present in AccurateRip database
Copy OK

Track 9

Filename K:\Musique\Ocora\CD1\09 - [unknown] - Viki (République Démocratique Du Congo).wav

Pre-gap length 0:00:01.10

Peak level 58.7 %
Extraction speed 8.7 X
Track quality 100.0 %
Test CRC 215203BA
Copy CRC 215203BA
Track not present in AccurateRip database
Copy OK

Track 10

Filename K:\Musique\Ocora\CD1\10 - [unknown] - Cimdolobwa (Tanzanie).wav

Pre-gap length 0:00:00.32

Peak level 57.8 %
Extraction speed 7.0 X
Track quality 99.9 %
Test CRC C1A5BA45
Copy CRC C1A5BA45
Track not present in AccurateRip database
Copy OK

Track 11

Filename K:\Musique\Ocora\CD1\11 - [unknown] - La Femme Abandonnée (Kenya).wav

Pre-gap length 0:00:01.60

Peak level 63.4 %
Extraction speed 9.1 X
Track quality 100.0 %
Test CRC 9599C189
Copy CRC 9599C189
Track not present in AccurateRip database
Copy OK

Track 12

Filename K:\Musique\Ocora\CD1\12 - [unknown] - Chant À Voix Chuchotée Et Cithare Inanga (Burundi).wav

Pre-gap length 0:00:03.40

Peak level 36.1 %
Extraction speed 9.7 X
Track quality 100.0 %
Test CRC 30614CAA
Copy CRC 30614CAA
Track not present in AccurateRip database
Copy OK

Track 13

Filename K:\Musique\Ocora\CD1\13 - [unknown] - Muroro (Zimbabwe).wav

Pre-gap length 0:00:02.44

Peak level 63.8 %
Extraction speed 10.6 X
Track quality 100.0 %
Test CRC 2B8852FB
Copy CRC 2B8852FB
Track not present in AccurateRip database
Copy OK

Track 14

Filename K:\Musique\Ocora\CD1\14 - [unknown] - Dimanche Grand Matin (Île de La Réunion).wav

Pre-gap length 0:00:00.40

Peak level 74.0 %
Extraction speed 10.6 X
Track quality 100.0 %
Test CRC 7D8F23C0
Copy CRC 7D8F23C0
Track not present in AccurateRip database
Copy OK

Track 15

Filename K:\Musique\Ocora\CD1\15 - [unknown] - Raha Misy Potraka (Si Quelqu'Un Tombe) [Madagascar].wav

Pre-gap length 0:00:01.86

Peak level 29.8 %
Extraction speed 6.6 X
Track quality 99.9 %
Test CRC F9D2F631
Copy CRC F9D2F631
Track not present in AccurateRip database
Copy OK


None of the tracks are present in the AccurateRip database

No errors occurred

End of status report

–– CUETools DB Plugin V2.1.6

[CTDB TOCID: 4hWPpMolHe2eoNqdly0qyomG8mk-] found
Submit result: 4hWPpMolHe2eoNqdly0qyomG8mk- has been confirmed
Track | CTDB Status
1 | (14/14) Accurately ripped
2 | (14/14) Accurately ripped
3 | (14/14) Accurately ripped
4 | (14/14) Accurately ripped
5 | (14/14) Accurately ripped
6 | (14/14) Accurately ripped
7 | (14/14) Accurately ripped
8 | (14/14) Accurately ripped
9 | (14/14) Accurately ripped
10 | (14/14) Accurately ripped
11 | (14/14) Accurately ripped
12 | (14/14) Accurately ripped
13 | (14/14) Accurately ripped
14 | (14/14) Accurately ripped
15 | (14/14) Accurately ripped


==== Log checksum 2D012CFA5B00D20DFFAD2334333C426D6E2EAF6D419B60ED9BEA0B5BDCDD8085 ====

2.01 Dhikr (Maroc)
2.02 Khlaç (Algerie)
2.03 Taqsîm Quânûn-Layâlî-Mawwâl (Egypte)
2.04 Si Non Nom Est Cité (Fa in Dhukirat) (Machreq)
2.05 Ayyahâ Al-Zabyu Ma'Sûl Al-Lamâ (O Gazelle À La Salive de Miel) (Arabie Saoudite)
2.06 Huma Al-Hobb Fa-Slam Bi-L-Hashâ (Yemen)
2.07 Taqsîm En Maqâm Awj (Irak)
2.08 Dem Nefesi (Turquie)
2.09 Üç Güzel Oturmus (Makam Eviç) (Turquie)
2.10 Däramäd, Bardasht, Maye (Zabol) (Azerbaïdjan)
2.11 Goycha Golu (Azerbaïdjan)
2.12 Bayât-E 'Ajam, Tahrir-E Bahr-E Nur, Qaratche, Razavi, Tahrir-E Mobarqa' (Dastgâh-E Râst-Panjgah) (Iran)
2.13 Zikr (Ouzbekistan)
2.14 Aylading (Ouzbekistan)
2.15 Tadjikistan (Biraqsam)
2.16 Nuskhä Märghul (Muqum Nava) (Chine - Xinjiang)
2.17 Uyahan Zambuu Tiviin Naran (Mongolie)

Exact Audio Copy V1.3 from 2. September 2016

EAC extraction logfile from 17. May 2019, 17:22

Various Artists / Le Monde des musiques traditionnelles

Used drive : ASUS BW-16D1HT Adapter: 1 ID: 0

Read mode : Secure
Utilize accurate stream : Yes
Defeat audio cache : Yes
Make use of C2 pointers : No

Read offset correction : 6
Overread into Lead-In and Lead-Out : No
Fill up missing offset samples with silence : Yes
Delete leading and trailing silent blocks : No
Null samples used in CRC calculations : Yes
Used interface : Native Win32 interface for Win NT & 2000
Gap handling : Appended to previous track

Used output format : User Defined Encoder
Selected bitrate : 1024 kBit/s
Quality : High
Add ID3 tag : No
Command line compressor : C:\Program Files (x86)\Exact Audio Copy\Flac\flac.exe
Additional command line options : -8 -e -V -T "ARTIST=%artist%" -T "TITLE=%title%" -T "ALBUM=%albumtitle%" -T "DATE=%year%" -T "TRACKNUMBER=%tracknr%" -T "GENRE=%genre%" -T "PERFORMER=%albuminterpret%" -T "COMPOSER=%composer%" %haslyrics%–tag-from-file=LYRICS="%lyricsfile%"%haslyrics% -T "ALBUMARTIST=%albumartist%" -T "DISCNUMBER=%cdnumber%" -T "TOTALDISCS=%totalcds%" -T "TOTALTRACKS=%numtracks%" -T "COMMENT=%comment%" %source% -o %dest%


TOC of the extracted CD

Track | Start | Length | Start sector | End sector
––––––––––––––––––––––––––––-
1 | 0:00.00 | 3:39.55 | 0 | 16479
2 | 3:39.55 | 5:33.71 | 16480 | 41525
3 | 9:13.51 | 6:08.01 | 41526 | 69126
4 | 15:21.52 | 2:13.13 | 69127 | 79114
5 | 17:34.65 | 5:41.56 | 79115 | 104745
6 | 23:16.46 | 2:46.25 | 104746 | 117220
7 | 26:02.71 | 3:05.19 | 117221 | 131114
8 | 29:08.15 | 5:29.14 | 131115 | 155803
9 | 34:37.29 | 3:10.12 | 155804 | 170065
10 | 37:47.41 | 8:53.06 | 170066 | 210046
11 | 46:40.47 | 4:43.71 | 210047 | 231342
12 | 51:24.43 | 6:20.64 | 231343 | 259906
13 | 57:45.32 | 3:38.07 | 259907 | 276263
14 | 61:23.39 | 5:10.48 | 276264 | 299561
15 | 66:34.12 | 3:25.49 | 299562 | 314985
16 | 69:59.61 | 3:14.64 | 314986 | 329599
17 | 73:14.50 | 2:35.26 | 329600 | 341250


Track 1

Filename K:\Musique\Ocora\CD2\01 - [unknown] - Dhikr (Maroc).wav

Pre-gap length 0:00:02.00

Peak level 74.8 %
Extraction speed 1.6 X
Track quality 99.9 %
Test CRC 0FA7DF05
Copy CRC 0FA7DF05
Track not present in AccurateRip database
Copy OK

Track 2

Filename K:\Musique\Ocora\CD2\02 - [unknown] - Khlaç (Algerie).wav

Pre-gap length 0:00:00.86

Peak level 98.8 %
Extraction speed 2.0 X
Track quality 99.9 %
Test CRC AB84B506
Copy CRC AB84B506
Track not present in AccurateRip database
Copy OK

Track 3

Filename K:\Musique\Ocora\CD2\03 - [unknown] - Taqsîm Quânûn-Layâlî-Mawwâl (Egypte).wav

Pre-gap length 0:00:01.12

Peak level 53.0 %
Extraction speed 2.9 X
Track quality 100.0 %
Test CRC 243BB429
Copy CRC 243BB429
Track not present in AccurateRip database
Copy OK

Track 4

Filename K:\Musique\Ocora\CD2\04 - [unknown] - Si Non Nom Est Cité (Fa in Dhukirat) (Machreq).wav

Pre-gap length 0:00:02.53

Peak level 47.1 %
Extraction speed 2.7 X
Track quality 100.0 %
Test CRC 8DFD2BFF
Copy CRC 8DFD2BFF
Track not present in AccurateRip database
Copy OK

Track 5

Filename K:\Musique\Ocora\CD2\05 - [unknown] - Ayyahâ Al-Zabyu Ma'Sûl Al-Lamâ (O Gazelle À La Salive de Miel) (Arabie Saoudite).wav

Pre-gap length 0:00:03.44

Peak level 64.7 %
Extraction speed 3.2 X
Track quality 100.0 %
Test CRC 82A67EF6
Copy CRC 82A67EF6
Track not present in AccurateRip database
Copy OK

Track 6

Filename K:\Musique\Ocora\CD2\06 - [unknown] - Huma Al-Hobb Fa-Slam Bi-L-Hashâ (Yemen).wav

Pre-gap length 0:00:02.28

Peak level 72.5 %
Extraction speed 2.1 X
Track quality 99.9 %
Test CRC 81A3D09D
Copy CRC 81A3D09D
Track not present in AccurateRip database
Copy OK

Track 7

Filename K:\Musique\Ocora\CD2\07 - [unknown] - Taqsîm En Maqâm Awj (Irak).wav

Pre-gap length 0:00:01.28

Peak level 34.3 %
Extraction speed 2.2 X
Track quality 99.9 %
Test CRC 6AE0BCB4
Copy CRC 6AE0BCB4
Track not present in AccurateRip database
Copy OK

Track 8

Filename K:\Musique\Ocora\CD2\08 - [unknown] - Dem Nefesi (Turquie).wav

Peak level 73.7 %
Extraction speed 3.7 X
Track quality 100.0 %
Test CRC CEBABD89
Copy CRC CEBABD89
Track not present in AccurateRip database
Copy OK

Track 9

Filename K:\Musique\Ocora\CD2\09 - [unknown] - Üç Güzel Oturmus (Makam Eviç) (Turquie).wav

Pre-gap length 0:00:01.69

Peak level 48.9 %
Extraction speed 3.6 X
Track quality 100.0 %
Test CRC 4422BCDB
Copy CRC 4422BCDB
Track not present in AccurateRip database
Copy OK

Track 10

Filename K:\Musique\Ocora\CD2\10 - [unknown] - Däramäd, Bardasht, Maye (Zabol) (Azerbaïdjan).wav

Pre-gap length 0:00:01.96

Peak level 83.0 %
Extraction speed 4.2 X
Track quality 100.0 %
Test CRC A0F8E361
Copy CRC A0F8E361
Track not present in AccurateRip database
Copy OK

Track 11

Filename K:\Musique\Ocora\CD2\11 - [unknown] - Goycha Golu (Azerbaïdjan).wav

Pre-gap length 0:00:04.60

Peak level 51.9 %
Extraction speed 4.2 X
Track quality 100.0 %
Test CRC 1FA304C9
Copy CRC 1FA304C9
Track not present in AccurateRip database
Copy OK

Track 12

Filename K:\Musique\Ocora\CD2\12 - [unknown] - Bayât-E 'Ajam, Tahrir-E Bahr-E Nur, Qaratche, Razavi, Tahrir-E Mobarqa' (Dastgâh-E Râst-Panjgah) (Iran).wav

Pre-gap length 0:00:03.04

Peak level 90.6 %
Extraction speed 4.5 X
Track quality 100.0 %
Test CRC 2EA3E3D3
Copy CRC 2EA3E3D3
Track not present in AccurateRip database
Copy OK

Track 13

Filename K:\Musique\Ocora\CD2\13 - [unknown] - Zikr (Ouzbekistan).wav

Pre-gap length 0:00:02.56

Peak level 90.2 %
Extraction speed 3.1 X
Track quality 99.9 %
Test CRC AEC19696
Copy CRC AEC19696
Track not present in AccurateRip database
Copy OK

Track 14

Filename K:\Musique\Ocora\CD2\14 - [unknown] - Aylading (Ouzbekistan).wav

Pre-gap length 0:00:01.64

Peak level 98.9 %
Extraction speed 4.7 X
Track quality 100.0 %
Test CRC 5F69DF84
Copy CRC 5F69DF84
Track not present in AccurateRip database
Copy OK

Track 15

Filename K:\Musique\Ocora\CD2\15 - [unknown] - Tadjikistan (Biraqsam).wav

Pre-gap length 0:00:02.92

Peak level 48.1 %
Extraction speed 4.0 X
Track quality 100.0 %
Test CRC 78000407
Copy CRC 78000407
Track not present in AccurateRip database
Copy OK

Track 16

Filename K:\Musique\Ocora\CD2\16 - [unknown] - Nuskhä Märghul (Muqum Nava) (Chine - Xinjiang).wav

Pre-gap length 0:00:01.12

Peak level 77.1 %
Extraction speed 3.2 X
Track quality 99.9 %
Test CRC 67A7D281
Copy CRC 67A7D281
Track not present in AccurateRip database
Copy OK

Track 17

Filename K:\Musique\Ocora\CD2\17 - [unknown] - Uyahan Zambuu Tiviin Naran (Mongolie).wav

Pre-gap length 0:00:02.60

Peak level 66.3 %
Extraction speed 2.8 X
Track quality 99.9 %
Test CRC 6266438A
Copy CRC 6266438A
Track not present in AccurateRip database
Copy OK


None of the tracks are present in the AccurateRip database

No errors occurred

End of status report

–– CUETools DB Plugin V2.1.6

[CTDB TOCID: bpH1BJtldheuWKmyhNH4.6pfmro-] found
Submit result: bpH1BJtldheuWKmyhNH4.6pfmro- has been confirmed
Track | CTDB Status
1 | (12/12) Accurately ripped
2 | (12/12) Accurately ripped
3 | (12/12) Accurately ripped
4 | (12/12) Accurately ripped
5 | (12/12) Accurately ripped
6 | (12/12) Accurately ripped
7 | (12/12) Accurately ripped
8 | (12/12) Accurately ripped
9 | (12/12) Accurately ripped
10 | (12/12) Accurately ripped
11 | (12/12) Accurately ripped
12 | (12/12) Accurately ripped
13 | (12/12) Accurately ripped
14 | (12/12) Accurately ripped
15 | (12/12) Accurately ripped
16 | (12/12) Accurately ripped
17 | (12/12) Accurately ripped


==== Log checksum 2E1975ECE1EED821CA3F7AC9595E8AD5E1E00A3734D92E05B70980F98E9436BF ====

3.01 Manaqib Khawaja Mueenuddin Chishti (Louage Au Maître Des Maîtres) [Pakistan]
3.02 Man Pasand (Dhun) [Inde Du Nord]
3.03 Maalaniya Bandhanavara (Raga Darbari Kanhada, Drut Tîntal) [Inde Du Nord]
3.04 Raga Marwa - Alap (Extrait) [Inde Du Nord]
3.05 Raga Desh - Dhamar (Inde Du Nord)
3.06 Raga Madhuvanti - Jhaptal (Inde Du Nord)
3.07 Kriti 'Paramatmudu' (Raga Vagadhiswari, Tala Adi) [Inde Du Nord]
3.08 Pare Loye Jao Amay (Emmène-Moi Sur L'Autre Rive) [Bangladesh]

Exact Audio Copy V1.3 from 2. September 2016

EAC extraction logfile from 17. May 2019, 19:41

Various Artists / Le Monde des musiques traditionnelles

Used drive : ASUS BW-16D1HT Adapter: 1 ID: 0

Read mode : Secure
Utilize accurate stream : Yes
Defeat audio cache : Yes
Make use of C2 pointers : No

Read offset correction : 6
Overread into Lead-In and Lead-Out : No
Fill up missing offset samples with silence : Yes
Delete leading and trailing silent blocks : No
Null samples used in CRC calculations : Yes
Used interface : Native Win32 interface for Win NT & 2000
Gap handling : Appended to previous track

Used output format : User Defined Encoder
Selected bitrate : 1024 kBit/s
Quality : High
Add ID3 tag : No
Command line compressor : C:\Program Files (x86)\Exact Audio Copy\Flac\flac.exe
Additional command line options : -8 -e -V -T "ARTIST=%artist%" -T "TITLE=%title%" -T "ALBUM=%albumtitle%" -T "DATE=%year%" -T "TRACKNUMBER=%tracknr%" -T "GENRE=%genre%" -T "PERFORMER=%albuminterpret%" -T "COMPOSER=%composer%" %haslyrics%–tag-from-file=LYRICS="%lyricsfile%"%haslyrics% -T "ALBUMARTIST=%albumartist%" -T "DISCNUMBER=%cdnumber%" -T "TOTALDISCS=%totalcds%" -T "TOTALTRACKS=%numtracks%" -T "COMMENT=%comment%" %source% -o %dest%


TOC of the extracted CD

Track | Start | Length | Start sector | End sector
––––––––––––––––––––––––––––-
1 | 0:00.00 | 9:53.35 | 0 | 44509
2 | 9:53.35 | 11:48.29 | 44510 | 97638
3 | 21:41.64 | 9:24.06 | 97639 | 139944
4 | 31:05.70 | 9:52.12 | 139945 | 184356
5 | 40:58.07 | 9:40.68 | 184357 | 227924
6 | 50:39.00 | 7:14.68 | 227925 | 260542
7 | 57:53.68 | 8:02.65 | 260543 | 296757
8 | 65:56.58 | 6:25.34 | 296758 | 325666


Track 1

Filename K:\Musique\Ocora\CD3\01 - [unknown] - Manaqib Khawaja Mueenuddin Chishti (Louage Au Maître Des Maîtres) [Pakistan].wav

Pre-gap length 0:00:02.00

Peak level 97.7 %
Extraction speed 2.6 X
Track quality 100.0 %
Test CRC 5A02FAD5
Copy CRC 5A02FAD5
Track not present in AccurateRip database
Copy OK

Track 2

Filename K:\Musique\Ocora\CD3\02 - [unknown] - Man Pasand (Dhun) [Inde Du Nord].wav

Pre-gap length 0:00:01.46

Peak level 100.0 %
Extraction speed 3.2 X
Track quality 100.0 %
Test CRC 3BE0D55C
Copy CRC 3BE0D55C
Track not present in AccurateRip database
Copy OK

Track 3

Filename K:\Musique\Ocora\CD3\03 - [unknown] - Maalaniya Bandhanavara (Raga Darbari Kanhada, Drut Tîntal) [Inde Du Nord].wav

Pre-gap length 0:00:02.66

Peak level 96.6 %
Extraction speed 3.1 X
Track quality 99.9 %
Test CRC 57CDDA24
Copy CRC 57CDDA24
Track not present in AccurateRip database
Copy OK

Track 4

Filename K:\Musique\Ocora\CD3\04 - [unknown] - Raga Marwa - Alap (Extrait) [Inde Du Nord].wav

Pre-gap length 0:00:04.28

Peak level 26.2 %
Extraction speed 4.0 X
Track quality 100.0 %
Test CRC BBA26405
Copy CRC BBA26405
Track not present in AccurateRip database
Copy OK

Track 5

Filename K:\Musique\Ocora\CD3\05 - [unknown] - Raga Desh - Dhamar (Inde Du Nord).wav

Pre-gap length 0:00:00.20

Peak level 100.0 %
Extraction speed 4.3 X
Track quality 100.0 %
Test CRC FC55BEBA
Copy CRC FC55BEBA
Track not present in AccurateRip database
Copy OK

Track 6

Filename K:\Musique\Ocora\CD3\06 - [unknown] - Raga Madhuvanti - Jhaptal (Inde Du Nord).wav

Pre-gap length 0:00:00.65

Peak level 86.1 %
Extraction speed 3.7 X
Track quality 99.9 %
Test CRC E9ED501C
Copy CRC E9ED501C
Track not present in AccurateRip database
Copy OK

Track 7

Filename K:\Musique\Ocora\CD3\07 - [unknown] - Kriti ''Paramatmudu'' (Raga Vagadhiswari, Tala Adi) [Inde Du Nord].wav

Pre-gap length 0:00:00.93

Peak level 71.4 %
Extraction speed 4.8 X
Track quality 100.0 %
Test CRC 11F00186
Copy CRC 11F00186
Track not present in AccurateRip database
Copy OK

Track 8

Filename K:\Musique\Ocora\CD3\08 - [unknown] - Pare Loye Jao Amay (Emmène-Moi Sur L'Autre Rive) [Bangladesh].wav

Pre-gap length 0:00:00.69

Peak level 62.0 %
Extraction speed 3.9 X
Track quality 99.9 %
Test CRC FF0BF721
Copy CRC FF0BF721
Track not present in AccurateRip database
Copy OK


None of the tracks are present in the AccurateRip database

No errors occurred

End of status report

–– CUETools DB Plugin V2.1.6

[CTDB TOCID: Eq7IW7ozxSXDAxe7Ji8XHpQo8S0-] found
Submit result: Eq7IW7ozxSXDAxe7Ji8XHpQo8S0- has been confirmed
Track | CTDB Status
1 | (14/14) Accurately ripped
2 | (14/14) Accurately ripped
3 | (14/14) Accurately ripped
4 | (14/14) Accurately ripped
5 | (14/14) Accurately ripped
6 | (14/14) Accurately ripped
7 | (14/14) Accurately ripped
8 | (14/14) Accurately ripped


==== Log checksum 23CB89DEC003D5DFCDB3819B7FE76E502A731CBA001BE8680EF346EB89B71156 ====

4.01 Khangdeuk (Chant de Minuit) (Laos)
4.02 Dao Ngu Cung (Viêt-Nam)
4.03 Ujung Laut (Le Rivege) (Indonésie)
4.04 Pangapungan, Pamapag Ibu, Badud Rengkong (Extrait) (Indonésie)
4.05 Candra Kanta (Indonésie - Bali)
4.06 Libation Dorée (Tibet)
4.07 Dao Yi (Battre Les Vêtements) (Chine)
4.08 Xigong Ci (Poème Du Palais de L'Ouest) (Chine)
4.09 Ilgagi ('Si Un Seul Moment…') (Chine)
4.10 Jajinmori (Corée)
4.11 Gion Shôja (Temples de Gion) (Japon)
4.12 Ashibi Shongane Bushi (Japon - Okinawa)

Exact Audio Copy V1.3 from 2. September 2016

EAC extraction logfile from 17. May 2019, 20:27

Various Artists / Le Monde des musiques traditionnelles

Used drive : ASUS BW-16D1HT Adapter: 1 ID: 0

Read mode : Secure
Utilize accurate stream : Yes
Defeat audio cache : Yes
Make use of C2 pointers : No

Read offset correction : 6
Overread into Lead-In and Lead-Out : No
Fill up missing offset samples with silence : Yes
Delete leading and trailing silent blocks : No
Null samples used in CRC calculations : Yes
Used interface : Native Win32 interface for Win NT & 2000
Gap handling : Appended to previous track

Used output format : User Defined Encoder
Selected bitrate : 1024 kBit/s
Quality : High
Add ID3 tag : No
Command line compressor : C:\Program Files (x86)\Exact Audio Copy\Flac\flac.exe
Additional command line options : -8 -e -V -T "ARTIST=%artist%" -T "TITLE=%title%" -T "ALBUM=%albumtitle%" -T "DATE=%year%" -T "TRACKNUMBER=%tracknr%" -T "GENRE=%genre%" -T "PERFORMER=%albuminterpret%" -T "COMPOSER=%composer%" %haslyrics%–tag-from-file=LYRICS="%lyricsfile%"%haslyrics% -T "ALBUMARTIST=%albumartist%" -T "DISCNUMBER=%cdnumber%" -T "TOTALDISCS=%totalcds%" -T "TOTALTRACKS=%numtracks%" -T "COMMENT=%comment%" %source% -o %dest%


TOC of the extracted CD

Track | Start | Length | Start sector | End sector
––––––––––––––––––––––––––––-
1 | 0:00.00 | 4:26.54 | 0 | 20003
2 | 4:26.54 | 4:19.10 | 20004 | 39438
3 | 8:45.64 | 3:51.74 | 39439 | 56837
4 | 12:37.63 | 5:59.56 | 56838 | 83818
5 | 18:37.44 | 9:10.01 | 83819 | 125069
6 | 27:47.45 | 10:50.21 | 125070 | 173840
7 | 38:37.66 | 5:31.00 | 173841 | 198665
8 | 44:08.66 | 3:55.53 | 198666 | 216343
9 | 48:04.44 | 6:01.05 | 216344 | 243423
10 | 54:05.49 | 4:33.03 | 243424 | 263901
11 | 58:38.52 | 4:57.51 | 263902 | 286227
12 | 63:36.28 | 3:58.64 | 286228 | 304141


Track 1

Filename K:\Musique\Ocora\CD4\01 - [unknown] - Khangdeuk (Chant de Minuit) (Laos).wav

Pre-gap length 0:00:02.00

Peak level 28.8 %
Extraction speed 5.1 X
Track quality 100.0 %
Test CRC F4110C5F
Copy CRC F4110C5F
Track not present in AccurateRip database
Copy OK

Track 2

Filename K:\Musique\Ocora\CD4\02 - [unknown] - Dao Ngu Cung (Viêt-Nam).wav

Pre-gap length 0:00:01.44

Peak level 76.6 %
Extraction speed 5.6 X
Track quality 100.0 %
Test CRC 8EF853D2
Copy CRC 8EF853D2
Track not present in AccurateRip database
Copy OK

Track 3

Filename K:\Musique\Ocora\CD4\03 - [unknown] - Ujung Laut (Le Rivege) (Indonésie).wav

Pre-gap length 0:00:00.76

Peak level 87.8 %
Extraction speed 6.0 X
Track quality 100.0 %
Test CRC 463A730C
Copy CRC 463A730C
Track not present in AccurateRip database
Copy OK

Track 4

Filename K:\Musique\Ocora\CD4\04 - [unknown] - Pangapungan, Pamapag Ibu, Badud Rengkong (Extrait) (Indonésie).wav

Pre-gap length 0:00:02.60

Peak level 62.8 %
Extraction speed 6.8 X
Track quality 100.0 %
Test CRC 7DDA5A11
Copy CRC 7DDA5A11
Track not present in AccurateRip database
Copy OK

Track 5

Filename K:\Musique\Ocora\CD4\05 - [unknown] - Candra Kanta (Indonésie - Bali).wav

Pre-gap length 0:00:03.48

Peak level 99.9 %
Extraction speed 7.7 X
Track quality 100.0 %
Test CRC 2C0DF00F
Copy CRC 2C0DF00F
Track not present in AccurateRip database
Copy OK

Track 6

Filename K:\Musique\Ocora\CD4\06 - [unknown] - Libation Dorée (Tibet).wav

Pre-gap length 0:00:01.16

Peak level 100.0 %
Extraction speed 8.7 X
Track quality 100.0 %
Test CRC 0A36BFBC
Copy CRC 0A36BFBC
Track not present in AccurateRip database
Copy OK

Track 7

Filename K:\Musique\Ocora\CD4\07 - [unknown] - Dao Yi (Battre Les Vêtements) (Chine).wav

Pre-gap length 0:00:01.85

Peak level 86.5 %
Extraction speed 7.6 X
Track quality 99.9 %
Test CRC 742854DA
Copy CRC 742854DA
Track not present in AccurateRip database
Copy OK

Track 8

Filename K:\Musique\Ocora\CD4\08 - [unknown] - Xigong Ci (Poème Du Palais de L'Ouest) (Chine).wav

Peak level 61.9 %
Extraction speed 7.1 X
Track quality 99.9 %
Test CRC 03F286BF
Copy CRC 03F286BF
Track not present in AccurateRip database
Copy OK

Track 9

Filename K:\Musique\Ocora\CD4\09 - [unknown] - Ilgagi (''Si Un Seul Moment…'') (Chine).wav

Pre-gap length 0:00:00.96

Peak level 73.9 %
Extraction speed 9.6 X
Track quality 100.0 %
Test CRC 64C75EBF
Copy CRC 64C75EBF
Track not present in AccurateRip database
Copy OK

Track 10

Filename K:\Musique\Ocora\CD4\10 - [unknown] - Jajinmori (Corée).wav

Pre-gap length 0:00:01.68

Peak level 73.2 %
Extraction speed 9.6 X
Track quality 100.0 %
Test CRC FDD861F9
Copy CRC FDD861F9
Track not present in AccurateRip database
Copy OK

Track 11

Filename K:\Musique\Ocora\CD4\11 - [unknown] - Gion Shôja (Temples de Gion) (Japon).wav

Pre-gap length 0:00:02.08

Peak level 91.2 %
Extraction speed 10.0 X
Track quality 100.0 %
Test CRC 05421B22
Copy CRC 05421B22
Track not present in AccurateRip database
Copy OK

Track 12

Filename K:\Musique\Ocora\CD4\12 - [unknown] - Ashibi Shongane Bushi (Japon - Okinawa).wav

Pre-gap length 0:00:01.24

Peak level 83.7 %
Extraction speed 10.0 X
Track quality 100.0 %
Test CRC FB1C8581
Copy CRC FB1C8581
Track not present in AccurateRip database
Copy OK


None of the tracks are present in the AccurateRip database

No errors occurred

End of status report

–– CUETools DB Plugin V2.1.6

[CTDB TOCID: jmY.TR.UVhZJRK4V7J4iWYo3zaE-] found
Submit result: jmY.TR.UVhZJRK4V7J4iWYo3zaE- has been confirmed
Track | CTDB Status
1 | (14/14) Accurately ripped
2 | (14/14) Accurately ripped
3 | (14/14) Accurately ripped
4 | (14/14) Accurately ripped
5 | (14/14) Accurately ripped
6 | (14/14) Accurately ripped
7 | (14/14) Accurately ripped
8 | (14/14) Accurately ripped
9 | (14/14) Accurately ripped
10 | (14/14) Accurately ripped
11 | (14/14) Accurately ripped
12 | (14/14) Accurately ripped


==== Log checksum 1847C21ACC79DAB2E8632CF1600DD60A5E48DD2C468C7D430EFEE324014C3B79 ====

5.01 Sorg Aldri Du Min Pike (Ne Pleure Jamais Ma Fille) (Norvege)
5.02 Halling Etter Gabriel Reed (Norvege)
5.03 A Moll Polska de Rödön (Suede)
5.04 Polska Efter Janne Mårtensson (Suede)
5.05 Tel Tu Étais… (Russie)
5.06 Jaani, Jaani, Jaanokene (Jean, Jean, Petit Jean)
5.07 The Mountain Road, Old Concertina Reel (Irlande)
5.08 Hulyet (Chansons Yiddish)
5.09 Dolu Ublem (En Descendant Par Ublo) (Republique Tcheque)
5.10 Valaské Spod Pol'Any (Slovaquie)
5.11 Hármas Táncdal (Triple Danse) (Hongrie)
5.12 Adilei (Cahnt de Voyage) (Georgie)
5.13 Yodel Naturel (Höimaitli) (Suisse)
5.14 Dale Himariote Dale! (Albanie)
5.15 Se Kainourgia Varka Mpika (Grece)
5.16 Quatre Versions de L'Erotikritos (Crete)
5.17 Disisperada (Italie - Sardaigne)
5.18 Tarantella (Italie -Sicile)
5.19 Jean-Louis Ha Marivon (France - Centre-Bretagne)
5.20 Mendiaren Deia (L'Appel de La Montagne) (France - Pays Basque)
5.21 Txorittua Noat Hoa? (Petit Oiseau, Où Vas-Tu?) (France -Pays Basque)
5.22 Terzetti Rusinchi (France - Corse)
5.23 Cerca (France - Corse)
5.24 Fado Das Andorinhas (Fado Des Hirondelles) (Portugal)
5.25 U (Edspagne - València)
5.26 Tangos (Espagne)

Exact Audio Copy V1.3 from 2. September 2016

EAC extraction logfile from 17. May 2019, 23:29

Various Artists / Le Monde des musiques traditionnelles

Used drive : ASUS BW-16D1HT Adapter: 1 ID: 0

Read mode : Secure
Utilize accurate stream : Yes
Defeat audio cache : Yes
Make use of C2 pointers : No

Read offset correction : 6
Overread into Lead-In and Lead-Out : No
Fill up missing offset samples with silence : Yes
Delete leading and trailing silent blocks : No
Null samples used in CRC calculations : Yes
Used interface : Native Win32 interface for Win NT & 2000
Gap handling : Appended to previous track

Used output format : User Defined Encoder
Selected bitrate : 1024 kBit/s
Quality : High
Add ID3 tag : No
Command line compressor : C:\Program Files (x86)\Exact Audio Copy\Flac\flac.exe
Additional command line options : -8 -e -V -T "ARTIST=%artist%" -T "TITLE=%title%" -T "ALBUM=%albumtitle%" -T "DATE=%year%" -T "TRACKNUMBER=%tracknr%" -T "GENRE=%genre%" -T "PERFORMER=%albuminterpret%" -T "COMPOSER=%composer%" %haslyrics%–tag-from-file=LYRICS="%lyricsfile%"%haslyrics% -T "ALBUMARTIST=%albumartist%" -T "DISCNUMBER=%cdnumber%" -T "TOTALDISCS=%totalcds%" -T "TOTALTRACKS=%numtracks%" -T "COMMENT=%comment%" %source% -o %dest%


TOC of the extracted CD

Track | Start | Length | Start sector | End sector
––––––––––––––––––––––––––––-
1 | 0:00.00 | 1:07.42 | 0 | 5066
2 | 1:07.42 | 1:25.44 | 5067 | 11485
3 | 2:33.11 | 2:51.69 | 11486 | 24379
4 | 5:25.05 | 2:18.00 | 24380 | 34729
5 | 7:43.05 | 2:45.65 | 34730 | 47169
6 | 10:28.70 | 2:49.19 | 47170 | 59863
7 | 13:18.14 | 3:36.14 | 59864 | 76077
8 | 16:54.28 | 3:45.70 | 76078 | 93022
9 | 20:40.23 | 1:59.41 | 93023 | 101988
10 | 22:39.64 | 2:42.03 | 101989 | 114141
11 | 25:21.67 | 1:19.67 | 114142 | 120133
12 | 26:41.59 | 3:31.73 | 120134 | 136031
13 | 30:13.57 | 1:05.16 | 136032 | 140922
14 | 31:18.73 | 2:58.24 | 140923 | 154296
15 | 34:17.22 | 3:40.17 | 154297 | 170813
16 | 37:57.39 | 5:50.28 | 170814 | 197091
17 | 43:47.67 | 5:15.71 | 197092 | 220787
18 | 49:03.63 | 1:40.45 | 220788 | 228332
19 | 50:44.33 | 3:48.07 | 228333 | 245439
20 | 54:32.40 | 3:51.00 | 245440 | 262764
21 | 58:23.40 | 2:12.46 | 262765 | 272710
22 | 60:36.11 | 2:32.23 | 272711 | 284133
23 | 63:08.34 | 1:20.20 | 284134 | 290153
24 | 64:28.54 | 4:20.28 | 290154 | 309681
25 | 68:49.07 | 2:21.48 | 309682 | 320304
26 | 71:10.55 | 3:55.22 | 320305 | 337951


Track 1

Filename K:\Musique\Ocora\CD5\01 - [unknown] - Sorg Aldri Du Min Pike (Ne Pleure Jamais Ma Fille) (Norvege).wav

Pre-gap length 0:00:02.00

Peak level 73.2 %
Extraction speed 3.6 X
Track quality 100.0 %
Test CRC 6DF74CB2
Copy CRC 6DF74CB2
Track not present in AccurateRip database
Copy OK

Track 2

Filename K:\Musique\Ocora\CD5\02 - [unknown] - Halling Etter Gabriel Reed (Norvege).wav

Peak level 59.4 %
Extraction speed 4.1 X
Track quality 100.0 %
Test CRC 135D11C6
Copy CRC 135D11C6
Track not present in AccurateRip database
Copy OK

Track 3

Filename K:\Musique\Ocora\CD5\03 - [unknown] - A Moll Polska de Rödön (Suede).wav

Peak level 93.1 %
Extraction speed 5.0 X
Track quality 100.0 %
Test CRC 9D510CF7
Copy CRC 9D510CF7
Track not present in AccurateRip database
Copy OK

Track 4

Filename K:\Musique\Ocora\CD5\04 - [unknown] - Polska Efter Janne Mårtensson (Suede).wav

Peak level 59.6 %
Extraction speed 5.1 X
Track quality 100.0 %
Test CRC 819F5832
Copy CRC 819F5832
Track not present in AccurateRip database
Copy OK

Track 5

Filename K:\Musique\Ocora\CD5\05 - [unknown] - Tel Tu Étais… (Russie).wav

Peak level 83.0 %
Extraction speed 5.5 X
Track quality 100.0 %
Test CRC 70C6A9F4
Copy CRC 70C6A9F4
Track not present in AccurateRip database
Copy OK

Track 6

Filename K:\Musique\Ocora\CD5\06 - [unknown] - Jaani, Jaani, Jaanokene (Jean, Jean, Petit Jean).wav

Peak level 95.5 %
Extraction speed 5.8 X
Track quality 100.0 %
Test CRC 2FDD84D1
Copy CRC 2FDD84D1
Track not present in AccurateRip database
Copy OK

Track 7

Filename K:\Musique\Ocora\CD5\07 - [unknown] - The Mountain Road, Old Concertina Reel (Irlande).wav

Peak level 89.1 %
Extraction speed 6.3 X
Track quality 100.0 %
Test CRC 57341E70
Copy CRC 57341E70
Track not present in AccurateRip database
Copy OK

Track 8

Filename K:\Musique\Ocora\CD5\08 - [unknown] - Hulyet (Chansons Yiddish).wav

Peak level 100.0 %
Extraction speed 6.7 X
Track quality 100.0 %
Test CRC 3178E083
Copy CRC 3178E083
Track not present in AccurateRip database
Copy OK

Track 9

Filename K:\Musique\Ocora\CD5\09 - [unknown] - Dolu Ublem (En Descendant Par Ublo) (Republique Tcheque).wav

Peak level 98.1 %
Extraction speed 6.2 X
Track quality 100.0 %
Test CRC 50C248DF
Copy CRC 50C248DF
Track not present in AccurateRip database
Copy OK

Track 10

Filename K:\Musique\Ocora\CD5\10 - [unknown] - Valaské Spod Pol'Any (Slovaquie).wav

Peak level 65.0 %
Extraction speed 6.7 X
Track quality 100.0 %
Test CRC 095C70EC
Copy CRC 095C70EC
Track not present in AccurateRip database
Copy OK

Track 11

Filename K:\Musique\Ocora\CD5\11 - [unknown] - Hármas Táncdal (Triple Danse) (Hongrie).wav

Peak level 63.6 %
Extraction speed 5.9 X
Track quality 100.0 %
Test CRC 462934BD
Copy CRC 462934BD
Track not present in AccurateRip database
Copy OK

Track 12

Filename K:\Musique\Ocora\CD5\12 - [unknown] - Adilei (Cahnt de Voyage) (Georgie).wav

Peak level 93.7 %
Extraction speed 7.4 X
Track quality 100.0 %
Test CRC 9DF22F4B
Copy CRC 9DF22F4B
Track not present in AccurateRip database
Copy OK

Track 13

Filename K:\Musique\Ocora\CD5\13 - [unknown] - Yodel Naturel (Höimaitli) (Suisse).wav

Peak level 89.1 %
Extraction speed 5.7 X
Track quality 100.0 %
Test CRC 771AC359
Copy CRC 771AC359
Track not present in AccurateRip database
Copy OK

Track 14

Filename K:\Musique\Ocora\CD5\14 - [unknown] - Dale Himariote Dale! (Albanie).wav

Peak level 100.0 %
Extraction speed 7.5 X
Track quality 100.0 %
Test CRC 4CE7AD1D
Copy CRC 4CE7AD1D
Track not present in AccurateRip database
Copy OK

Track 15

Filename K:\Musique\Ocora\CD5\15 - [unknown] - Se Kainourgia Varka Mpika (Grece).wav

Peak level 69.9 %
Extraction speed 8.0 X
Track quality 100.0 %
Test CRC 099DD517
Copy CRC 099DD517
Track not present in AccurateRip database
Copy OK

Track 16

Filename K:\Musique\Ocora\CD5\16 - [unknown] - Quatre Versions de L'Erotikritos (Crete).wav

Peak level 40.0 %
Extraction speed 8.9 X
Track quality 100.0 %
Test CRC 580E7AE6
Copy CRC 580E7AE6
Track not present in AccurateRip database
Copy OK

Track 17

Filename K:\Musique\Ocora\CD5\17 - [unknown] - Disisperada (Italie - Sardaigne).wav

Peak level 87.5 %
Extraction speed 9.2 X
Track quality 100.0 %
Test CRC D3BC9B60
Copy CRC D3BC9B60
Track not present in AccurateRip database
Copy OK

Track 18

Filename K:\Musique\Ocora\CD5\18 - [unknown] - Tarantella (Italie -Sicile).wav

Peak level 52.8 %
Extraction speed 5.2 X
Track quality 99.8 %
Test CRC 75B4CBFE
Copy CRC 75B4CBFE
Track not present in AccurateRip database
Copy OK

Track 19

Filename K:\Musique\Ocora\CD5\19 - [unknown] - Jean-Louis Ha Marivon (France - Centre-Bretagne).wav

Peak level 92.6 %
Extraction speed 7.4 X
Track quality 99.9 %
Test CRC C0FFFFAD
Copy CRC C0FFFFAD
Track not present in AccurateRip database
Copy OK

Track 20

Filename K:\Musique\Ocora\CD5\20 - [unknown] - Mendiaren Deia (L'Appel de La Montagne) (France - Pays Basque).wav

Peak level 37.6 %
Extraction speed 9.4 X
Track quality 100.0 %
Test CRC CD31F82F
Copy CRC CD31F82F
Track not present in AccurateRip database
Copy OK

Track 21

Filename K:\Musique\Ocora\CD5\21 - [unknown] - Txorittua Noat Hoa (Petit Oiseau, Où Vas-Tu) (France -Pays Basque).wav

Peak level 69.2 %
Extraction speed 8.8 X
Track quality 100.0 %
Test CRC 1FFECED3
Copy CRC 1FFECED3
Track not present in AccurateRip database
Copy OK

Track 22

Filename K:\Musique\Ocora\CD5\22 - [unknown] - Terzetti Rusinchi (France - Corse).wav

Peak level 74.5 %
Extraction speed 9.1 X
Track quality 100.0 %
Test CRC 17F5528E
Copy CRC 17F5528E
Track not present in AccurateRip database
Copy OK

Track 23

Filename K:\Musique\Ocora\CD5\23 - [unknown] - Cerca (France - Corse).wav

Peak level 54.0 %
Extraction speed 7.8 X
Track quality 100.0 %
Test CRC 6E386254
Copy CRC 6E386254
Track not present in AccurateRip database
Copy OK

Track 24

Filename K:\Musique\Ocora\CD5\24 - [unknown] - Fado Das Andorinhas (Fado Des Hirondelles) (Portugal).wav

Peak level 89.1 %
Extraction speed 10.1 X
Track quality 100.0 %
Test CRC C9FC8810
Copy CRC C9FC8810
Track not present in AccurateRip database
Copy OK

Track 25

Filename K:\Musique\Ocora\CD5\25 - [unknown] - U (Edspagne - València).wav

Peak level 85.7 %
Extraction speed 9.4 X
Track quality 100.0 %
Test CRC FB9ED1B5
Copy CRC FB9ED1B5
Track not present in AccurateRip database
Copy OK

Track 26

Filename K:\Musique\Ocora\CD5\26 - [unknown] - Tangos (Espagne).wav

Peak level 64.5 %
Extraction speed 10.3 X
Track quality 100.0 %
Test CRC CA088532
Copy CRC CA088532
Track not present in AccurateRip database
Copy OK


None of the tracks are present in the AccurateRip database

No errors occurred

End of status report

–– CUETools DB Plugin V2.1.6

[CTDB TOCID: ntEg5Ru7JVcnfjJVN3rYxNdJKCE-] found
Submit result: ntEg5Ru7JVcnfjJVN3rYxNdJKCE- has been confirmed
Track | CTDB Status
1 | (13/13) Accurately ripped
2 | (13/13) Accurately ripped
3 | (13/13) Accurately ripped
4 | (13/13) Accurately ripped
5 | (13/13) Accurately ripped
6 | (13/13) Accurately ripped
7 | (13/13) Accurately ripped
8 | (13/13) Accurately ripped
9 | (13/13) Accurately ripped
10 | (13/13) Accurately ripped
11 | (13/13) Accurately ripped
12 | (13/13) Accurately ripped
13 | (13/13) Accurately ripped
14 | (13/13) Accurately ripped
15 | (13/13) Accurately ripped
16 | (13/13) Accurately ripped
17 | (13/13) Accurately ripped
18 | (13/13) Accurately ripped
19 | (13/13) Accurately ripped
20 | (13/13) Accurately ripped
21 | (13/13) Accurately ripped
22 | (13/13) Accurately ripped
23 | (13/13) Accurately ripped
24 | (13/13) Accurately ripped
25 | (13/13) Accurately ripped
26 | (13/13) Accurately ripped


==== Log checksum 37FD4C4BDFDAFA7D4D5C193D3D3F4C8944AB6869C61E0543565236386D59A440 ====

6.01 Don't Let the Devil Ride (États-Unis)
6.02 Las Dos Huastecas (Mexique)
6.03 Dügü (Honduras)
6.04 El Misterio de Tus Ojos (Cuba)
6.05 Francisquito (Cuba)
6.06 Séramik Épi Potri (France - Martinique)
6.07 Pantalon - Jardin (France - Guadeloupe)
6.08 Sangueo (Venezuela)
6.09 El Diablo Suelto (Venezuela)
6.10 Zumba Que Zumba (Venezuela)
6.11 Matilde Lina (Colombie)
6.12 Marili (Colombie)
6.13 La Que Se Pega (Colombie)
6.14 Tikankginhü (Brésil)
6.15 Uakamimbütaka (Brésil)
6.16 Wyrakamytã Mi (Paraguay)
6.17 Aiwisku (Bolivie)
6.18 Color Color Punchituchay (Perou)
6.19 Mi Buenos Aires Querido (Argentine)
6.20 Canto a mi Terruño (Argentine)

Exact Audio Copy V1.3 from 2. September 2016

EAC extraction logfile from 18. May 2019, 10:11

Various Artists / Le Monde des musiques traditionnelles

Used drive : ASUS BW-16D1HT Adapter: 1 ID: 0

Read mode : Secure
Utilize accurate stream : Yes
Defeat audio cache : Yes
Make use of C2 pointers : No

Read offset correction : 6
Overread into Lead-In and Lead-Out : No
Fill up missing offset samples with silence : Yes
Delete leading and trailing silent blocks : No
Null samples used in CRC calculations : Yes
Used interface : Native Win32 interface for Win NT & 2000
Gap handling : Appended to previous track

Used output format : User Defined Encoder
Selected bitrate : 1024 kBit/s
Quality : High
Add ID3 tag : No
Command line compressor : C:\Program Files (x86)\Exact Audio Copy\Flac\flac.exe
Additional command line options : -8 -e -V -T "ARTIST=%artist%" -T "TITLE=%title%" -T "ALBUM=%albumtitle%" -T "DATE=%year%" -T "TRACKNUMBER=%tracknr%" -T "GENRE=%genre%" -T "PERFORMER=%albuminterpret%" -T "COMPOSER=%composer%" %haslyrics%–tag-from-file=LYRICS="%lyricsfile%"%haslyrics% -T "ALBUMARTIST=%albumartist%" -T "DISCNUMBER=%cdnumber%" -T "TOTALDISCS=%totalcds%" -T "TOTALTRACKS=%numtracks%" -T "COMMENT=%comment%" %source% -o %dest%


TOC of the extracted CD

Track | Start | Length | Start sector | End sector
––––––––––––––––––––––––––––-
1 | 0:00.00 | 3:47.53 | 0 | 17077
2 | 3:47.53 | 3:07.03 | 17078 | 31105
3 | 6:54.56 | 4:00.43 | 31106 | 49148
4 | 10:55.24 | 3:06.35 | 49149 | 63133
5 | 14:01.59 | 2:39.25 | 63134 | 75083
6 | 16:41.09 | 3:50.59 | 75084 | 92392
7 | 20:31.68 | 3:17.16 | 92393 | 107183
8 | 23:49.09 | 2:56.23 | 107184 | 120406
9 | 26:45.32 | 2:32.08 | 120407 | 131814
10 | 29:17.40 | 3:07.17 | 131815 | 145856
11 | 32:24.57 | 4:05.49 | 145857 | 164280
12 | 36:30.31 | 3:57.08 | 164281 | 182063
13 | 40:27.39 | 5:13.11 | 182064 | 205549
14 | 45:40.50 | 2:47.32 | 205550 | 218106
15 | 48:28.07 | 1:54.63 | 218107 | 226719
16 | 50:22.70 | 1:17.26 | 226720 | 232520
17 | 51:40.21 | 2:49.35 | 232521 | 245230
18 | 54:29.56 | 3:01.20 | 245231 | 258825
19 | 57:31.01 | 3:09.31 | 258826 | 273031
20 | 60:40.32 | 4:19.30 | 273032 | 292486


Track 1

Filename K:\Musique\Ocora\CD6\01 - [unknown] - Don't Let the Devil Ride (États-Unis).wav

Pre-gap length 0:00:02.00

Peak level 91.7 %
Extraction speed 4.1 X
Track quality 99.9 %
Test CRC D148359B
Copy CRC D148359B
Track not present in AccurateRip database
Copy OK

Track 2

Filename K:\Musique\Ocora\CD6\02 - [unknown] - Las Dos Huastecas (Mexique).wav

Peak level 78.7 %
Extraction speed 5.2 X
Track quality 100.0 %
Test CRC 42F1E50D
Copy CRC 42F1E50D
Track not present in AccurateRip database
Copy OK

Track 3

Filename K:\Musique\Ocora\CD6\03 - [unknown] - Dügü (Honduras).wav

Peak level 71.3 %
Extraction speed 5.8 X
Track quality 100.0 %
Test CRC 28C485C5
Copy CRC 28C485C5
Track not present in AccurateRip database
Copy OK

Track 4

Filename K:\Musique\Ocora\CD6\04 - [unknown] - El Misterio de Tus Ojos (Cuba).wav

Peak level 79.0 %
Extraction speed 5.9 X
Track quality 100.0 %
Test CRC 5A38414A
Copy CRC 5A38414A
Track not present in AccurateRip database
Copy OK

Track 5

Filename K:\Musique\Ocora\CD6\05 - [unknown] - Francisquito (Cuba).wav

Peak level 61.8 %
Extraction speed 4.7 X
Track quality 99.9 %
Test CRC 0D48087E
Copy CRC 0D48087E
Track not present in AccurateRip database
Copy OK

Track 6

Filename K:\Musique\Ocora\CD6\06 - [unknown] - Séramik Épi Potri (France - Martinique).wav

Peak level 78.2 %
Extraction speed 6.7 X
Track quality 100.0 %
Test CRC 5A6EE774
Copy CRC 5A6EE774
Track not present in AccurateRip database
Copy OK

Track 7

Filename K:\Musique\Ocora\CD6\07 - [unknown] - Pantalon - Jardin (France - Guadeloupe).wav

Peak level 56.4 %
Extraction speed 5.4 X
Track quality 99.9 %
Test CRC 6493A7C2
Copy CRC 6493A7C2
Track not present in AccurateRip database
Copy OK

Track 8

Filename K:\Musique\Ocora\CD6\08 - [unknown] - Sangueo (Venezuela).wav

Peak level 84.8 %
Extraction speed 5.4 X
Track quality 99.9 %
Test CRC 8F7B089B
Copy CRC 8F7B089B
Track not present in AccurateRip database
Copy OK

Track 9

Filename K:\Musique\Ocora\CD6\09 - [unknown] - El Diablo Suelto (Venezuela).wav

Peak level 78.4 %
Extraction speed 7.0 X
Track quality 100.0 %
Test CRC 1B4DE60D
Copy CRC 1B4DE60D
Track not present in AccurateRip database
Copy OK

Track 10

Filename K:\Musique\Ocora\CD6\10 - [unknown] - Zumba Que Zumba (Venezuela).wav

Peak level 61.6 %
Extraction speed 5.8 X
Track quality 99.9 %
Test CRC F0A70A33
Copy CRC F0A70A33
Track not present in AccurateRip database
Copy OK

Track 11

Filename K:\Musique\Ocora\CD6\11 - [unknown] - Matilde Lina (Colombie).wav

Peak level 66.0 %
Extraction speed 6.7 X
Track quality 99.9 %
Test CRC A8634B7B
Copy CRC A8634B7B
Track not present in AccurateRip database
Copy OK

Track 12

Filename K:\Musique\Ocora\CD6\12 - [unknown] - Marili (Colombie).wav

Peak level 53.2 %
Extraction speed 8.3 X
Track quality 100.0 %
Test CRC FBA2BA97
Copy CRC FBA2BA97
Track not present in AccurateRip database
Copy OK

Track 13

Filename K:\Musique\Ocora\CD6\13 - [unknown] - La Que Se Pega (Colombie).wav

Peak level 64.5 %
Extraction speed 8.8 X
Track quality 100.0 %
Test CRC 386554F3
Copy CRC 386554F3
Track not present in AccurateRip database
Copy OK

Track 14

Filename K:\Musique\Ocora\CD6\14 - [unknown] - Tikankginhü (Brésil).wav

Peak level 53.6 %
Extraction speed 8.3 X
Track quality 100.0 %
Test CRC 82261101
Copy CRC 82261101
Track not present in AccurateRip database
Copy OK

Track 15

Filename K:\Musique\Ocora\CD6\15 - [unknown] - Uakamimbütaka (Brésil).wav

Peak level 69.1 %
Extraction speed 5.6 X
Track quality 99.9 %
Test CRC DB8EA74D
Copy CRC DB8EA74D
Track not present in AccurateRip database
Copy OK

Track 16

Filename K:\Musique\Ocora\CD6\16 - [unknown] - Wyrakamytã Mi (Paraguay).wav

Peak level 66.5 %
Extraction speed 4.6 X
Track quality 99.8 %
Test CRC EB6E03EE
Copy CRC EB6E03EE
Track not present in AccurateRip database
Copy OK

Track 17

Filename K:\Musique\Ocora\CD6\17 - [unknown] - Aiwisku (Bolivie).wav

Peak level 80.3 %
Extraction speed 8.8 X
Track quality 100.0 %
Test CRC BE4E5198
Copy CRC BE4E5198
Track not present in AccurateRip database
Copy OK

Track 18

Filename K:\Musique\Ocora\CD6\18 - [unknown] - Color Color Punchituchay (Perou).wav

Peak level 75.5 %
Extraction speed 7.0 X
Track quality 99.9 %
Test CRC 617A8C7A
Copy CRC 617A8C7A
Track not present in AccurateRip database
Copy OK

Track 19

Filename K:\Musique\Ocora\CD6\19 - [unknown] - Mi Buenos Aires Querido (Argentine).wav

Peak level 67.6 %
Extraction speed 9.3 X
Track quality 100.0 %
Test CRC 8344B4B3
Copy CRC 8344B4B3
Track not present in AccurateRip database
Copy OK

Track 20

Filename K:\Musique\Ocora\CD6\20 - [unknown] - Canto a mi Terruño (Argentine).wav

Peak level 57.9 %
Extraction speed 9.8 X
Track quality 100.0 %
Test CRC 2FE34F12
Copy CRC 2FE34F12
Track not present in AccurateRip database
Copy OK


None of the tracks are present in the AccurateRip database

No errors occurred

End of status report

–– CUETools DB Plugin V2.1.6

[CTDB TOCID: Q9UuPKcomrgIocR.Cx2HQuKbR4c-] found
Submit result: Q9UuPKcomrgIocR.Cx2HQuKbR4c- has been confirmed
Track | CTDB Status
1 | (13/13) Accurately ripped
2 | (13/13) Accurately ripped
3 | (13/13) Accurately ripped
4 | (13/13) Accurately ripped
5 | (13/13) Accurately ripped
6 | (13/13) Accurately ripped
7 | (13/13) Accurately ripped
8 | (13/13) Accurately ripped
9 | (13/13) Accurately ripped
10 | (13/13) Accurately ripped
11 | (13/13) Accurately ripped
12 | (13/13) Accurately ripped
13 | (13/13) Accurately ripped
14 | (13/13) Accurately ripped
15 | (13/13) Accurately ripped
16 | (13/13) Accurately ripped
17 | (13/13) Accurately ripped
18 | (13/13) Accurately ripped
19 | (13/13) Accurately ripped
20 | (13/13) Accurately ripped


==== Log checksum 71A769CB6C691FD6B4759DABE0DCDC9A9B02A987E05AE778681C43C494B05189 ====