Tags
Language
Tags

Various Artists - Nova autour du monde (2019)

Posted By: aasana
Various Artists - Nova autour du monde (2019)

Radio Nova - Nova Autour Du Monde (2019)
EAC Rip | FLAC (tracks+.cue) | 05:18:18 | 2,0 GB
World; Folk; Electronic | Label: Nova Records

Fouilleuse et baroudeuse par essence, Radio Nova revient d’un nouveau voyage aux cinq coins du monde avec un coffret aux trésors, Nova autour du monde.Cinq CD pour explorer les mutations musicales contemporaines, celles qui agitent la planète d’un tropique à l’autre. Bienvenue dans ce tour du monde en 80 titres !Sortie le 8 novembre en coffret CD et digital, mais aussi dans une édition vinyle limitée avec poster.

Tracklist:
1.01 Aquaserge - Tour du monde (4:05)
1.02 Bacao Rhythm & Steel Band - 1 Thing (2:26)
1.03 Swindle; Andrew Ashong - Reach the Stars (3:27)
1.04 Nu Guinea - Je Vulesse (4:48)
1.05 Hector Gachan - Really Something (3:39)
1.06 Axel Boman; Miljon - Forgot About You (Piano Version) (4:43)
1.07 Klaus Johann Grobe - Der Koenig (3:59)
1.08 Rejjie Snow; Pell - Virgo (3:33)
1.09 Brokenchord - Door Shutter (3:06)
1.10 Derya Yıldırım & Grup Şimşek - Kar Yağar (2:50)
1.11 Baiuca; Baiúca - Solpor (2:40)
1.12 Mauskovic Dance Band - Down in the Basement (5:07)
1.13 SASSY 009 - Are You Leaving? (3:03)
1.14 Bobby Oroza - Falling in Love (3:40)
1.15 L'Or du Commun - Prison vide (4:10)
1.16 Dokkerman & The Turkeying Fellas - Dusk (5:08)

Exact Audio Copy V1.3 from 2. September 2016

EAC extraction logfile from 15. March 2020, 16:29

Radio Nova / Nova Autour Du Monde

Used drive : PBDS DVD+-RW DS-8W1P Adapter: 1 ID: 0

Read mode : Secure
Utilize accurate stream : Yes
Defeat audio cache : Yes
Make use of C2 pointers : No

Read offset correction : 594
Overread into Lead-In and Lead-Out : No
Fill up missing offset samples with silence : Yes
Delete leading and trailing silent blocks : No
Null samples used in CRC calculations : Yes
Used interface : Native Win32 interface for Win NT & 2000
Gap handling : Appended to previous track

Used output format : User Defined Encoder
Selected bitrate : 1024 kBit/s
Quality : High
Add ID3 tag : No
Command line compressor : C:\Program Files (x86)\Exact Audio Copy\Flac\flac.exe
Additional command line options : -8 -V -T "ARTIST=%artist%" -T "TITLE=%title%" -T "ALBUM=%albumtitle%" -T "DATE=%year%" -T "TRACKNUMBER=%tracknr%" -T "GENRE=%genre%" -T "PERFORMER=%albuminterpret%" -T "COMPOSER=%composer%" %haslyrics%–tag-from-file=LYRICS="%lyricsfile%"%haslyrics% -T "ALBUMARTIST=%albumartist%" -T "DISCNUMBER=%cdnumber%" -T "TOTALDISCS=%totalcds%" -T "TOTALTRACKS=%numtracks%" -T "COMMENT=%comment%" %source% -o %dest%


TOC of the extracted CD

Track | Start | Length | Start sector | End sector
––––––––––––––––––––––––––––-
1 | 0:00.00 | 4:04.73 | 0 | 18372
2 | 4:04.73 | 2:56.04 | 18373 | 31576
3 | 7:01.02 | 2:26.19 | 31577 | 42545
4 | 9:27.21 | 3:26.49 | 42546 | 58044
5 | 12:53.70 | 4:48.21 | 58045 | 79665
6 | 17:42.16 | 3:38.69 | 79666 | 96084
7 | 21:21.10 | 4:43.15 | 96085 | 117324
8 | 26:04.25 | 3:58.41 | 117325 | 135215
9 | 30:02.66 | 3:33.04 | 135216 | 151194
10 | 33:35.70 | 3:06.17 | 151195 | 165161
11 | 36:42.12 | 2:49.44 | 165162 | 177880
12 | 39:31.56 | 2:40.09 | 177881 | 189889
13 | 42:11.65 | 5:06.58 | 189890 | 212897
14 | 47:18.48 | 3:03.22 | 212898 | 226644
15 | 50:21.70 | 3:39.09 | 226645 | 243078
16 | 54:01.04 | 4:10.23 | 243079 | 261851
17 | 58:11.27 | 5:08.00 | 261852 | 284951


Track 1

Filename C:\Users\olivi\Desktop\Rips\01 - Aquaserge - Tour Du Monde.wav

Pre-gap length 0:00:02.00

Peak level 98.1 %
Extraction speed 1.0 X
Track quality 100.0 %
Test CRC 0A3BF009
Copy CRC 0A3BF009
Track not present in AccurateRip database
Copy OK

Track 2

Filename C:\Users\olivi\Desktop\Rips\02 - Pongo - Chora.wav

Peak level 100.0 %
Extraction speed 1.0 X
Track quality 100.0 %
Test CRC 66AF91A2
Copy CRC 66AF91A2
Track not present in AccurateRip database
Copy OK

Track 3

Filename C:\Users\olivi\Desktop\Rips\03 - The Bacao Rhythm & Steel Band - 1 Thing.wav

Peak level 98.8 %
Extraction speed 1.1 X
Track quality 100.0 %
Test CRC CD130A2A
Copy CRC CD130A2A
Track not present in AccurateRip database
Copy OK

Track 4

Filename C:\Users\olivi\Desktop\Rips\04 - Swindle - Reach The Stars.wav

Peak level 98.6 %
Extraction speed 1.2 X
Track quality 100.0 %
Test CRC 5366C15A
Copy CRC 5366C15A
Track not present in AccurateRip database
Copy OK

Track 5

Filename C:\Users\olivi\Desktop\Rips\05 - Nu Guinea - Je Vulesse.wav

Peak level 98.6 %
Extraction speed 1.4 X
Track quality 100.0 %
Test CRC D8CF7837
Copy CRC D8CF7837
Track not present in AccurateRip database
Copy OK

Track 6

Filename C:\Users\olivi\Desktop\Rips\06 - Hector Gachan - Really Something.wav

Peak level 99.3 %
Extraction speed 1.4 X
Track quality 100.0 %
Test CRC 9CCF2727
Copy CRC 9CCF2727
Track not present in AccurateRip database
Copy OK

Track 7

Filename C:\Users\olivi\Desktop\Rips\07 - Axel Boman - Forgot About You (Piano Version feat. Miljon).wav

Peak level 95.0 %
Extraction speed 1.4 X
Track quality 99.9 %
Test CRC 63F89EED
Copy CRC 63F89EED
Track not present in AccurateRip database
Copy OK

Track 8

Filename C:\Users\olivi\Desktop\Rips\08 - Klaus Johann Grobe - Der Koenig.wav

Peak level 98.8 %
Extraction speed 1.6 X
Track quality 100.0 %
Test CRC 398A704D
Copy CRC 398A704D
Track not present in AccurateRip database
Copy OK

Track 9

Filename C:\Users\olivi\Desktop\Rips\09 - Rejjie Snow - Virgo.wav

Peak level 98.8 %
Extraction speed 1.6 X
Track quality 100.0 %
Test CRC 5C2406FE
Copy CRC 5C2406FE
Track not present in AccurateRip database
Copy OK

Track 10

Filename C:\Users\olivi\Desktop\Rips\10 - Brokenchord - Door Shutter.wav

Peak level 98.8 %
Extraction speed 1.5 X
Track quality 99.9 %
Test CRC 5D8F40DD
Copy CRC 5D8F40DD
Track not present in AccurateRip database
Copy OK

Track 11

Filename C:\Users\olivi\Desktop\Rips\11 - Derya Yıldırım & Grup Şimşek - Kar Yagar.wav

Peak level 97.5 %
Extraction speed 1.7 X
Track quality 100.0 %
Test CRC B2608C51
Copy CRC B2608C51
Track not present in AccurateRip database
Copy OK

Track 12

Filename C:\Users\olivi\Desktop\Rips\12 - Baiuca - Solpor.wav

Peak level 98.8 %
Extraction speed 1.7 X
Track quality 100.0 %
Test CRC 8A87FDA5
Copy CRC 8A87FDA5
Track not present in AccurateRip database
Copy OK

Track 13

Filename C:\Users\olivi\Desktop\Rips\13 - The Mauskovic Dance Band - Down In The Basement.wav

Peak level 97.4 %
Extraction speed 1.7 X
Track quality 99.9 %
Test CRC 69CCA2C1
Copy CRC 69CCA2C1
Track not present in AccurateRip database
Copy OK

Track 14

Filename C:\Users\olivi\Desktop\Rips\14 - Sassy 009 - Are You Leaving.wav

Peak level 98.8 %
Extraction speed 1.8 X
Track quality 100.0 %
Test CRC F2D77D8E
Copy CRC F2D77D8E
Track not present in AccurateRip database
Copy OK

Track 15

Filename C:\Users\olivi\Desktop\Rips\15 - Bobby Oroza - Falling In Love.wav

Peak level 98.8 %
Extraction speed 1.7 X
Track quality 99.9 %
Test CRC 8E6DF3A5
Copy CRC 8E6DF3A5
Track not present in AccurateRip database
Copy OK

Track 16

Filename C:\Users\olivi\Desktop\Rips\16 - L'Or Du Commun - Prison Vide.wav

Peak level 98.9 %
Extraction speed 1.8 X
Track quality 99.9 %
Test CRC 70206297
Copy CRC 70206297
Track not present in AccurateRip database
Copy OK

Track 17

Filename C:\Users\olivi\Desktop\Rips\17 - Dokkerman & The Turkeying Fellaz - Dusk.wav

Peak level 99.9 %
Extraction speed 2.1 X
Track quality 100.0 %
Test CRC B78E00FC
Copy CRC B78E00FC
Track not present in AccurateRip database
Copy OK


None of the tracks are present in the AccurateRip database

No errors occurred

End of status report

–– CUETools DB Plugin V2.1.6

[CTDB TOCID: DF7zyW.MTEGOj8dB5Y_u3ee_i.w-] found
Submit result: DF7zyW.MTEGOj8dB5Y_u3ee_i.w- has been confirmed
Track | CTDB Status
1 | (5/5) Accurately ripped
2 | (5/5) Accurately ripped
3 | (5/5) Accurately ripped
4 | (5/5) Accurately ripped
5 | (5/5) Accurately ripped
6 | (5/5) Accurately ripped
7 | (5/5) Accurately ripped
8 | (5/5) Accurately ripped
9 | (5/5) Accurately ripped
10 | (5/5) Accurately ripped
11 | (5/5) Accurately ripped
12 | (5/5) Accurately ripped
13 | (5/5) Accurately ripped
14 | (5/5) Accurately ripped
15 | (5/5) Accurately ripped
16 | (5/5) Accurately ripped
17 | (5/5) Accurately ripped


==== Log checksum DDF5392A6AE4C7BF349BA0942CB1A8E44D796F455ED6AFD4199790DCE2C13D10 ====

2.01 FATOUMATA DIAWARA - Kanou Dan Yen (3:34)
2.02 Sofiane Saidi; Mazalda - La classe Fi Las Vegas (4:24)
2.03 Madalitso Band - Vina Vina Malawi (4:19)
2.04 iZem; K.O.G - Change (3:44)
2.05 Ekiti Sound; Prince G - Oba Oluwa (3:29)
2.06 Les Filles de Illighadad - Eghass Malan (4:49)
2.07 Muzi; Black Rose - Microwave Love (3:41)
2.08 Vaudou Game - Tata fatiguée (3:40)
2.09 Maii and Zeid - Mourib (2:41)
2.10 Songhoy Blues; Elf Kid - Mali nord (3:59)
2.11 Blinky Bill - Atenshan (2:59)
2.12 LOYA; Regis Gizavo - South (3:31)
2.13 Nawal - Leo Ni Leo (4:04)
2.14 Tootart - Sahra (5:20)
2.15 Benin International Musical - The Benin Atmosphere (2:57)
2.16 Mubashira Mataali Group - Kulika Hijja (Welcome Back From The Holy Pilgrimage) (4:17)
2.17 UKANDANZ - Ere Gedamu (3:52)

Exact Audio Copy V1.3 from 2. September 2016

EAC extraction logfile from 15. March 2020, 19:00

Radio Nova / Nova Autour Du Monde

Used drive : PBDS DVD+-RW DS-8W1P Adapter: 1 ID: 0

Read mode : Secure
Utilize accurate stream : Yes
Defeat audio cache : Yes
Make use of C2 pointers : No

Read offset correction : 594
Overread into Lead-In and Lead-Out : No
Fill up missing offset samples with silence : Yes
Delete leading and trailing silent blocks : No
Null samples used in CRC calculations : Yes
Used interface : Native Win32 interface for Win NT & 2000
Gap handling : Appended to previous track

Used output format : User Defined Encoder
Selected bitrate : 1024 kBit/s
Quality : High
Add ID3 tag : No
Command line compressor : C:\Program Files (x86)\Exact Audio Copy\Flac\flac.exe
Additional command line options : -8 -V -T "ARTIST=%artist%" -T "TITLE=%title%" -T "ALBUM=%albumtitle%" -T "DATE=%year%" -T "TRACKNUMBER=%tracknr%" -T "GENRE=%genre%" -T "PERFORMER=%albuminterpret%" -T "COMPOSER=%composer%" %haslyrics%–tag-from-file=LYRICS="%lyricsfile%"%haslyrics% -T "ALBUMARTIST=%albumartist%" -T "DISCNUMBER=%cdnumber%" -T "TOTALDISCS=%totalcds%" -T "TOTALTRACKS=%numtracks%" -T "COMMENT=%comment%" %source% -o %dest%


TOC of the extracted CD

Track | Start | Length | Start sector | End sector
––––––––––––––––––––––––––––-
1 | 0:00.00 | 3:33.69 | 0 | 16043
2 | 3:33.69 | 4:24.11 | 16044 | 35854
3 | 7:58.05 | 4:19.32 | 35855 | 55311
4 | 12:17.37 | 3:43.40 | 55312 | 72076
5 | 16:01.02 | 3:29.15 | 72077 | 87766
6 | 19:30.17 | 4:49.27 | 87767 | 109468
7 | 24:19.44 | 3:41.07 | 109469 | 126050
8 | 28:00.51 | 3:39.40 | 126051 | 142515
9 | 31:40.16 | 2:40.47 | 142516 | 154562
10 | 34:20.63 | 3:56.09 | 154563 | 172271
11 | 38:16.72 | 2:59.30 | 172272 | 185726
12 | 41:16.27 | 3:30.59 | 185727 | 201535
13 | 44:47.11 | 4:03.44 | 201536 | 219804
14 | 48:50.55 | 5:19.47 | 219805 | 243776
15 | 54:10.27 | 2:57.16 | 243777 | 257067
16 | 57:07.43 | 4:17.13 | 257068 | 276355
17 | 61:24.56 | 3:45.37 | 276356 | 293267


Track 1

Filename C:\Users\olivi\Desktop\Rips\01 - Fatoumata Diawara - Kanou Dan Yen.wav

Pre-gap length 0:00:02.00

Peak level 99.8 %
Extraction speed 1.0 X
Track quality 100.0 %
Test CRC 3DECE99B
Copy CRC 3DECE99B
Track not present in AccurateRip database
Copy OK

Track 2

Filename C:\Users\olivi\Desktop\Rips\02 - Sofiane Saidi & Mazalda - La Classe Fi Las Vegas.wav

Peak level 98.8 %
Extraction speed 1.2 X
Track quality 100.0 %
Test CRC BABA9D97
Copy CRC BABA9D97
Track not present in AccurateRip database
Copy OK

Track 3

Filename C:\Users\olivi\Desktop\Rips\03 - Madalitso Band - Vina Vina Malawi.wav

Peak level 98.8 %
Extraction speed 1.3 X
Track quality 100.0 %
Test CRC 546CE3C3
Copy CRC 546CE3C3
Track not present in AccurateRip database
Copy OK

Track 4

Filename C:\Users\olivi\Desktop\Rips\04 - iZem & K.O.G. - Change.wav

Peak level 98.8 %
Extraction speed 1.4 X
Track quality 100.0 %
Test CRC 6341D1E4
Copy CRC 6341D1E4
Track not present in AccurateRip database
Copy OK

Track 5

Filename C:\Users\olivi\Desktop\Rips\05 - Ekiti Sound System - Oba Oluwa.wav

Peak level 98.8 %
Extraction speed 1.5 X
Track quality 100.0 %
Test CRC 25F8C90C
Copy CRC 25F8C90C
Track not present in AccurateRip database
Copy OK

Track 6

Filename C:\Users\olivi\Desktop\Rips\06 - Les Filles de Illighadad - Eghass Malan.wav

Peak level 99.9 %
Extraction speed 1.6 X
Track quality 100.0 %
Test CRC F0D8D90F
Copy CRC F0D8D90F
Track not present in AccurateRip database
Copy OK

Track 7

Filename C:\Users\olivi\Desktop\Rips\07 - Muzi - Microwave Love.wav

Peak level 100.0 %
Extraction speed 1.5 X
Track quality 99.9 %
Test CRC 7EDACE16
Copy CRC 7EDACE16
Track not present in AccurateRip database
Copy OK

Track 8

Filename C:\Users\olivi\Desktop\Rips\08 - Vaudou Game - Tata Fatiguée.wav

Peak level 98.8 %
Extraction speed 1.7 X
Track quality 100.0 %
Test CRC 419121DD
Copy CRC 419121DD
Track not present in AccurateRip database
Copy OK

Track 9

Filename C:\Users\olivi\Desktop\Rips\09 - Mali & Zeid - Mourib.wav

Peak level 99.9 %
Extraction speed 1.7 X
Track quality 100.0 %
Test CRC 76789392
Copy CRC 76789392
Track not present in AccurateRip database
Copy OK

Track 10

Filename C:\Users\olivi\Desktop\Rips\10 - Songhoy Blues - Mali Nord.wav

Peak level 98.8 %
Extraction speed 1.8 X
Track quality 100.0 %
Test CRC E0D0BC14
Copy CRC E0D0BC14
Track not present in AccurateRip database
Copy OK

Track 11

Filename C:\Users\olivi\Desktop\Rips\11 - Blinky Bill - Atenshan.wav

Peak level 98.7 %
Extraction speed 1.8 X
Track quality 100.0 %
Test CRC C230F3FE
Copy CRC C230F3FE
Track not present in AccurateRip database
Copy OK

Track 12

Filename C:\Users\olivi\Desktop\Rips\12 - Loya - South.wav

Peak level 98.8 %
Extraction speed 1.7 X
Track quality 99.9 %
Test CRC 25C23651
Copy CRC 25C23651
Track not present in AccurateRip database
Copy OK

Track 13

Filename C:\Users\olivi\Desktop\Rips\13 - Nawal - Leo Ni Leo.wav

Peak level 99.9 %
Extraction speed 2.0 X
Track quality 100.0 %
Test CRC DF19A99D
Copy CRC DF19A99D
Track not present in AccurateRip database
Copy OK

Track 14

Filename C:\Users\olivi\Desktop\Rips\14 - TootArd - Sahra.wav

Peak level 98.8 %
Extraction speed 2.1 X
Track quality 100.0 %
Test CRC AB38F872
Copy CRC AB38F872
Track not present in AccurateRip database
Copy OK

Track 15

Filename C:\Users\olivi\Desktop\Rips\15 - Benin International Musical - The Benin Atmosphere.wav

Peak level 99.9 %
Extraction speed 2.0 X
Track quality 100.0 %
Test CRC BA85158E
Copy CRC BA85158E
Track not present in AccurateRip database
Copy OK

Track 16

Filename C:\Users\olivi\Desktop\Rips\16 - Mubashira Mataali Group - Kulika Hajja.wav

Peak level 98.8 %
Extraction speed 2.2 X
Track quality 100.0 %
Test CRC E20212F8
Copy CRC E20212F8
Track not present in AccurateRip database
Copy OK

Track 17

Filename C:\Users\olivi\Desktop\Rips\17 - Ukandanz - Ere Gedamu.wav

Peak level 99.9 %
Extraction speed 2.2 X
Track quality 100.0 %
Test CRC CE1BB874
Copy CRC CE1BB874
Track not present in AccurateRip database
Copy OK


None of the tracks are present in the AccurateRip database

No errors occurred

End of status report

–– CUETools DB Plugin V2.1.6

[CTDB TOCID: CS6uywHMtDC0x2stEz5gd3FjYZI-] found
Submit result: CS6uywHMtDC0x2stEz5gd3FjYZI- has been confirmed
Track | CTDB Status
1 | (5/5) Accurately ripped
2 | (5/5) Accurately ripped
3 | (5/5) Accurately ripped
4 | (5/5) Accurately ripped
5 | (5/5) Accurately ripped
6 | (5/5) Accurately ripped
7 | (5/5) Accurately ripped
8 | (5/5) Accurately ripped
9 | (5/5) Accurately ripped
10 | (5/5) Accurately ripped
11 | (5/5) Accurately ripped
12 | (5/5) Accurately ripped
13 | (5/5) Accurately ripped
14 | (5/5) Accurately ripped
15 | (5/5) Accurately ripped
16 | (5/5) Accurately ripped
17 | (5/5) Accurately ripped


==== Log checksum A8619335722861EAE4CA41F1F5434F112405F40CEEF522698FD60B2D4F870808 ====

3.01 Badbadnotgood - Speaking Gently (4:04)
3.02 Sonido Gallo Negro - Cumbia Ishtar (3:20)
3.03 79.5 - Terrorize My Heart (Disco Dub) (3:47)
3.04 Boulpik - Boulpik twoubadou (4:10)
3.05 Hubert Lenoir - Recommencer (3:32)
3.06 NOLA IS CALLING - Downtown (3:53)
3.07 Orquesta Akokán - Mambo Rapidito (3:16)
3.08 Alsarah & The Nubatones - Habibi Taal (3:16)
3.09 John pdf - La flûtance (4:13)
3.10 The Garifuna Collective - Merua (3:07)
3.11 Illa J - Enjoy the Ride (3:54)
3.12 Edmony Krater - An ba jouk (4:47)
3.13 Kiefer - Socially Awkward (2:22)
3.14 Leyla McCalla - Lavi Vye Neg (2:48)

Exact Audio Copy V1.3 from 2. September 2016

EAC extraction logfile from 15. March 2020, 20:55

Radio Nova / Nova Autour Du Monde

Used drive : PBDS DVD+-RW DS-8W1P Adapter: 1 ID: 0

Read mode : Secure
Utilize accurate stream : Yes
Defeat audio cache : Yes
Make use of C2 pointers : No

Read offset correction : 594
Overread into Lead-In and Lead-Out : No
Fill up missing offset samples with silence : Yes
Delete leading and trailing silent blocks : No
Null samples used in CRC calculations : Yes
Used interface : Native Win32 interface for Win NT & 2000
Gap handling : Appended to previous track

Used output format : User Defined Encoder
Selected bitrate : 1024 kBit/s
Quality : High
Add ID3 tag : No
Command line compressor : C:\Program Files (x86)\Exact Audio Copy\Flac\flac.exe
Additional command line options : -8 -V -T "ARTIST=%artist%" -T "TITLE=%title%" -T "ALBUM=%albumtitle%" -T "DATE=%year%" -T "TRACKNUMBER=%tracknr%" -T "GENRE=%genre%" -T "PERFORMER=%albuminterpret%" -T "COMPOSER=%composer%" %haslyrics%–tag-from-file=LYRICS="%lyricsfile%"%haslyrics% -T "ALBUMARTIST=%albumartist%" -T "DISCNUMBER=%cdnumber%" -T "TOTALDISCS=%totalcds%" -T "TOTALTRACKS=%numtracks%" -T "COMMENT=%comment%" %source% -o %dest%


TOC of the extracted CD

Track | Start | Length | Start sector | End sector
––––––––––––––––––––––––––––-
1 | 0:00.00 | 4:03.51 | 0 | 18275
2 | 4:03.51 | 3:45.39 | 18276 | 35189
3 | 7:49.15 | 3:20.23 | 35190 | 50212
4 | 11:09.38 | 3:45.14 | 50213 | 67101
5 | 14:54.52 | 4:10.16 | 67102 | 85867
6 | 19:04.68 | 3:31.59 | 85868 | 101751
7 | 22:36.52 | 3:53.12 | 101752 | 119238
8 | 26:29.64 | 3:16.28 | 119239 | 133966
9 | 29:46.17 | 3:16.31 | 133967 | 148697
10 | 33:02.48 | 4:12.71 | 148698 | 167668
11 | 37:15.44 | 3:06.50 | 167669 | 181668
12 | 40:22.19 | 3:53.55 | 181669 | 199198
13 | 44:15.74 | 4:46.67 | 199199 | 220715
14 | 49:02.66 | 2:21.21 | 220716 | 231311
15 | 51:24.12 | 2:45.08 | 231312 | 243694


Track 1

Filename C:\Users\olivi\Desktop\Rips\01 - BADBADNOTGOOD - Speaking Gently.wav

Pre-gap length 0:00:02.00

Peak level 98.8 %
Extraction speed 1.0 X
Track quality 99.9 %
Test CRC A06820E3
Copy CRC A06820E3
Track not present in AccurateRip database
Copy OK

Track 2

Filename C:\Users\olivi\Desktop\Rips\02 - Protoje - Blood Money.wav

Peak level 99.9 %
Extraction speed 1.1 X
Track quality 100.0 %
Test CRC E6D70C21
Copy CRC E6D70C21
Track not present in AccurateRip database
Copy OK

Track 3

Filename C:\Users\olivi\Desktop\Rips\03 - Sonido Gallo Negro - Cumbia Ishtar.wav

Peak level 98.8 %
Extraction speed 1.2 X
Track quality 100.0 %
Test CRC 16587346
Copy CRC 16587346
Track not present in AccurateRip database
Copy OK

Track 4

Filename C:\Users\olivi\Desktop\Rips\04 - 79.5 - Terrorize My Heart.wav

Peak level 98.8 %
Extraction speed 1.3 X
Track quality 100.0 %
Test CRC 7A7C5818
Copy CRC 7A7C5818
Track not present in AccurateRip database
Copy OK

Track 5

Filename C:\Users\olivi\Desktop\Rips\05 - Boulpik - Boulpik Twoubadou.wav

Peak level 98.8 %
Extraction speed 1.4 X
Track quality 100.0 %
Test CRC 3F641375
Copy CRC 3F641375
Track not present in AccurateRip database
Copy OK

Track 6

Filename C:\Users\olivi\Desktop\Rips\06 - Hubert Lenoir - Recommencer.wav

Peak level 98.6 %
Extraction speed 1.3 X
Track quality 99.9 %
Test CRC 3201E004
Copy CRC 3201E004
Track not present in AccurateRip database
Copy OK

Track 7

Filename C:\Users\olivi\Desktop\Rips\07 - Nola Is Calling - Downtown.wav

Peak level 98.8 %
Extraction speed 1.5 X
Track quality 100.0 %
Test CRC 6E5682A0
Copy CRC 6E5682A0
Track not present in AccurateRip database
Copy OK

Track 8

Filename C:\Users\olivi\Desktop\Rips\08 - Orquesta Akokán - Mambo Rapidito.wav

Peak level 98.8 %
Extraction speed 1.6 X
Track quality 100.0 %
Test CRC 07658037
Copy CRC 07658037
Track not present in AccurateRip database
Copy OK

Track 9

Filename C:\Users\olivi\Desktop\Rips\09 - Alsarah & The Nubatones - Habibi Taal.wav

Peak level 98.8 %
Extraction speed 1.6 X
Track quality 100.0 %
Test CRC A9F802A9
Copy CRC A9F802A9
Track not present in AccurateRip database
Copy OK

Track 10

Filename C:\Users\olivi\Desktop\Rips\10 - John PDF - La Flûtance.wav

Peak level 98.8 %
Extraction speed 1.6 X
Track quality 99.9 %
Test CRC B2B30B1B
Copy CRC B2B30B1B
Track not present in AccurateRip database
Copy OK

Track 11

Filename C:\Users\olivi\Desktop\Rips\11 - The Garifuna Collective - Umalali Merua.wav

Peak level 98.8 %
Extraction speed 1.7 X
Track quality 100.0 %
Test CRC 4CED64DA
Copy CRC 4CED64DA
Track not present in AccurateRip database
Copy OK

Track 12

Filename C:\Users\olivi\Desktop\Rips\12 - Illa J - Enjoy The Ride.wav

Peak level 98.8 %
Extraction speed 1.6 X
Track quality 99.9 %
Test CRC 2AA47E65
Copy CRC 2AA47E65
Track not present in AccurateRip database
Copy OK

Track 13

Filename C:\Users\olivi\Desktop\Rips\13 - Edmony Krater - An Ba Jouk.wav

Peak level 98.8 %
Extraction speed 1.9 X
Track quality 100.0 %
Test CRC C04DE2FC
Copy CRC C04DE2FC
Track not present in AccurateRip database
Copy OK

Track 14

Filename C:\Users\olivi\Desktop\Rips\14 - Kiefer - Socially Awkward.wav

Peak level 96.5 %
Extraction speed 1.8 X
Track quality 100.0 %
Test CRC E3247C2A
Copy CRC E3247C2A
Track not present in AccurateRip database
Copy OK

Track 15

Filename C:\Users\olivi\Desktop\Rips\15 - Leyla McCalla - Lavi Vye Neg.wav

Peak level 99.9 %
Extraction speed 1.8 X
Track quality 100.0 %
Test CRC 46BF3867
Copy CRC 46BF3867
Track not present in AccurateRip database
Copy OK


None of the tracks are present in the AccurateRip database

No errors occurred

End of status report

–– CUETools DB Plugin V2.1.6

[CTDB TOCID: e836B5g0l4bZtwMKEcjsvScC._k-] found
Submit result: e836B5g0l4bZtwMKEcjsvScC._k- has been confirmed
Track | CTDB Status
1 | (5/5) Accurately ripped
2 | (5/5) Accurately ripped
3 | (5/5) Accurately ripped
4 | (5/5) Accurately ripped
5 | (5/5) Accurately ripped
6 | (5/5) Accurately ripped
7 | (5/5) Accurately ripped
8 | (5/5) Accurately ripped
9 | (5/5) Accurately ripped
10 | (5/5) Accurately ripped
11 | (5/5) Accurately ripped
12 | (5/5) Accurately ripped
13 | (5/5) Accurately ripped
14 | (5/5) Accurately ripped
15 | (5/5) Accurately ripped


==== Log checksum D5F3633BFFEB807E1396B2C10FC28649D434B6CE6A99483710650B3DAF24DF15 ====

4.01 Metá Metá - Orunmilá (4:03)
4.02 Tito Candela - Home (4:47)
4.03 Canalon de Timbiqui - Quítate de Mi Escalera (5:53)
4.04 Leonardo Marques - Não Te Escuto (3:13)
4.05 Nicola Cruz - Siete (5:48)
4.06 Juan Wauters - Guapa (5:29)
4.07 Calypso Rose - Abatina (3:45)
4.08 Lagartijeando; Minuk - La Frontera (5:41)
4.09 Dizzy Mandjeku; Alé Kumá; Nidia Góngora - La Canoa Ranchá (6:31)
4.10 Rodrigo Gallardo - Agua de La Tierra (5:00)
4.11 Juana Molina - Eras (4:25)
4.12 Dona Onete - Musa Da Babilônia (3:36)
4.13 Maria Usbeck - Moai y Yo (4:03)
4.14 Dengue Dengue Dengue - La Rama de Tamarindo (4:02)
4.15 Luzmila Carpio; Groupe Mostla - Wawitaman (5:29)

Exact Audio Copy V1.3 from 2. September 2016

EAC extraction logfile from 16. March 2020, 9:42

Radio Nova / Nova Autour Du Monde

Used drive : PBDS DVD+-RW DS-8W1P Adapter: 1 ID: 0

Read mode : Secure
Utilize accurate stream : Yes
Defeat audio cache : Yes
Make use of C2 pointers : No

Read offset correction : 594
Overread into Lead-In and Lead-Out : No
Fill up missing offset samples with silence : Yes
Delete leading and trailing silent blocks : No
Null samples used in CRC calculations : Yes
Used interface : Native Win32 interface for Win NT & 2000
Gap handling : Appended to previous track

Used output format : User Defined Encoder
Selected bitrate : 1024 kBit/s
Quality : High
Add ID3 tag : No
Command line compressor : C:\Program Files (x86)\Exact Audio Copy\Flac\flac.exe
Additional command line options : -8 -V -T "ARTIST=%artist%" -T "TITLE=%title%" -T "ALBUM=%albumtitle%" -T "DATE=%year%" -T "TRACKNUMBER=%tracknr%" -T "GENRE=%genre%" -T "PERFORMER=%albuminterpret%" -T "COMPOSER=%composer%" %haslyrics%–tag-from-file=LYRICS="%lyricsfile%"%haslyrics% -T "ALBUMARTIST=%albumartist%" -T "DISCNUMBER=%cdnumber%" -T "TOTALDISCS=%totalcds%" -T "TOTALTRACKS=%numtracks%" -T "COMMENT=%comment%" %source% -o %dest%


TOC of the extracted CD

Track | Start | Length | Start sector | End sector
––––––––––––––––––––––––––––-
1 | 0:00.00 | 4:03.15 | 0 | 18239
2 | 4:03.15 | 4:46.71 | 18240 | 39760
3 | 8:50.11 | 5:53.23 | 39761 | 66258
4 | 14:43.34 | 3:13.10 | 66259 | 80743
5 | 17:56.44 | 5:47.57 | 80744 | 106825
6 | 23:44.26 | 5:28.74 | 106826 | 131499
7 | 29:13.25 | 3:44.47 | 131500 | 148346
8 | 32:57.72 | 5:40.46 | 148347 | 173892
9 | 38:38.43 | 6:30.49 | 173893 | 203191
10 | 45:09.17 | 4:59.50 | 203192 | 225666
11 | 50:08.67 | 4:24.56 | 225667 | 245522
12 | 54:33.48 | 3:36.37 | 245523 | 261759
13 | 58:10.10 | 4:02.37 | 261760 | 279946
14 | 62:12.47 | 4:02.34 | 279947 | 298130
15 | 66:15.06 | 5:28.46 | 298131 | 322776


Track 1

Filename C:\Users\olivi\Desktop\Rips\01 - Metá Metá - Orunmila.wav

Pre-gap length 0:00:02.00

Peak level 96.6 %
Extraction speed 1.2 X
Track quality 100.0 %
Test CRC 2BD9C241
Copy CRC 2BD9C241
Track not present in AccurateRip database
Copy OK

Track 2

Filename C:\Users\olivi\Desktop\Rips\02 - Tito Candela - Home.wav

Peak level 100.0 %
Extraction speed 1.3 X
Track quality 100.0 %
Test CRC 702210D2
Copy CRC 702210D2
Track not present in AccurateRip database
Copy OK

Track 3

Filename C:\Users\olivi\Desktop\Rips\03 - Grupo Canalon De Timbiqui - Quitate De Mi Escalera.wav

Peak level 100.0 %
Extraction speed 1.5 X
Track quality 100.0 %
Test CRC C1E2A499
Copy CRC C1E2A499
Track not present in AccurateRip database
Copy OK

Track 4

Filename C:\Users\olivi\Desktop\Rips\04 - Leonardo Marques - Nao Te Escuto.wav

Peak level 80.7 %
Extraction speed 1.5 X
Track quality 100.0 %
Test CRC 1D7C0279
Copy CRC 1D7C0279
Track not present in AccurateRip database
Copy OK

Track 5

Filename C:\Users\olivi\Desktop\Rips\05 - Nicola Cruz - Siete.wav

Peak level 99.0 %
Extraction speed 1.7 X
Track quality 100.0 %
Test CRC CB6B54D9
Copy CRC CB6B54D9
Track not present in AccurateRip database
Copy OK

Track 6

Filename C:\Users\olivi\Desktop\Rips\06 - Juan Wauters - Guapa.wav

Peak level 96.5 %
Extraction speed 1.7 X
Track quality 99.9 %
Test CRC CE9A23CB
Copy CRC CE9A23CB
Track not present in AccurateRip database
Copy OK

Track 7

Filename C:\Users\olivi\Desktop\Rips\07 - Calypso Rose - Abatina.wav

Peak level 100.0 %
Extraction speed 1.9 X
Track quality 100.0 %
Test CRC 5A5D3075
Copy CRC 5A5D3075
Track not present in AccurateRip database
Copy OK

Track 8

Filename C:\Users\olivi\Desktop\Rips\08 - Lagartijeando - La Frontera.wav

Peak level 93.4 %
Extraction speed 1.9 X
Track quality 99.9 %
Test CRC E820F07D
Copy CRC E820F07D
Track not present in AccurateRip database
Copy OK

Track 9

Filename C:\Users\olivi\Desktop\Rips\09 - Dizzy Mandjeku & Alé Kumá - La Canao Rancha.wav

Peak level 98.7 %
Extraction speed 2.2 X
Track quality 100.0 %
Test CRC D4CF7637
Copy CRC D4CF7637
Track not present in AccurateRip database
Copy OK

Track 10

Filename C:\Users\olivi\Desktop\Rips\10 - Rodrigo Gallardo - Agua De La Tierra.wav

Peak level 98.8 %
Extraction speed 2.2 X
Track quality 100.0 %
Test CRC DCD9F73C
Copy CRC DCD9F73C
Track not present in AccurateRip database
Copy OK

Track 11

Filename C:\Users\olivi\Desktop\Rips\11 - Juana Molina - Eras.wav

Peak level 100.0 %
Extraction speed 2.3 X
Track quality 100.0 %
Test CRC 923EA1B8
Copy CRC 923EA1B8
Track not present in AccurateRip database
Copy OK

Track 12

Filename C:\Users\olivi\Desktop\Rips\12 - Dona Onete - Musa Da Babilonia.wav

Peak level 94.2 %
Extraction speed 2.3 X
Track quality 100.0 %
Test CRC 88961BC1
Copy CRC 88961BC1
Track not present in AccurateRip database
Copy OK

Track 13

Filename C:\Users\olivi\Desktop\Rips\13 - Maria Usbeck - Moal Y Yo.wav

Peak level 96.4 %
Extraction speed 2.4 X
Track quality 100.0 %
Test CRC EC9A1B72
Copy CRC EC9A1B72
Track not present in AccurateRip database
Copy OK

Track 14

Filename C:\Users\olivi\Desktop\Rips\14 - Dengue Dengue Dengue! - La Rama De Tamarindo.wav

Peak level 96.6 %
Extraction speed 2.4 X
Track quality 100.0 %
Test CRC 55411500
Copy CRC 55411500
Track not present in AccurateRip database
Copy OK

Track 15

Filename C:\Users\olivi\Desktop\Rips\15 - Luzmila Carpio & Groupe Mostla - Wawitaman.wav

Peak level 95.5 %
Extraction speed 2.6 X
Track quality 100.0 %
Test CRC E85029D9
Copy CRC E85029D9
Track not present in AccurateRip database
Copy OK


None of the tracks are present in the AccurateRip database

No errors occurred

End of status report

–– CUETools DB Plugin V2.1.6

[CTDB TOCID: _RmDfTMLRx4sxecHrU5IB.BeCL0-] found
Submit result: _RmDfTMLRx4sxecHrU5IB.BeCL0- has been confirmed
Track | CTDB Status
1 | (3/3) Accurately ripped
2 | (3/3) Accurately ripped
3 | (3/3) Accurately ripped
4 | (3/3) Accurately ripped
5 | (3/3) Accurately ripped
6 | (3/3) Accurately ripped
7 | (3/3) Accurately ripped
8 | (3/3) Accurately ripped
9 | (3/3) Accurately ripped
10 | (3/3) Accurately ripped
11 | (3/3) Accurately ripped
12 | (3/3) Accurately ripped
13 | (3/3) Accurately ripped
14 | (3/3) Accurately ripped
15 | (3/3) Accurately ripped


==== Log checksum 06222C6CF04451F9AD9BA6630E00D8A3193D7E84E1B0B69255CA52914197FF41 ====

5.01 Julien Dyne; Lady6 - Hours (3:55)
5.02 Munir - Together We Live (6:05)
5.03 Yasmine Hamdan - Douss (3:48)
5.04 Peter Cat Recording Co. - Floated By (4:12)
5.05 Suboi - Cho Không (3:17)
5.06 Minyo Crusaders - Kushimoto Bushi (5:01)
5.07 Ourselves the Elves - Baby I Love You So (2:57)
5.08 Kedr Livanskiy - Sky Kisses (на танцполе) (3:09)
5.09 dudu tassa; The Kuwaitis - Ahibbek (3:51)
5.10 King Gizzard And The Lizard Wizard; King Gizzard & The Lizard Wizard - Sense (3:31)
5.11 FWENDS - No Pressure (3:02)
5.12 Peggy Gou - Hungboo (DJ Kicks) (4:36)
5.13 Антоха МС - Babki (4:32)
5.14 Zalfa - Ma Sar (3:46)
5.15 Blood Wine Or Honey - Brilliant Pebbles (5:15)
5.16 Sampa the Great; Zaachariaha - Healer (3:03)

Exact Audio Copy V1.3 from 2. September 2016

EAC extraction logfile from 16. March 2020, 11:26

Radio Nova / Nova Autour Du Monde

Used drive : PBDS DVD+-RW DS-8W1P Adapter: 1 ID: 0

Read mode : Secure
Utilize accurate stream : Yes
Defeat audio cache : Yes
Make use of C2 pointers : No

Read offset correction : 594
Overread into Lead-In and Lead-Out : No
Fill up missing offset samples with silence : Yes
Delete leading and trailing silent blocks : No
Null samples used in CRC calculations : Yes
Used interface : Native Win32 interface for Win NT & 2000
Gap handling : Appended to previous track

Used output format : User Defined Encoder
Selected bitrate : 1024 kBit/s
Quality : High
Add ID3 tag : No
Command line compressor : C:\Program Files (x86)\Exact Audio Copy\Flac\flac.exe
Additional command line options : -8 -V -T "ARTIST=%artist%" -T "TITLE=%title%" -T "ALBUM=%albumtitle%" -T "DATE=%year%" -T "TRACKNUMBER=%tracknr%" -T "GENRE=%genre%" -T "PERFORMER=%albuminterpret%" -T "COMPOSER=%composer%" %haslyrics%–tag-from-file=LYRICS="%lyricsfile%"%haslyrics% -T "ALBUMARTIST=%albumartist%" -T "DISCNUMBER=%cdnumber%" -T "TOTALDISCS=%totalcds%" -T "TOTALTRACKS=%numtracks%" -T "COMMENT=%comment%" %source% -o %dest%


TOC of the extracted CD

Track | Start | Length | Start sector | End sector
––––––––––––––––––––––––––––-
1 | 0:00.00 | 3:52.51 | 0 | 17450
2 | 3:52.51 | 6:04.48 | 17451 | 44798
3 | 9:57.24 | 3:48.21 | 44799 | 61919
4 | 13:45.45 | 4:11.68 | 61920 | 80812
5 | 17:57.38 | 3:16.48 | 80813 | 95560
6 | 21:14.11 | 5:00.41 | 95561 | 118101
7 | 26:14.52 | 2:56.43 | 118102 | 131344
8 | 29:11.20 | 3:09.07 | 131345 | 145526
9 | 32:20.27 | 3:50.62 | 145527 | 162838
10 | 36:11.14 | 3:30.32 | 162839 | 178620
11 | 39:41.46 | 3:02.28 | 178621 | 192298
12 | 42:43.74 | 4:35.40 | 192299 | 212963
13 | 47:19.39 | 4:32.25 | 212964 | 233388
14 | 51:51.64 | 3:45.43 | 233389 | 250306
15 | 55:37.32 | 5:15.26 | 250307 | 273957
16 | 60:52.58 | 3:03.00 | 273958 | 287682


Track 1

Filename C:\Users\olivi\Desktop\Rips\01 - Julien Dyne - Hours.wav

Pre-gap length 0:00:02.00

Peak level 99.9 %
Extraction speed 1.0 X
Track quality 100.0 %
Test CRC 0672F667
Copy CRC 0672F667
Track not present in AccurateRip database
Copy OK

Track 2

Filename C:\Users\olivi\Desktop\Rips\02 - Munir Septiandry - Together We Live.wav

Peak level 98.8 %
Extraction speed 1.2 X
Track quality 100.0 %
Test CRC A06853B5
Copy CRC A06853B5
Track not present in AccurateRip database
Copy OK

Track 3

Filename C:\Users\olivi\Desktop\Rips\03 - Yasmine Hamdan - Douss.wav

Peak level 99.9 %
Extraction speed 1.2 X
Track quality 100.0 %
Test CRC B699FAE1
Copy CRC B699FAE1
Track not present in AccurateRip database
Copy OK

Track 4

Filename C:\Users\olivi\Desktop\Rips\04 - Peter Cat Recording Co. - Floated By.wav

Peak level 98.8 %
Extraction speed 1.3 X
Track quality 100.0 %
Test CRC 306A376D
Copy CRC 306A376D
Track not present in AccurateRip database
Copy OK

Track 5

Filename C:\Users\olivi\Desktop\Rips\05 - Subol - Cho Kong.wav

Peak level 99.8 %
Extraction speed 1.4 X
Track quality 100.0 %
Test CRC 5D1FA512
Copy CRC 5D1FA512
Track not present in AccurateRip database
Copy OK

Track 6

Filename C:\Users\olivi\Desktop\Rips\06 - Minyo Crusaders - Kushimoto Bushi.wav

Peak level 98.8 %
Extraction speed 1.5 X
Track quality 100.0 %
Test CRC 098E46D4
Copy CRC 098E46D4
Track not present in AccurateRip database
Copy OK

Track 7

Filename C:\Users\olivi\Desktop\Rips\07 - Ourselves the Elves - Baby I Love You So.wav

Peak level 99.9 %
Extraction speed 1.5 X
Track quality 100.0 %
Test CRC 33EE0303
Copy CRC 33EE0303
Track not present in AccurateRip database
Copy OK

Track 8

Filename C:\Users\olivi\Desktop\Rips\08 - Kedr Livanskiy - Sky Kisses.wav

Peak level 96.4 %
Extraction speed 1.6 X
Track quality 100.0 %
Test CRC BC989C95
Copy CRC BC989C95
Track not present in AccurateRip database
Copy OK

Track 9

Filename C:\Users\olivi\Desktop\Rips\09 - Dudu Tassa & The Kuwaitis - Ahibbek.wav

Peak level 96.5 %
Extraction speed 1.7 X
Track quality 100.0 %
Test CRC F893EFAC
Copy CRC F893EFAC
Track not present in AccurateRip database
Copy OK

Track 10

Filename C:\Users\olivi\Desktop\Rips\10 - King Gizzard & The Lizard Wizard - Sense.wav

Peak level 98.8 %
Extraction speed 1.7 X
Track quality 100.0 %
Test CRC 07D3576A
Copy CRC 07D3576A
Track not present in AccurateRip database
Copy OK

Track 11

Filename C:\Users\olivi\Desktop\Rips\11 - Fwends - No Pressure.wav

Peak level 99.9 %
Extraction speed 1.8 X
Track quality 100.0 %
Test CRC 923F7EF9
Copy CRC 923F7EF9
Track not present in AccurateRip database
Copy OK

Track 12

Filename C:\Users\olivi\Desktop\Rips\12 - Peggy GOU - Hungboo.wav

Peak level 90.9 %
Extraction speed 1.7 X
Track quality 99.9 %
Test CRC 4B8627A1
Copy CRC 4B8627A1
Track not present in AccurateRip database
Copy OK

Track 13

Filename C:\Users\olivi\Desktop\Rips\13 - Antoha МС - Babki.wav

Peak level 99.9 %
Extraction speed 2.0 X
Track quality 100.0 %
Test CRC BBDF7971
Copy CRC BBDF7971
Track not present in AccurateRip database
Copy OK

Track 14

Filename C:\Users\olivi\Desktop\Rips\14 - Zalfa - Ma Sar.wav

Peak level 98.8 %
Extraction speed 2.0 X
Track quality 100.0 %
Test CRC 1B51E996
Copy CRC 1B51E996
Track not present in AccurateRip database
Copy OK

Track 15

Filename C:\Users\olivi\Desktop\Rips\15 - Blood Wine Or Honey - Brilliant Pebbles.wav

Peak level 99.9 %
Extraction speed 2.1 X
Track quality 100.0 %
Test CRC 5EA886D9
Copy CRC 5EA886D9
Track not present in AccurateRip database
Copy OK

Track 16

Filename C:\Users\olivi\Desktop\Rips\16 - Sampa The Great - Healer (feat. Zaachariaha).wav

Peak level 98.8 %
Extraction speed 2.0 X
Track quality 100.0 %
Test CRC E7836A5B
Copy CRC E7836A5B
Track not present in AccurateRip database
Copy OK


None of the tracks are present in the AccurateRip database

No errors occurred

End of status report

–– CUETools DB Plugin V2.1.6

[CTDB TOCID: GmWKhPb71OAEams8Fx73fIeN0j0-] found
Submit result: GmWKhPb71OAEams8Fx73fIeN0j0- has been confirmed
Track | CTDB Status
1 | (5/5) Accurately ripped
2 | (5/5) Accurately ripped
3 | (5/5) Accurately ripped
4 | (5/5) Accurately ripped
5 | (5/5) Accurately ripped
6 | (5/5) Accurately ripped
7 | (5/5) Accurately ripped
8 | (5/5) Accurately ripped
9 | (5/5) Accurately ripped
10 | (5/5) Accurately ripped
11 | (5/5) Accurately ripped
12 | (5/5) Accurately ripped
13 | (5/5) Accurately ripped
14 | (5/5) Accurately ripped
15 | (5/5) Accurately ripped
16 | (5/5) Accurately ripped


==== Log checksum 7430E88DF98D40BAEFE4E4CE861D11B54E338DF24CB91DC89DA64F676E0E7287 ====