Tags
Language
Tags

Various Artists - Nova Tunes 3.9 (2019)

Posted By: aasana
Various Artists - Nova Tunes 3.9 (2019)

Various Artists - Nova Tunes 3.9 (2019)
EAC Rip | FLAC (tracks+.cue) | 01:17:58 | 495,57 MB
Electronic, Hip Hop, Funk / Soul, Pop | Label: Nova Records

Du haut de ses 38 années de défrichage tout azimut, le numéro 3.9 des Nova Tunes ne déroge pas à la vocation de cette collection: offrir à des oreilles toujours plus exigeantes le meilleur de la playlist de Radio Nova de ces six derniers mois.Chaleur, éclectisme, surprises, détours et obsessions musicales des programmateurs de Radio Nova, toujours tournés vers les sons nouveaux, les mélodies imparables, les arrangements spectroscopiques qui font l’unicité du Grand Mix de Radio Nova.

01. B77 - Child (3:22)
02. Wolphonics; Asha Griffith - What's Up (2:45)
03. Cola Boyy - Penny Girl (3:52)
04. Bella Boo - Boyboy (3:42)
05. The Scorpios - Mashena (3:07)
06. Voyou - Les trois loubards (3:26)
07. Blundetto; Cornell Campbell; Little Harry - Good Ol' Days (3:10)
08. Me and My Friends - High as the Sun (4:13)
09. Pongo - Kuzola (3:52)
10. Nu Guinea - Ddoje Facce (4:17)
11. Maribou State - Turnmill (Edit) (3:20)
12. El Michels Affair - Unathi (3:32)
13. Che Lingo - Mad Angle (3:40)
14. LiRaz - Mahtab (2:57)
15. Pat Kalla & Le Super Mojo - Lady Angola (Edit) (4:27)
16. Domenique Dumont - Sans cesse, mon chéri (3:57)
17. The Sha La Das - Just for a Minute (3:46)
18. Louis Cole; Genevieve Artadi - When You're Ugly (3:06)
19. Laure Briard - Cravado (3:30)
20. Johan Papaconstantino - J'aimerai (3:42)
21. Jungle By Night - Hangmat (6:13)


Exact Audio Copy V1.3 from 2. September 2016

EAC extraction logfile from 30. June 2019, 20:44

Various Artists / Nova Tunes 3.9

Used drive : ASUS SDRW-08U7M-U Adapter: 1 ID: 1

Read mode : Secure
Utilize accurate stream : Yes
Defeat audio cache : Yes
Make use of C2 pointers : No

Read offset correction : 6
Overread into Lead-In and Lead-Out : No
Fill up missing offset samples with silence : Yes
Delete leading and trailing silent blocks : No
Null samples used in CRC calculations : Yes
Used interface : Native Win32 interface for Win NT & 2000
Gap handling : Appended to previous track

Used output format : User Defined Encoder
Selected bitrate : 1024 kBit/s
Quality : High
Add ID3 tag : No
Command line compressor : C:\Program Files (x86)\Exact Audio Copy\Flac\flac.exe
Additional command line options : -8 -V -T "ARTIST=%artist%" -T "TITLE=%title%" -T "ALBUM=%albumtitle%" -T "DATE=%year%" -T "TRACKNUMBER=%tracknr%" -T "GENRE=%genre%" -T "PERFORMER=%albuminterpret%" -T "COMPOSER=%composer%" %haslyrics%–tag-from-file=LYRICS="%lyricsfile%"%haslyrics% -T "ALBUMARTIST=%albumartist%" -T "DISCNUMBER=%cdnumber%" -T "TOTALDISCS=%totalcds%" -T "TOTALTRACKS=%numtracks%" -T "COMMENT=%comment%" %source% -o %dest%


TOC of the extracted CD

Track | Start | Length | Start sector | End sector
––––––––––––––––––––––––––––-
1 | 0:00.00 | 3:22.15 | 0 | 15164
2 | 3:22.15 | 2:45.28 | 15165 | 27567
3 | 6:07.43 | 3:52.17 | 27568 | 44984
4 | 9:59.60 | 3:41.45 | 44985 | 61604
5 | 13:41.30 | 3:06.67 | 61605 | 75621
6 | 16:48.22 | 3:26.05 | 75622 | 91076
7 | 20:14.27 | 3:10.24 | 91077 | 105350
8 | 23:24.51 | 4:13.36 | 105351 | 124361
9 | 27:38.12 | 3:51.71 | 124362 | 141757
10 | 31:30.08 | 4:17.30 | 141758 | 161062
11 | 35:47.38 | 3:20.27 | 161063 | 176089
12 | 39:07.65 | 3:32.00 | 176090 | 191989
13 | 42:39.65 | 3:40.15 | 191990 | 208504
14 | 46:20.05 | 2:56.60 | 208505 | 221764
15 | 49:16.65 | 4:26.56 | 221765 | 241770
16 | 53:43.46 | 3:57.33 | 241771 | 259578
17 | 57:41.04 | 3:45.40 | 259579 | 276493
18 | 61:26.44 | 3:06.00 | 276494 | 290443
19 | 64:32.44 | 3:30.31 | 290444 | 306224
20 | 68:03.00 | 3:41.60 | 306225 | 322859
21 | 71:44.60 | 6:13.34 | 322860 | 350868


Track 1

Filename C:\EAC\VA - Nova Tunes 3.9 - 2019 - FLAC - CD\01 - B77 - Child.wav

Pre-gap length 0:00:02.00

Peak level 98.8 %
Extraction speed 1.0 X
Track quality 99.9 %
Test CRC E215F132
Copy CRC E215F132
Accurately ripped (confidence 1) [E2DC3BF1] (AR v2)
Copy OK

Track 2

Filename C:\EAC\VA - Nova Tunes 3.9 - 2019 - FLAC - CD\02 - Wolphonics - What's Up (feat. Asha Griffith).wav

Peak level 99.9 %
Extraction speed 1.3 X
Track quality 100.0 %
Test CRC 8789F108
Copy CRC 8789F108
Accurately ripped (confidence 1) [8CABED07] (AR v2)
Copy OK

Track 3

Filename C:\EAC\VA - Nova Tunes 3.9 - 2019 - FLAC - CD\03 - Cola Boyy - Penny Girl.wav

Peak level 99.6 %
Extraction speed 1.4 X
Track quality 100.0 %
Test CRC 2F6532DB
Copy CRC 2F6532DB
Accurately ripped (confidence 1) [B06812FC] (AR v2)
Copy OK

Track 4

Filename C:\EAC\VA - Nova Tunes 3.9 - 2019 - FLAC - CD\04 - Bella Boo - Boyboy.wav

Peak level 98.8 %
Extraction speed 1.5 X
Track quality 100.0 %
Test CRC 5D7C51A8
Copy CRC 5D7C51A8
Accurately ripped (confidence 1) [6B46DC3B] (AR v2)
Copy OK

Track 5

Filename C:\EAC\VA - Nova Tunes 3.9 - 2019 - FLAC - CD\05 - The Scorpios - Mashena.wav

Peak level 97.1 %
Extraction speed 1.3 X
Track quality 99.9 %
Test CRC A615CA5B
Copy CRC A615CA5B
Accurately ripped (confidence 1) [A19450FC] (AR v2)
Copy OK

Track 6

Filename C:\EAC\VA - Nova Tunes 3.9 - 2019 - FLAC - CD\06 - Voyou - Les trois loubards.wav

Peak level 98.8 %
Extraction speed 1.7 X
Track quality 100.0 %
Test CRC 549F402C
Copy CRC 549F402C
Accurately ripped (confidence 1) [FFB24696] (AR v2)
Copy OK

Track 7

Filename C:\EAC\VA - Nova Tunes 3.9 - 2019 - FLAC - CD\07 - Cornell Campbell - Good Ol' Days (feat. Cornell Campbell & Little Harry).wav

Peak level 98.8 %
Extraction speed 1.7 X
Track quality 100.0 %
Test CRC 14DAE045
Copy CRC 14DAE045
Accurately ripped (confidence 1) [7188B528] (AR v2)
Copy OK

Track 8

Filename C:\EAC\VA - Nova Tunes 3.9 - 2019 - FLAC - CD\08 - Me and My Friends - High as the Sun.wav

Peak level 98.8 %
Extraction speed 1.9 X
Track quality 100.0 %
Test CRC 6AC6F629
Copy CRC 6AC6F629
Accurately ripped (confidence 1) [19000963] (AR v2)
Copy OK

Track 9

Filename C:\EAC\VA - Nova Tunes 3.9 - 2019 - FLAC - CD\09 - Pongo - Kuzola.wav

Peak level 99.9 %
Extraction speed 1.9 X
Track quality 100.0 %
Test CRC FF206318
Copy CRC FF206318
Accurately ripped (confidence 1) [791818A0] (AR v2)
Copy OK

Track 10

Filename C:\EAC\VA - Nova Tunes 3.9 - 2019 - FLAC - CD\10 - Nu Guinea - Ddoje Facce.wav

Peak level 98.8 %
Extraction speed 2.0 X
Track quality 100.0 %
Test CRC D704481D
Copy CRC D704481D
Accurately ripped (confidence 1) [F36905D7] (AR v2)
Copy OK

Track 11

Filename C:\EAC\VA - Nova Tunes 3.9 - 2019 - FLAC - CD\11 - Maribou State - Turnmill [Edit].wav

Peak level 98.8 %
Extraction speed 2.0 X
Track quality 100.0 %
Test CRC 8CE90C04
Copy CRC 8CE90C04
Accurately ripped (confidence 1) [0632D601] (AR v2)
Copy OK

Track 12

Filename C:\EAC\VA - Nova Tunes 3.9 - 2019 - FLAC - CD\12 - El Michels Affair - Unathi.wav

Peak level 98.8 %
Extraction speed 2.1 X
Track quality 100.0 %
Test CRC 0149E860
Copy CRC 0149E860
Accurately ripped (confidence 1) [236CD812] (AR v2)
Copy OK

Track 13

Filename C:\EAC\VA - Nova Tunes 3.9 - 2019 - FLAC - CD\13 - Che Lingo - Mad Angle.wav

Peak level 98.8 %
Extraction speed 2.2 X
Track quality 100.0 %
Test CRC 45E526CB
Copy CRC 45E526CB
Accurately ripped (confidence 1) [2D375C8F] (AR v2)
Copy OK

Track 14

Filename C:\EAC\VA - Nova Tunes 3.9 - 2019 - FLAC - CD\14 - Liraz - Mahtab.wav

Peak level 98.8 %
Extraction speed 2.2 X
Track quality 100.0 %
Test CRC 954C3626
Copy CRC 954C3626
Accurately ripped (confidence 1) [B1C686F3] (AR v2)
Copy OK

Track 15

Filename C:\EAC\VA - Nova Tunes 3.9 - 2019 - FLAC - CD\15 - Pat Kalla & Le Super Mojo - Lady Angola [Edit].wav

Peak level 98.8 %
Extraction speed 2.4 X
Track quality 100.0 %
Test CRC 9322FEA8
Copy CRC 9322FEA8
Accurately ripped (confidence 1) [35E8AB56] (AR v2)
Copy OK

Track 16

Filename C:\EAC\VA - Nova Tunes 3.9 - 2019 - FLAC - CD\16 - Domenique Dumont - Sans cesse, mon cheri.wav

Peak level 98.8 %
Extraction speed 2.4 X
Track quality 100.0 %
Test CRC 9F2CFB46
Copy CRC 9F2CFB46
Accurately ripped (confidence 1) [0B31CDC0] (AR v2)
Copy OK

Track 17

Filename C:\EAC\VA - Nova Tunes 3.9 - 2019 - FLAC - CD\17 - The Sha La Das - Just for a Minute.wav

Peak level 98.8 %
Extraction speed 2.5 X
Track quality 100.0 %
Test CRC A5E0F246
Copy CRC A5E0F246
Accurately ripped (confidence 1) [D8B8207C] (AR v2)
Copy OK

Track 18

Filename C:\EAC\VA - Nova Tunes 3.9 - 2019 - FLAC - CD\18 - Louis Cole - When You're Ugly (feat. Genevieve Artadi).wav

Peak level 98.8 %
Extraction speed 2.4 X
Track quality 100.0 %
Test CRC FAEF84E9
Copy CRC FAEF84E9
Accurately ripped (confidence 1) [CBF048EE] (AR v2)
Copy OK

Track 19

Filename C:\EAC\VA - Nova Tunes 3.9 - 2019 - FLAC - CD\19 - Laure Briard - Cravado.wav

Peak level 98.7 %
Extraction speed 2.5 X
Track quality 100.0 %
Test CRC 0E272A2D
Copy CRC 0E272A2D
Accurately ripped (confidence 1) [79380D9C] (AR v2)
Copy OK

Track 20

Filename C:\EAC\VA - Nova Tunes 3.9 - 2019 - FLAC - CD\20 - Johan Papaconstantino - J'aimerai.wav

Peak level 98.4 %
Extraction speed 2.6 X
Track quality 100.0 %
Test CRC 4473B248
Copy CRC 4473B248
Accurately ripped (confidence 1) [B98B05D8] (AR v2)
Copy OK

Track 21

Filename C:\EAC\VA - Nova Tunes 3.9 - 2019 - FLAC - CD\21 - Jungle By Night - Hangmat.wav

Peak level 98.8 %
Extraction speed 2.8 X
Track quality 100.0 %
Test CRC EC2CA3D9
Copy CRC EC2CA3D9
Accurately ripped (confidence 1) [74992162] (AR v2)
Copy OK


All tracks accurately ripped

No errors occurred

End of status report

–– CUETools DB Plugin V2.1.6

[CTDB TOCID: KzEx_YCeKs2PlhiHNhzJpnlIRus-] found
Submit result: KzEx_YCeKs2PlhiHNhzJpnlIRus- has been confirmed
Track | CTDB Status
1 | (4/4) Accurately ripped
2 | (4/4) Accurately ripped
3 | (4/4) Accurately ripped
4 | (4/4) Accurately ripped
5 | (4/4) Accurately ripped
6 | (4/4) Accurately ripped
7 | (4/4) Accurately ripped
8 | (4/4) Accurately ripped
9 | (4/4) Accurately ripped
10 | (4/4) Accurately ripped
11 | (4/4) Accurately ripped
12 | (4/4) Accurately ripped
13 | (4/4) Accurately ripped
14 | (4/4) Accurately ripped
15 | (4/4) Accurately ripped
16 | (4/4) Accurately ripped
17 | (4/4) Accurately ripped
18 | (4/4) Accurately ripped
19 | (4/4) Accurately ripped
20 | (4/4) Accurately ripped
21 | (4/4) Accurately ripped


==== Log checksum 98C642B525DBEFD5E23E0E45A29A01743A8A60122111D01ADFFD439BEE2A903A ====