Tags
Language
Tags

Various Artists - Rudeboy: The Story of Trojan Records (Original Motion Picture Soundtrack) (2018)

Posted By: Domestos
Various Artists - Rudeboy: The Story of Trojan Records (Original Motion Picture Soundtrack) (2018)

Various Artists - Rudeboy: The Story of Trojan Records (Original Motion Picture Soundtrack) (2018)
EAC Rip | FLAC (tracks+.cue, log) ~ 275.26 Mb + 19.64 Mb (Scans) | 01:10:06
Soundtrack | Label: Trojan Records - TJCD573

RUDEBOY is a film about the origins and ongoing love affair between Jamaican and British Youth culture. A film that explores the power of music to break down cultural barriers and change lives and the eventual birth of a modern multicultural society – all told through the prism of one the most iconic record labels in history, TROJAN RECORDS. Combining archive footage, freshly shot interviews and drama – RUDEBOY tells the story of Trojan Records by placing it at the heart of a cultural revolution that unfolded in the council estates and shanty towns of the late 60’s and 70’s.

The film begins in the 1950’s, as Jamaica is slowly transitioning to its eventual independence in 1962. We meet Duke Reid and his legendary Trojan sound system and explore the social and cultural conditions that give rise to the birth of the rude boy, the emergence of sound-system culture and the rise of the distinctive Jamaican sound ska. In Act 2 we land in Britain in the 60’s and look at the Jamaican immigrants’ experience through the eyes of a young Dandy Livingstone. We meet first generation Windrush immigrant Lee Gopthal and witness the birth of Trojan Records while Enoch Powell is giving his Rivers Of Blood speech. There is a growing market for imported ska and new rock steady sounds that Trojan records tap into. Act 3 tells a story of how working-class youth discover the sounds of ska and rock steady and the most the important subculture in modern British history is born, the Trojan Skinhead. A new sound Reggae emerges. Black and white unite on dancefloors as we build up to the landmark for underground skinhead culture and the ‘Spirit of 69’. From 1969 – 1973 Trojan becomes the most important Jamaican label in the world and is at the peak of its powers. The Tighten Up compilation series, spreads the Trojan word to the masses. The label begins releasing almost everything that is sent in as the volume of output becomes incredible. A new gold rush ensues with producers rushing over from Jamaica selling records to Trojan Desmond Dekker emerges as the first star of the underground scene. ‘Double Barrel’ by Dave and Ansel Collins give Trojan their first number 1 hit single. Ken Boothe inspires the lovers rock sound with Trojans second number 1 ‘Everything I Own’. Pop Reggae is born and Black identity and pride builds around these records as a new confident identity is cemented. But the good times can’t last forever as in 1975 the label over extends itself and folds. But the impact of Trojan records lives on, through the 70’s right up to the present day. Jamaican youth culture has flourished and is everywhere you look – it spawned 2Tone, the Notting Hill Carnival, Sound systems, the seeds of the Hip Hop revolution, club culture. The cultural impact of Trojan records has shaped the world we live in.



Track List:
1 Derrick Morgan - Lover Boy
2 Justin Hinds & The Dominoes - Carry Go Bring Come
3 Derrick Morgan - Blazing Fire
4 Justin Hinds & The Dominoes - No Good Rudie
5 Derrick Morgan - Tougher Than Though (Rudie In Court)
6 Dandy Livingstone - Rudy, A Message To You
7 The Maytals - 54-46 Was My Number
8 Derrick Morgan - Seven Letters
9 Dandy Livingstone - Reggae In Your Jeggae
10 John Holt - Ali Baba
11 Desmond Dekker & The Aces - 007 (Shanty Town)
12 Harry J. All Stars - Liquidator
13 Derrick Morgan - Moon Hop
14 The Untouchables - Tighten Up
15 The Upsetters - Return Of Django
16 The Pioneers - Long Shot Kick De Bucket
17 Desmond Dekker & The Aces - Israelites
18 The Maytals - Monkey Man
19 Bob & Marcia - To Be Young Gifted And Black
20 Dave & Ansel Collins - Double Barrel
21 Desmond Dekker - You Can Get It If You Really Want
22 The Pioneers - Let Your Yeah Be Yeah
23 Ken Boothe - Everything I Own
24 The Maytals - Pressure Drop

Various Artists - Rudeboy: The Story of Trojan Records (Original Motion Picture Soundtrack) (2018)

Exact Audio Copy V1.3 from 2. September 2016

EAC extraction logfile from 14. January 2019, 11:10

Various Artists / Rudeboy: The Story Of Trojan Records

Used drive : PLEXTOR PX-891SAF Adapter: 1 ID: 0

Read mode : Secure
Utilize accurate stream : Yes
Defeat audio cache : Yes
Make use of C2 pointers : No

Read offset correction : 6
Overread into Lead-In and Lead-Out : No
Fill up missing offset samples with silence : Yes
Delete leading and trailing silent blocks : No
Null samples used in CRC calculations : Yes
Used interface : Native Win32 interface for Win NT & 2000
Gap handling : Appended to previous track

Used output format : User Defined Encoder
Selected bitrate : 1024 kBit/s
Quality : High
Add ID3 tag : No
Command line compressor : C:\Program Files (x86)\Exact Audio Copy\Flac\flac.exe
Additional command line options : -8 -V -T "ARTIST=%artist%" -T "TITLE=%title%" -T "ALBUM=%albumtitle%" -T "DATE=%year%" -T "TRACKNUMBER=%tracknr%" -T "GENRE=%genre%" -T "PERFORMER=%albuminterpret%" -T "COMPOSER=%composer%" %haslyrics%–tag-from-file=LYRICS="%lyricsfile%"%haslyrics% -T "ALBUMARTIST=%albumartist%" -T "DISCNUMBER=%cdnumber%" -T "TOTALDISCS=%totalcds%" -T "TOTALTRACKS=%numtracks%" -T "COMMENT=%comment%" %source% -o %dest%


TOC of the extracted CD

Track | Start | Length | Start sector | End sector
––––––––––––––––––––––––––––-
1 | 0:00.00 | 2:44.10 | 0 | 12309
2 | 2:44.10 | 2:51.47 | 12310 | 25181
3 | 5:35.57 | 2:57.09 | 25182 | 38465
4 | 8:32.66 | 3:09.56 | 38466 | 52696
5 | 11:42.47 | 2:23.52 | 52697 | 63473
6 | 14:06.24 | 2:34.33 | 63474 | 75056
7 | 16:40.57 | 3:11.53 | 75057 | 89434
8 | 19:52.35 | 3:15.32 | 89435 | 104091
9 | 23:07.67 | 2:57.60 | 104092 | 117426
10 | 26:05.52 | 2:39.53 | 117427 | 129404
11 | 28:45.30 | 2:31.03 | 129405 | 140732
12 | 31:16.33 | 3:06.45 | 140733 | 154727
13 | 34:23.03 | 3:10.14 | 154728 | 168991
14 | 37:33.17 | 2:39.30 | 168992 | 180946
15 | 40:12.47 | 2:31.53 | 180947 | 192324
16 | 42:44.25 | 2:48.53 | 192325 | 204977
17 | 45:33.03 | 2:35.10 | 204978 | 216612
18 | 48:08.13 | 3:45.23 | 216613 | 233510
19 | 51:53.36 | 3:08.21 | 233511 | 247631
20 | 55:01.57 | 2:46.48 | 247632 | 260129
21 | 57:48.30 | 2:38.47 | 260130 | 272026
22 | 60:27.02 | 3:07.68 | 272027 | 286119
23 | 63:34.70 | 3:45.33 | 286120 | 303027
24 | 67:20.28 | 2:57.20 | 303028 | 316322


Track 1

Filename D:\#New Wav + flac\OST - Rudeboy The Story Of Trojan Records\01. Derrick Morgan - Lover Boy.wav

Pre-gap length 0:00:02.00

Peak level 91.0 %
Extraction speed 5.4 X
Track quality 100.0 %
Test CRC 2CEAE147
Copy CRC 2CEAE147
Track not present in AccurateRip database
Copy OK

Track 2

Filename D:\#New Wav + flac\OST - Rudeboy The Story Of Trojan Records\02. Justin Hinds & The Dominoes - Carry Go Bring Come.wav

Pre-gap length 0:00:02.10

Peak level 84.8 %
Extraction speed 4.6 X
Track quality 99.9 %
Test CRC AE4BC38D
Copy CRC AE4BC38D
Track not present in AccurateRip database
Copy OK

Track 3

Filename D:\#New Wav + flac\OST - Rudeboy The Story Of Trojan Records\03. Derrick Morgan - Blazing Fire.wav

Pre-gap length 0:00:01.98

Peak level 91.6 %
Extraction speed 6.2 X
Track quality 100.0 %
Test CRC D52AE901
Copy CRC D52AE901
Track not present in AccurateRip database
Copy OK

Track 4

Filename D:\#New Wav + flac\OST - Rudeboy The Story Of Trojan Records\04. Justin Hinds & The Dominoes - No Good Rudie.wav

Pre-gap length 0:00:01.81

Peak level 82.4 %
Extraction speed 6.5 X
Track quality 100.0 %
Test CRC 17CDA19B
Copy CRC 17CDA19B
Track not present in AccurateRip database
Copy OK

Track 5

Filename D:\#New Wav + flac\OST - Rudeboy The Story Of Trojan Records\05. Derrick Morgan - Tougher Than Tough (Rudie In Court).wav

Pre-gap length 0:00:01.94

Peak level 89.5 %
Extraction speed 6.5 X
Track quality 100.0 %
Test CRC 7C20D096
Copy CRC 7C20D096
Track not present in AccurateRip database
Copy OK

Track 6

Filename D:\#New Wav + flac\OST - Rudeboy The Story Of Trojan Records\06. Dandy Livingstone - Rudy, A Message To You.wav

Pre-gap length 0:00:01.96

Peak level 78.0 %
Extraction speed 6.8 X
Track quality 100.0 %
Test CRC F6DE340F
Copy CRC F6DE340F
Track not present in AccurateRip database
Copy OK

Track 7

Filename D:\#New Wav + flac\OST - Rudeboy The Story Of Trojan Records\07. The Maytals - 54-46 Was My Number.wav

Pre-gap length 0:00:01.90

Peak level 86.7 %
Extraction speed 7.6 X
Track quality 100.0 %
Test CRC 4CF2197F
Copy CRC 4CF2197F
Track not present in AccurateRip database
Copy OK

Track 8

Filename D:\#New Wav + flac\OST - Rudeboy The Story Of Trojan Records\08. Derrick Morgan - Seven Letters.wav

Pre-gap length 0:00:01.94

Peak level 75.7 %
Extraction speed 7.9 X
Track quality 100.0 %
Test CRC C257C478
Copy CRC C257C478
Track not present in AccurateRip database
Copy OK

Track 9

Filename D:\#New Wav + flac\OST - Rudeboy The Story Of Trojan Records\09. Dandy Livingstone - Reggae In Your Jeggae.wav

Pre-gap length 0:00:01.96

Peak level 78.2 %
Extraction speed 8.1 X
Track quality 100.0 %
Test CRC 34DA5F96
Copy CRC 34DA5F96
Track not present in AccurateRip database
Copy OK

Track 10

Filename D:\#New Wav + flac\OST - Rudeboy The Story Of Trojan Records\10. John Holt - Ali Baba.wav

Pre-gap length 0:00:01.90

Peak level 64.0 %
Extraction speed 6.2 X
Track quality 99.9 %
Test CRC 9FAF89B1
Copy CRC 9FAF89B1
Track not present in AccurateRip database
Copy OK

Track 11

Filename D:\#New Wav + flac\OST - Rudeboy The Story Of Trojan Records\11. Desmond Dekker - 007 (Shanty Town).wav

Pre-gap length 0:00:01.82

Peak level 77.4 %
Extraction speed 6.2 X
Track quality 99.9 %
Test CRC 7FD5400C
Copy CRC 7FD5400C
Track not present in AccurateRip database
Copy OK

Track 12

Filename D:\#New Wav + flac\OST - Rudeboy The Story Of Trojan Records\12. Harry J Allstars - Liquidator.wav

Pre-gap length 0:00:01.88

Peak level 67.1 %
Extraction speed 8.8 X
Track quality 100.0 %
Test CRC 8AB9428A
Copy CRC 8AB9428A
Track not present in AccurateRip database
Copy OK

Track 13

Filename D:\#New Wav + flac\OST - Rudeboy The Story Of Trojan Records\13. Derrick Morgan - Moon Hop.wav

Pre-gap length 0:00:01.97

Peak level 66.8 %
Extraction speed 9.2 X
Track quality 100.0 %
Test CRC D7A4B160
Copy CRC D7A4B160
Track not present in AccurateRip database
Copy OK

Track 14

Filename D:\#New Wav + flac\OST - Rudeboy The Story Of Trojan Records\14. The Untouchables - Tighten Up.wav

Pre-gap length 0:00:01.92

Peak level 75.8 %
Extraction speed 9.1 X
Track quality 100.0 %
Test CRC 9B5B6CE8
Copy CRC 9B5B6CE8
Track not present in AccurateRip database
Copy OK

Track 15

Filename D:\#New Wav + flac\OST - Rudeboy The Story Of Trojan Records\15. The Upsetters - Return Of Django.wav

Pre-gap length 0:00:01.93

Peak level 72.1 %
Extraction speed 6.9 X
Track quality 99.9 %
Test CRC AFB686E5
Copy CRC AFB686E5
Track not present in AccurateRip database
Copy OK

Track 16

Filename D:\#New Wav + flac\OST - Rudeboy The Story Of Trojan Records\16. The Pioneers - Long Shot Kick De Bucket.wav

Pre-gap length 0:00:01.86

Peak level 83.5 %
Extraction speed 9.2 X
Track quality 100.0 %
Test CRC C865B0F6
Copy CRC C865B0F6
Track not present in AccurateRip database
Copy OK

Track 17

Filename D:\#New Wav + flac\OST - Rudeboy The Story Of Trojan Records\17. Desmond Dekker - Israelites.wav

Pre-gap length 0:00:01.94

Peak level 79.2 %
Extraction speed 9.6 X
Track quality 100.0 %
Test CRC BECEB519
Copy CRC BECEB519
Track not present in AccurateRip database
Copy OK

Track 18

Filename D:\#New Wav + flac\OST - Rudeboy The Story Of Trojan Records\18. The Maytals - Monkey Man.wav

Pre-gap length 0:00:01.89

Peak level 75.4 %
Extraction speed 10.5 X
Track quality 100.0 %
Test CRC 7EE775EC
Copy CRC 7EE775EC
Track not present in AccurateRip database
Copy OK

Track 19

Filename D:\#New Wav + flac\OST - Rudeboy The Story Of Trojan Records\19. Bob & Marcia - To Be Young Gifted And Black.wav

Pre-gap length 0:00:01.84

Peak level 71.6 %
Extraction speed 10.4 X
Track quality 100.0 %
Test CRC 86D96613
Copy CRC 86D96613
Track not present in AccurateRip database
Copy OK

Track 20

Filename D:\#New Wav + flac\OST - Rudeboy The Story Of Trojan Records\20. Dave & Ansel Collins - Double Barrel.wav

Pre-gap length 0:00:02.02

Peak level 81.8 %
Extraction speed 7.9 X
Track quality 99.9 %
Test CRC FE329751
Copy CRC FE329751
Track not present in AccurateRip database
Copy OK

Track 21

Filename D:\#New Wav + flac\OST - Rudeboy The Story Of Trojan Records\21. Desmond Dekker - You Can Get It If You Really Want.wav

Pre-gap length 0:00:03.00

Peak level 79.1 %
Extraction speed 10.2 X
Track quality 100.0 %
Test CRC 1198A5D0
Copy CRC 1198A5D0
Track not present in AccurateRip database
Copy OK

Track 22

Filename D:\#New Wav + flac\OST - Rudeboy The Story Of Trojan Records\22. The Pioneers - Let Your Yeah Be Yeah.wav

Pre-gap length 0:00:02.05

Peak level 77.1 %
Extraction speed 8.4 X
Track quality 99.9 %
Test CRC 6584B4F1
Copy CRC 6584B4F1
Track not present in AccurateRip database
Copy OK

Track 23

Filename D:\#New Wav + flac\OST - Rudeboy The Story Of Trojan Records\23. Ken Boothe - Everything I Own.wav

Pre-gap length 0:00:01.92

Peak level 82.8 %
Extraction speed 9.4 X
Track quality 99.9 %
Test CRC E3370240
Copy CRC E3370240
Track not present in AccurateRip database
Copy OK

Track 24

Filename D:\#New Wav + flac\OST - Rudeboy The Story Of Trojan Records\24. The Maytals - Pressure Drop.wav

Pre-gap length 0:00:01.96

Peak level 97.7 %
Extraction speed 8.5 X
Track quality 99.9 %
Test CRC 95C450A0
Copy CRC 95C450A0
Track not present in AccurateRip database
Copy OK


None of the tracks are present in the AccurateRip database

No errors occurred

End of status report

–– CUETools DB Plugin V2.1.6

[CTDB TOCID: tLInwf4XJV7tGqp3lPbbo.dKiiQ-] found
Submit result: tLInwf4XJV7tGqp3lPbbo.dKiiQ- has been confirmed
Track | CTDB Status
1 | (2/2) Accurately ripped
2 | (2/2) Accurately ripped
3 | (2/2) Accurately ripped
4 | (2/2) Accurately ripped
5 | (2/2) Accurately ripped
6 | (2/2) Accurately ripped
7 | (2/2) Accurately ripped
8 | (2/2) Accurately ripped
9 | (2/2) Accurately ripped
10 | (2/2) Accurately ripped
11 | (2/2) Accurately ripped
12 | (2/2) Accurately ripped
13 | (2/2) Accurately ripped
14 | (2/2) Accurately ripped
15 | (2/2) Accurately ripped
16 | (2/2) Accurately ripped
17 | (2/2) Accurately ripped
18 | (2/2) Accurately ripped
19 | (2/2) Accurately ripped
20 | (2/2) Accurately ripped
21 | (2/2) Accurately ripped
22 | (2/2) Accurately ripped
23 | (2/2) Accurately ripped
24 | (2/2) Accurately ripped


==== Log checksum A0A93CA9F404B1EA5ABA7E7E03C327D97F6996C56760A52462DBAA60C92191CB ====

––––––––––––––––––––––––––––––

Exact Audio Copy V1.3 from 2. September 2016

EAC extraction logfile from 14. January 2019, 11:10

Various Artists / Rudeboy: The Story Of Trojan Records

Used drive : PLEXTOR PX-891SAF Adapter: 1 ID: 0

Read mode : Secure
Utilize accurate stream : Yes
Defeat audio cache : Yes
Make use of C2 pointers : No

Read offset correction : 6
Overread into Lead-In and Lead-Out : No
Fill up missing offset samples with silence : Yes
Delete leading and trailing silent blocks : No
Null samples used in CRC calculations : Yes
Used interface : Native Win32 interface for Win NT & 2000
Gap handling : Appended to previous track

Used output format : User Defined Encoder
Selected bitrate : 1024 kBit/s
Quality : High
Add ID3 tag : No
Command line compressor : C:\Program Files (x86)\Exact Audio Copy\Flac\flac.exe
Additional command line options : -8 -V -T "ARTIST=%artist%" -T "TITLE=%title%" -T "ALBUM=%albumtitle%" -T "DATE=%year%" -T "TRACKNUMBER=%tracknr%" -T "GENRE=%genre%" -T "PERFORMER=%albuminterpret%" -T "COMPOSER=%composer%" %haslyrics%–tag-from-file=LYRICS="%lyricsfile%"%haslyrics% -T "ALBUMARTIST=%albumartist%" -T "DISCNUMBER=%cdnumber%" -T "TOTALDISCS=%totalcds%" -T "TOTALTRACKS=%numtracks%" -T "COMMENT=%comment%" %source% -o %dest%


TOC of the extracted CD

Track | Start | Length | Start sector | End sector
––––––––––––––––––––––––––––-
1 | 0:00.00 | 2:44.10 | 0 | 12309
2 | 2:44.10 | 2:51.47 | 12310 | 25181
3 | 5:35.57 | 2:57.09 | 25182 | 38465
4 | 8:32.66 | 3:09.56 | 38466 | 52696
5 | 11:42.47 | 2:23.52 | 52697 | 63473
6 | 14:06.24 | 2:34.33 | 63474 | 75056
7 | 16:40.57 | 3:11.53 | 75057 | 89434
8 | 19:52.35 | 3:15.32 | 89435 | 104091
9 | 23:07.67 | 2:57.60 | 104092 | 117426
10 | 26:05.52 | 2:39.53 | 117427 | 129404
11 | 28:45.30 | 2:31.03 | 129405 | 140732
12 | 31:16.33 | 3:06.45 | 140733 | 154727
13 | 34:23.03 | 3:10.14 | 154728 | 168991
14 | 37:33.17 | 2:39.30 | 168992 | 180946
15 | 40:12.47 | 2:31.53 | 180947 | 192324
16 | 42:44.25 | 2:48.53 | 192325 | 204977
17 | 45:33.03 | 2:35.10 | 204978 | 216612
18 | 48:08.13 | 3:45.23 | 216613 | 233510
19 | 51:53.36 | 3:08.21 | 233511 | 247631
20 | 55:01.57 | 2:46.48 | 247632 | 260129
21 | 57:48.30 | 2:38.47 | 260130 | 272026
22 | 60:27.02 | 3:07.68 | 272027 | 286119
23 | 63:34.70 | 3:45.33 | 286120 | 303027
24 | 67:20.28 | 2:57.20 | 303028 | 316322


Track 1

Filename D:\#New Wav + flac\OST - Rudeboy The Story Of Trojan Records\01. Derrick Morgan - Lover Boy.wav

Pre-gap length 0:00:02.00

Peak level 91.0 %
Extraction speed 5.4 X
Track quality 100.0 %
Test CRC 2CEAE147
Copy CRC 2CEAE147
Track not present in AccurateRip database
Copy OK

Track 2

Filename D:\#New Wav + flac\OST - Rudeboy The Story Of Trojan Records\02. Justin Hinds & The Dominoes - Carry Go Bring Come.wav

Pre-gap length 0:00:02.10

Peak level 84.8 %
Extraction speed 4.6 X
Track quality 99.9 %
Test CRC AE4BC38D
Copy CRC AE4BC38D
Track not present in AccurateRip database
Copy OK

Track 3

Filename D:\#New Wav + flac\OST - Rudeboy The Story Of Trojan Records\03. Derrick Morgan - Blazing Fire.wav

Pre-gap length 0:00:01.98

Peak level 91.6 %
Extraction speed 6.2 X
Track quality 100.0 %
Test CRC D52AE901
Copy CRC D52AE901
Track not present in AccurateRip database
Copy OK

Track 4

Filename D:\#New Wav + flac\OST - Rudeboy The Story Of Trojan Records\04. Justin Hinds & The Dominoes - No Good Rudie.wav

Pre-gap length 0:00:01.81

Peak level 82.4 %
Extraction speed 6.5 X
Track quality 100.0 %
Test CRC 17CDA19B
Copy CRC 17CDA19B
Track not present in AccurateRip database
Copy OK

Track 5

Filename D:\#New Wav + flac\OST - Rudeboy The Story Of Trojan Records\05. Derrick Morgan - Tougher Than Tough (Rudie In Court).wav

Pre-gap length 0:00:01.94

Peak level 89.5 %
Extraction speed 6.5 X
Track quality 100.0 %
Test CRC 7C20D096
Copy CRC 7C20D096
Track not present in AccurateRip database
Copy OK

Track 6

Filename D:\#New Wav + flac\OST - Rudeboy The Story Of Trojan Records\06. Dandy Livingstone - Rudy, A Message To You.wav

Pre-gap length 0:00:01.96

Peak level 78.0 %
Extraction speed 6.8 X
Track quality 100.0 %
Test CRC F6DE340F
Copy CRC F6DE340F
Track not present in AccurateRip database
Copy OK

Track 7

Filename D:\#New Wav + flac\OST - Rudeboy The Story Of Trojan Records\07. The Maytals - 54-46 Was My Number.wav

Pre-gap length 0:00:01.90

Peak level 86.7 %
Extraction speed 7.6 X
Track quality 100.0 %
Test CRC 4CF2197F
Copy CRC 4CF2197F
Track not present in AccurateRip database
Copy OK

Track 8

Filename D:\#New Wav + flac\OST - Rudeboy The Story Of Trojan Records\08. Derrick Morgan - Seven Letters.wav

Pre-gap length 0:00:01.94

Peak level 75.7 %
Extraction speed 7.9 X
Track quality 100.0 %
Test CRC C257C478
Copy CRC C257C478
Track not present in AccurateRip database
Copy OK

Track 9

Filename D:\#New Wav + flac\OST - Rudeboy The Story Of Trojan Records\09. Dandy Livingstone - Reggae In Your Jeggae.wav

Pre-gap length 0:00:01.96

Peak level 78.2 %
Extraction speed 8.1 X
Track quality 100.0 %
Test CRC 34DA5F96
Copy CRC 34DA5F96
Track not present in AccurateRip database
Copy OK

Track 10

Filename D:\#New Wav + flac\OST - Rudeboy The Story Of Trojan Records\10. John Holt - Ali Baba.wav

Pre-gap length 0:00:01.90

Peak level 64.0 %
Extraction speed 6.2 X
Track quality 99.9 %
Test CRC 9FAF89B1
Copy CRC 9FAF89B1
Track not present in AccurateRip database
Copy OK

Track 11

Filename D:\#New Wav + flac\OST - Rudeboy The Story Of Trojan Records\11. Desmond Dekker - 007 (Shanty Town).wav

Pre-gap length 0:00:01.82

Peak level 77.4 %
Extraction speed 6.2 X
Track quality 99.9 %
Test CRC 7FD5400C
Copy CRC 7FD5400C
Track not present in AccurateRip database
Copy OK

Track 12

Filename D:\#New Wav + flac\OST - Rudeboy The Story Of Trojan Records\12. Harry J Allstars - Liquidator.wav

Pre-gap length 0:00:01.88

Peak level 67.1 %
Extraction speed 8.8 X
Track quality 100.0 %
Test CRC 8AB9428A
Copy CRC 8AB9428A
Track not present in AccurateRip database
Copy OK

Track 13

Filename D:\#New Wav + flac\OST - Rudeboy The Story Of Trojan Records\13. Derrick Morgan - Moon Hop.wav

Pre-gap length 0:00:01.97

Peak level 66.8 %
Extraction speed 9.2 X
Track quality 100.0 %
Test CRC D7A4B160
Copy CRC D7A4B160
Track not present in AccurateRip database
Copy OK

Track 14

Filename D:\#New Wav + flac\OST - Rudeboy The Story Of Trojan Records\14. The Untouchables - Tighten Up.wav

Pre-gap length 0:00:01.92

Peak level 75.8 %
Extraction speed 9.1 X
Track quality 100.0 %
Test CRC 9B5B6CE8
Copy CRC 9B5B6CE8
Track not present in AccurateRip database
Copy OK

Track 15

Filename D:\#New Wav + flac\OST - Rudeboy The Story Of Trojan Records\15. The Upsetters - Return Of Django.wav

Pre-gap length 0:00:01.93

Peak level 72.1 %
Extraction speed 6.9 X
Track quality 99.9 %
Test CRC AFB686E5
Copy CRC AFB686E5
Track not present in AccurateRip database
Copy OK

Track 16

Filename D:\#New Wav + flac\OST - Rudeboy The Story Of Trojan Records\16. The Pioneers - Long Shot Kick De Bucket.wav

Pre-gap length 0:00:01.86

Peak level 83.5 %
Extraction speed 9.2 X
Track quality 100.0 %
Test CRC C865B0F6
Copy CRC C865B0F6
Track not present in AccurateRip database
Copy OK

Track 17

Filename D:\#New Wav + flac\OST - Rudeboy The Story Of Trojan Records\17. Desmond Dekker - Israelites.wav

Pre-gap length 0:00:01.94

Peak level 79.2 %
Extraction speed 9.6 X
Track quality 100.0 %
Test CRC BECEB519
Copy CRC BECEB519
Track not present in AccurateRip database
Copy OK

Track 18

Filename D:\#New Wav + flac\OST - Rudeboy The Story Of Trojan Records\18. The Maytals - Monkey Man.wav

Pre-gap length 0:00:01.89

Peak level 75.4 %
Extraction speed 10.5 X
Track quality 100.0 %
Test CRC 7EE775EC
Copy CRC 7EE775EC
Track not present in AccurateRip database
Copy OK

Track 19

Filename D:\#New Wav + flac\OST - Rudeboy The Story Of Trojan Records\19. Bob & Marcia - To Be Young Gifted And Black.wav

Pre-gap length 0:00:01.84

Peak level 71.6 %
Extraction speed 10.4 X
Track quality 100.0 %
Test CRC 86D96613
Copy CRC 86D96613
Track not present in AccurateRip database
Copy OK

Track 20

Filename D:\#New Wav + flac\OST - Rudeboy The Story Of Trojan Records\20. Dave & Ansel Collins - Double Barrel.wav

Pre-gap length 0:00:02.02

Peak level 81.8 %
Extraction speed 7.9 X
Track quality 99.9 %
Test CRC FE329751
Copy CRC FE329751
Track not present in AccurateRip database
Copy OK

Track 21

Filename D:\#New Wav + flac\OST - Rudeboy The Story Of Trojan Records\21. Desmond Dekker - You Can Get It If You Really Want.wav

Pre-gap length 0:00:03.00

Peak level 79.1 %
Extraction speed 10.2 X
Track quality 100.0 %
Test CRC 1198A5D0
Copy CRC 1198A5D0
Track not present in AccurateRip database
Copy OK

Track 22

Filename D:\#New Wav + flac\OST - Rudeboy The Story Of Trojan Records\22. The Pioneers - Let Your Yeah Be Yeah.wav

Pre-gap length 0:00:02.05

Peak level 77.1 %
Extraction speed 8.4 X
Track quality 99.9 %
Test CRC 6584B4F1
Copy CRC 6584B4F1
Track not present in AccurateRip database
Copy OK

Track 23

Filename D:\#New Wav + flac\OST - Rudeboy The Story Of Trojan Records\23. Ken Boothe - Everything I Own.wav

Pre-gap length 0:00:01.92

Peak level 82.8 %
Extraction speed 9.4 X
Track quality 99.9 %
Test CRC E3370240
Copy CRC E3370240
Track not present in AccurateRip database
Copy OK

Track 24

Filename D:\#New Wav + flac\OST - Rudeboy The Story Of Trojan Records\24. The Maytals - Pressure Drop.wav

Pre-gap length 0:00:01.96

Peak level 97.7 %
Extraction speed 8.5 X
Track quality 99.9 %
Test CRC 95C450A0
Copy CRC 95C450A0
Track not present in AccurateRip database
Copy OK


None of the tracks are present in the AccurateRip database

No errors occurred

End of status report

–– CUETools DB Plugin V2.1.6

[CTDB TOCID: tLInwf4XJV7tGqp3lPbbo.dKiiQ-] found
Submit result: tLInwf4XJV7tGqp3lPbbo.dKiiQ- has been confirmed
Track | CTDB Status
1 | (2/2) Accurately ripped
2 | (2/2) Accurately ripped
3 | (2/2) Accurately ripped
4 | (2/2) Accurately ripped
5 | (2/2) Accurately ripped
6 | (2/2) Accurately ripped
7 | (2/2) Accurately ripped
8 | (2/2) Accurately ripped
9 | (2/2) Accurately ripped
10 | (2/2) Accurately ripped
11 | (2/2) Accurately ripped
12 | (2/2) Accurately ripped
13 | (2/2) Accurately ripped
14 | (2/2) Accurately ripped
15 | (2/2) Accurately ripped
16 | (2/2) Accurately ripped
17 | (2/2) Accurately ripped
18 | (2/2) Accurately ripped
19 | (2/2) Accurately ripped
20 | (2/2) Accurately ripped
21 | (2/2) Accurately ripped
22 | (2/2) Accurately ripped
23 | (2/2) Accurately ripped
24 | (2/2) Accurately ripped


==== Log checksum A0A93CA9F404B1EA5ABA7E7E03C327D97F6996C56760A52462DBAA60C92191CB ====

All thanks go to the Original ripper (unknown)

More Music in My Blog
Follow My RSS Channel