Tags
Language
Tags
June 2024
Su Mo Tu We Th Fr Sa
26 27 28 29 30 31 1
2 3 4 5 6 7 8
9 10 11 12 13 14 15
16 17 18 19 20 21 22
23 24 25 26 27 28 29
30 1 2 3 4 5 6

Vicente Amigo - Vivencias: La obra completa de un genio (2010) {Sony Music Box Set 6 CD & 1 DVD PAL rec 1991-2009}

Posted By: ruskaval
Vicente Amigo - Vivencias: La obra completa de un genio (2010) {Sony Music Box Set 6 CD & 1 DVD PAL rec 1991-2009}

Vicente Amigo - Vivencias: La obra completa de un genio (2010) {Sony Music Box Set 6 CD & 1 DVD PAL rec 1991-2009}
EAC rip (secure mode) | FLAC (tracks)+CUE+LOG -> 1.62 Gb | MP3 @320 -> 707 Mb
DVD5 -> 2.68 Gb | All Regions | PAL 4:3 | Dolby AC3, 2 ch | ~ 56 min | ISO Image
Full Artwork @ 600 dpi (jpg) -> 75 Mb | 5% repair rar
© 1991-2009, 2010 Sony Music | 88697758662
Flamenco / World Music / Guitar / Western European Traditions

For the first time ever, the complete recordings of Vicente Amigo, together in a 6 CD + 1 DVD box set, available only as limited edition.

Limited special new pack with all the work of this brilliant guitarist. Since he came out his first album in 1991, VICENTE AMIGO is considered as one of the biggest artist of the flamenca guitar and his carreer is punctuated of gratitudes: Grammy Latino of the best flamenco disc in 2001; best flamenco guitarist for the magazine Guitar Player in 1993; two music awards in 1998 and 1999; a Ondas Prize in 2002… just to name some of them.
Special value pack with 6 CD and DVD of the great flamenco guitarist Vicente Amigo.

Vicente Amigo has earned a shelf full of awards, including in December 2015 the gold medal of merit in the fine arts, as well as a Latin Grammy for his album Ciudad de Las Ideas in 2001. He appeared in Sanlúcar’s masterpiece Tauromagia (1988), gained early recognition while accompanying singer El Pele (Manuel Moreno Maya), built an international reputation as he performed with Camarón de la Isla, appeared at Leyendas de la Guitarra (Legends of the Guitar), an international event celebrated in Spain as a preview of the Seville Expo in 1992, representing flamenco with Paco de Lucía and Vicente Amigo. Admired by his peers, Pat Metheny calls him 'The best guitarist in the world'.

tracklist:
CD1 - De mi corazón al aire (1991)

01. De mi corazón al aire
02. Reino de Silia
03. "Gitano" de Lucía
04. Morente, Maestro Sanlucar
05. Callejón de la Luna
06. Morao
07. Tío Arango

Vicente Amigo - Vivencias: La obra completa de un genio (2010) {Sony Music Box Set 6 CD & 1 DVD PAL rec 1991-2009}


CD2 - Vivencias imaginadas (1995)
01. Limon de nata (Rumba)
02. El mandaito (Bulerías)
03. Ventanas al alma (Minera)
04. Mensaje (Fandangos)
05. Querido Metheny
06. De blanco y oro (Tanguillo)
07. Vivencias imaginadas (Zapateado)
08. Sierra del agua (Rondeña)

Vicente Amigo - Vivencias: La obra completa de un genio (2010) {Sony Music Box Set 6 CD & 1 DVD PAL rec 1991-2009}


CD3- Poeta (1997)
01. Poeta en el puerto
02. Flor de la noche
03. Poeta en el mar
04. Amor, dulce muerte
05. Nada puede dormir
06. Marinera de Levante
07. El mar de tu sentir

Vicente Amigo - Vivencias: La obra completa de un genio (2010) {Sony Music Box Set 6 CD & 1 DVD PAL rec 1991-2009}


CD4 - Ciudad de las ideas (2000)
01. Tres notas para decir te quiero
02. La tarde es caramelo
03. Ojos de la Alhambra
04. Compare Manuel (Tangos)
05. Bolero de Vicente
06. Tatá
07. Córdoba (Soleá)
08. Ciudad de las ideas

Vicente Amigo - Vivencias: La obra completa de un genio (2010) {Sony Music Box Set 6 CD & 1 DVD PAL rec 1991-2009}


CD5 - Un momento en el sonido (2005)
01. Demípatí
02. Campo de la verdad (Bulería composición)
03. Mezquita (Soleá)
04. Tangos del arco bajo (Tangos)
05. Bolero a Marcos
06. Silia y el tiempo (Farruca)
07. Oriente Mediterráneo (Zapateado)
08. Rocamador (Bulería composición)
09. Un momento en el sonido (Taranta)
10. Bolero a Marcos (Versión arreglos de cuerda)

Vicente Amigo - Vivencias: La obra completa de un genio (2010) {Sony Music Box Set 6 CD & 1 DVD PAL rec 1991-2009}


CD6 - Paseo de Gracia (2009)
01. Amor de nadie
02. Autorretrato
03. Bolero del amigo
04. Azules y corinto
05. Y sera verdad…
06. Luz de la sombra
07. Paseo de Gracia
08. Pan caliente
09. La estrella

Vicente Amigo - Vivencias: La obra completa de un genio (2010) {Sony Music Box Set 6 CD & 1 DVD PAL rec 1991-2009}


DVD - Vicente Amigo en concierto desde Córdoba (2004)
01. Callejón de La luna
02. La tarde es caramelo
03. Compare Manuel
04. Ciudad de las ideas
05. Bolero de Vicente
06. Tatá
07. Córdoba
08. Ojos de la Alhambra
09. Tres notas para decir te quiero

Vicente Amigo - Vivencias: La obra completa de un genio (2010) {Sony Music Box Set 6 CD & 1 DVD PAL rec 1991-2009}


Exact Audio Copy V1.0 beta 3 from 29. August 2011

EAC extraction logfile from 7. March 2012, 21:47

Vicente Amigo / De mi Corazon al Aire

Used drive : HL-DT-STDVDRAM GH22NS50 Adapter: 0 ID: 0

Read mode : Secure
Utilize accurate stream : Yes
Defeat audio cache : Yes
Make use of C2 pointers : No

Read offset correction : 667
Overread into Lead-In and Lead-Out : No
Fill up missing offset samples with silence : Yes
Delete leading and trailing silent blocks : No
Null samples used in CRC calculations : Yes
Used interface : Installed external ASPI interface
Gap handling : Appended to previous track

Used output format : User Defined Encoder
Selected bitrate : 1024 kBit/s
Quality : High
Add ID3 tag : No
Command line compressor : C:\Program Files\Exact Audio Copy\Flac\flac.exe
Additional command line options : -8 -V -T "ARTIST=%artist%" -T "TITLE=%title%" -T "ALBUM=%albumtitle%" -T "DATE=%year%" -T "TRACKNUMBER=%tracknr%" -T "TOTALTRACKS=%numtracks%" -T "GENRE=%genre%" -T "ALBUMARTIST=%albumartist%" -T "ALBUM ARTIST=%albumartist%" -T "COMMENT=EAC Secure Mode, Test & Copy, AccurateRip, FLAC -8" %source%


TOC of the extracted CD

Track | Start | Length | Start sector | End sector
––––––––––––––––––––––––––––-
1 | 0:00.00 | 3:40.40 | 0 | 16539
2 | 3:40.40 | 4:19.00 | 16540 | 35964
3 | 7:59.40 | 3:49.42 | 35965 | 53181
4 | 11:49.07 | 4:06.35 | 53182 | 71666
5 | 15:55.42 | 3:51.70 | 71667 | 89061
6 | 19:47.37 | 5:57.08 | 89062 | 115844
7 | 25:44.45 | 4:56.67 | 115845 | 138111
8 | 30:41.37 | 4:46.38 | 138112 | 159599


Track 1

Filename C:\Users\user\Documents\Vicente Amigo - Vivencias (2010) [FLAC] {Box Set 6CD & 1DVD}\Cd1\01 - De Mi Corazon al Aire (rumba).wav

Pre-gap length 0:00:02.00

Peak level 91.1 %
Extraction speed 1.0 X
Track quality 100.0 %
Test CRC 5D39B811
Copy CRC 5D39B811
Track not present in AccurateRip database
Copy OK

Track 2

Filename C:\Users\user\Documents\Vicente Amigo - Vivencias (2010) [FLAC] {Box Set 6CD & 1DVD}\Cd1\02 - Reino de Silia (solea por buleria).wav

Pre-gap length 0:00:02.50

Peak level 83.1 %
Extraction speed 1.1 X
Track quality 100.0 %
Test CRC 1DF698DA
Copy CRC 1DF698DA
Track not present in AccurateRip database
Copy OK

Track 3

Filename C:\Users\user\Documents\Vicente Amigo - Vivencias (2010) [FLAC] {Box Set 6CD & 1DVD}\Cd1\03 - ''Gitano'' de Lucia (bulerias).wav

Pre-gap length 0:00:02.40

Peak level 81.2 %
Extraction speed 1.2 X
Track quality 100.0 %
Test CRC 49EA5D12
Copy CRC 49EA5D12
Track not present in AccurateRip database
Copy OK

Track 4

Filename C:\Users\user\Documents\Vicente Amigo - Vivencias (2010) [FLAC] {Box Set 6CD & 1DVD}\Cd1\04 - Morente (granainas).wav

Pre-gap length 0:00:02.50

Peak level 77.6 %
Extraction speed 1.3 X
Track quality 100.0 %
Test CRC E8A47138
Copy CRC E8A47138
Track not present in AccurateRip database
Copy OK

Track 5

Filename C:\Users\user\Documents\Vicente Amigo - Vivencias (2010) [FLAC] {Box Set 6CD & 1DVD}\Cd1\05 - Maestro Sanlucar (alegrias).wav

Pre-gap length 0:00:02.50

Peak level 81.2 %
Extraction speed 1.4 X
Track quality 100.0 %
Test CRC E633DB48
Copy CRC E633DB48
Track not present in AccurateRip database
Copy OK

Track 6

Filename C:\Users\user\Documents\Vicente Amigo - Vivencias (2010) [FLAC] {Box Set 6CD & 1DVD}\Cd1\06 - Callejon de la Luna (taranta).wav

Pre-gap length 0:00:02.50

Peak level 85.1 %
Extraction speed 1.6 X
Track quality 100.0 %
Test CRC 4AE95E4D
Copy CRC 4AE95E4D
Track not present in AccurateRip database
Copy OK

Track 7

Filename C:\Users\user\Documents\Vicente Amigo - Vivencias (2010) [FLAC] {Box Set 6CD & 1DVD}\Cd1\07 - Morao (bulerias).wav

Pre-gap length 0:00:02.50

Peak level 85.1 %
Extraction speed 1.7 X
Track quality 100.0 %
Test CRC 737A50FF
Copy CRC 737A50FF
Track not present in AccurateRip database
Copy OK

Track 8

Filename C:\Users\user\Documents\Vicente Amigo - Vivencias (2010) [FLAC] {Box Set 6CD & 1DVD}\Cd1\08 - Tio Arango (solea).wav

Pre-gap length 0:00:02.50

Peak level 83.2 %
Extraction speed 1.6 X
Track quality 99.9 %
Test CRC BFF11C54
Copy CRC BFF11C54
Track not present in AccurateRip database
Copy OK


None of the tracks are present in the AccurateRip database

No errors occurred

End of status report

==== Log checksum B1BC34FB6D0E938B49C9B462CD6211FC491A805F789D68C1B9C1782F5B49A84B ====

Exact Audio Copy V1.0 beta 3 from 29. August 2011

EAC extraction logfile from 8. March 2012, 6:11

Vicente Amigo / Vivencias Imaginadas

Used drive : HL-DT-STDVDRAM GH22NS50 Adapter: 0 ID: 0

Read mode : Secure
Utilize accurate stream : Yes
Defeat audio cache : Yes
Make use of C2 pointers : No

Read offset correction : 667
Overread into Lead-In and Lead-Out : No
Fill up missing offset samples with silence : Yes
Delete leading and trailing silent blocks : No
Null samples used in CRC calculations : Yes
Used interface : Installed external ASPI interface
Gap handling : Appended to previous track

Used output format : User Defined Encoder
Selected bitrate : 1024 kBit/s
Quality : High
Add ID3 tag : No
Command line compressor : C:\Program Files\Exact Audio Copy\Flac\flac.exe
Additional command line options : -8 -V -T "ARTIST=%artist%" -T "TITLE=%title%" -T "ALBUM=%albumtitle%" -T "DATE=%year%" -T "TRACKNUMBER=%tracknr%" -T "TOTALTRACKS=%numtracks%" -T "GENRE=%genre%" -T "ALBUMARTIST=%albumartist%" -T "ALBUM ARTIST=%albumartist%" -T "COMMENT=EAC Secure Mode, Test & Copy, AccurateRip, FLAC -8" %source%


TOC of the extracted CD

Track | Start | Length | Start sector | End sector
––––––––––––––––––––––––––––-
1 | 0:00.00 | 4:24.60 | 0 | 19859
2 | 4:24.60 | 7:01.22 | 19860 | 51456
3 | 11:26.07 | 5:34.68 | 51457 | 76574
4 | 17:01.00 | 5:06.20 | 76575 | 99544
5 | 22:07.20 | 9:29.60 | 99545 | 142279
6 | 31:37.05 | 4:39.65 | 142280 | 163269
7 | 36:16.70 | 5:44.10 | 163270 | 189079
8 | 42:01.05 | 4:51.62 | 189080 | 210966


Track 1

Filename C:\Users\user\Documents\Vicente Amigo - Vivencias (2010) [FLAC] {Box Set 6CD & 1DVD}\Cd2\01 - Limon De Nata (Rumba).wav

Pre-gap length 0:00:02.00

Peak level 100.0 %
Extraction speed 1.0 X
Track quality 100.0 %
Test CRC D7E98320
Copy CRC D7E98320
Track not present in AccurateRip database
Copy OK

Track 2

Filename C:\Users\user\Documents\Vicente Amigo - Vivencias (2010) [FLAC] {Box Set 6CD & 1DVD}\Cd2\02 - El Mandaito (Bulerias).wav

Pre-gap length 0:00:02.65

Peak level 97.7 %
Extraction speed 1.1 X
Track quality 99.9 %
Test CRC 757E4A54
Copy CRC 757E4A54
Track not present in AccurateRip database
Copy OK

Track 3

Filename C:\Users\user\Documents\Vicente Amigo - Vivencias (2010) [FLAC] {Box Set 6CD & 1DVD}\Cd2\03 - Ventanas Al Alma (Minera).wav

Pre-gap length 0:00:02.62

Peak level 97.7 %
Extraction speed 1.4 X
Track quality 100.0 %
Test CRC E9676DB8
Copy CRC E9676DB8
Track not present in AccurateRip database
Copy OK

Track 4

Filename C:\Users\user\Documents\Vicente Amigo - Vivencias (2010) [FLAC] {Box Set 6CD & 1DVD}\Cd2\04 - Mensaje (Fandangos).wav

Pre-gap length 0:00:01.63

Peak level 97.7 %
Extraction speed 1.5 X
Track quality 100.0 %
Test CRC E6C6C007
Copy CRC E6C6C007
Track not present in AccurateRip database
Copy OK

Track 5

Filename C:\Users\user\Documents\Vicente Amigo - Vivencias (2010) [FLAC] {Box Set 6CD & 1DVD}\Cd2\05 - Querido Metheny.wav

Pre-gap length 0:00:02.65

Peak level 97.7 %
Extraction speed 1.7 X
Track quality 100.0 %
Test CRC 2A7BE713
Copy CRC 2A7BE713
Track not present in AccurateRip database
Copy OK

Track 6

Filename C:\Users\user\Documents\Vicente Amigo - Vivencias (2010) [FLAC] {Box Set 6CD & 1DVD}\Cd2\06 - De Blanco y Oro (Tanguillo) a Juan Serrano.wav

Pre-gap length 0:00:02.63

Peak level 97.7 %
Extraction speed 1.5 X
Track quality 99.9 %
Test CRC 85769676
Copy CRC 85769676
Track not present in AccurateRip database
Copy OK

Track 7

Filename C:\Users\user\Documents\Vicente Amigo - Vivencias (2010) [FLAC] {Box Set 6CD & 1DVD}\Cd2\07 - Vivencias Imaginadas (Zapateado).wav

Pre-gap length 0:00:02.65

Peak level 97.7 %
Extraction speed 1.9 X
Track quality 100.0 %
Test CRC 83393321
Copy CRC 83393321
Track not present in AccurateRip database
Copy OK

Track 8

Filename C:\Users\user\Documents\Vicente Amigo - Vivencias (2010) [FLAC] {Box Set 6CD & 1DVD}\Cd2\08 - Sierra Del Agua (Rondena).wav

Pre-gap length 0:00:02.63

Peak level 97.7 %
Extraction speed 1.8 X
Track quality 99.9 %
Test CRC 1CC4AA07
Copy CRC 1CC4AA07
Track not present in AccurateRip database
Copy OK


None of the tracks are present in the AccurateRip database

No errors occurred

End of status report

==== Log checksum DD1C72BACBE7CCB075CC22A7CF6400D659B9CB2D915721E5F5048E096B6DFD9C ====

Exact Audio Copy V1.0 beta 3 from 29. August 2011

EAC extraction logfile from 8. March 2012, 8:10

Vicente Amigo / Poeta

Used drive : HL-DT-STDVDRAM GH22NS50 Adapter: 0 ID: 0

Read mode : Secure
Utilize accurate stream : Yes
Defeat audio cache : Yes
Make use of C2 pointers : No

Read offset correction : 667
Overread into Lead-In and Lead-Out : No
Fill up missing offset samples with silence : Yes
Delete leading and trailing silent blocks : No
Null samples used in CRC calculations : Yes
Used interface : Installed external ASPI interface
Gap handling : Appended to previous track

Used output format : User Defined Encoder
Selected bitrate : 1024 kBit/s
Quality : High
Add ID3 tag : No
Command line compressor : C:\Program Files\Exact Audio Copy\Flac\flac.exe
Additional command line options : -8 -V -T "ARTIST=%artist%" -T "TITLE=%title%" -T "ALBUM=%albumtitle%" -T "DATE=%year%" -T "TRACKNUMBER=%tracknr%" -T "TOTALTRACKS=%numtracks%" -T "GENRE=%genre%" -T "ALBUMARTIST=%albumartist%" -T "ALBUM ARTIST=%albumartist%" -T "COMMENT=EAC Secure Mode, Test & Copy, AccurateRip, FLAC -8" %source%


TOC of the extracted CD

Track | Start | Length | Start sector | End sector
––––––––––––––––––––––––––––-
1 | 0:00.00 | 0:40.35 | 0 | 3034
2 | 0:40.35 | 0:19.40 | 3035 | 4499
3 | 1:00.00 | 2:31.35 | 4500 | 15859
4 | 3:31.35 | 3:54.00 | 15860 | 33409
5 | 7:25.35 | 5:45.05 | 33410 | 59289
6 | 13:10.40 | 1:26.22 | 59290 | 65761
7 | 14:36.62 | 3:45.20 | 65762 | 82656
8 | 18:22.07 | 0:46.05 | 82657 | 86111
9 | 19:08.12 | 2:01.38 | 86112 | 95224
10 | 21:09.50 | 4:06.72 | 95225 | 113746
11 | 25:16.47 | 5:45.70 | 113747 | 139691
12 | 31:02.42 | 2:37.40 | 139692 | 151506
13 | 33:40.07 | 1:23.40 | 151507 | 157771
14 | 35:03.47 | 5:54.33 | 157772 | 184354
15 | 40:58.05 | 5:45.62 | 184355 | 210291


Track 1

Filename C:\Users\user\Documents\Vicente Amigo - Vivencias (2010) [FLAC] {Box Set 6CD & 1DVD}\Cd3\01 - Preludio.wav

Pre-gap length 0:00:02.00

Peak level 73.9 %
Extraction speed 0.3 X
Track quality 99.7 %
Test CRC 7ECCF505
Copy CRC 7ECCF505
Track not present in AccurateRip database
Copy OK

Track 2

Filename C:\Users\user\Documents\Vicente Amigo - Vivencias (2010) [FLAC] {Box Set 6CD & 1DVD}\Cd3\02 - Pleamar.wav

Peak level 27.8 %
Extraction speed 0.3 X
Track quality 100.0 %
Test CRC C4CA2DD3
Copy CRC C4CA2DD3
Track not present in AccurateRip database
Copy OK

Track 3

Filename C:\Users\user\Documents\Vicente Amigo - Vivencias (2010) [FLAC] {Box Set 6CD & 1DVD}\Cd3\03 - Poeta En El Puerto.wav

Peak level 98.8 %
Extraction speed 0.9 X
Track quality 100.0 %
Test CRC B58FABCF
Copy CRC B58FABCF
Track not present in AccurateRip database
Copy OK

Track 4

Filename C:\Users\user\Documents\Vicente Amigo - Vivencias (2010) [FLAC] {Box Set 6CD & 1DVD}\Cd3\04 - Flor De La Noche.wav

Peak level 91.4 %
Extraction speed 1.1 X
Track quality 100.0 %
Test CRC F2BFCCC1
Copy CRC F2BFCCC1
Track not present in AccurateRip database
Copy OK

Track 5

Filename C:\Users\user\Documents\Vicente Amigo - Vivencias (2010) [FLAC] {Box Set 6CD & 1DVD}\Cd3\05 - Poeta En La Mar.wav

Peak level 98.8 %
Extraction speed 1.3 X
Track quality 100.0 %
Test CRC EE4791DF
Copy CRC EE4791DF
Track not present in AccurateRip database
Copy OK

Track 6

Filename C:\Users\user\Documents\Vicente Amigo - Vivencias (2010) [FLAC] {Box Set 6CD & 1DVD}\Cd3\06 - Pleamar.wav

Peak level 50.5 %
Extraction speed 0.8 X
Track quality 99.8 %
Test CRC 1FEC4E07
Copy CRC 1FEC4E07
Track not present in AccurateRip database
Copy OK

Track 7

Filename C:\Users\user\Documents\Vicente Amigo - Vivencias (2010) [FLAC] {Box Set 6CD & 1DVD}\Cd3\07 - Amor, Dulce Muerte.wav

Peak level 98.8 %
Extraction speed 1.4 X
Track quality 100.0 %
Test CRC 0C5D68EF
Copy CRC 0C5D68EF
Track not present in AccurateRip database
Copy OK

Track 8

Filename C:\Users\user\Documents\Vicente Amigo - Vivencias (2010) [FLAC] {Box Set 6CD & 1DVD}\Cd3\08 - Entre El Clavel Y La Espada.wav

Peak level 49.0 %
Extraction speed 0.8 X
Track quality 100.0 %
Test CRC 129D9497
Copy CRC 129D9497
Track not present in AccurateRip database
Copy OK

Track 9

Filename C:\Users\user\Documents\Vicente Amigo - Vivencias (2010) [FLAC] {Box Set 6CD & 1DVD}\Cd3\09 - Nada Puede Dormir.wav

Peak level 98.8 %
Extraction speed 1.0 X
Track quality 99.9 %
Test CRC 13B94F8A
Copy CRC 13B94F8A
Track not present in AccurateRip database
Copy OK

Track 10

Filename C:\Users\user\Documents\Vicente Amigo - Vivencias (2010) [FLAC] {Box Set 6CD & 1DVD}\Cd3\10 - Marinera De Levante.wav

Peak level 98.8 %
Extraction speed 1.3 X
Track quality 99.9 %
Test CRC 220B5805
Copy CRC 220B5805
Track not present in AccurateRip database
Copy OK

Track 11

Filename C:\Users\user\Documents\Vicente Amigo - Vivencias (2010) [FLAC] {Box Set 6CD & 1DVD}\Cd3\11 - El Mar De Tu Sentir.wav

Peak level 98.8 %
Extraction speed 1.5 X
Track quality 99.9 %
Test CRC 025154B5
Copy CRC 025154B5
Track not present in AccurateRip database
Copy OK

Track 12

Filename C:\Users\user\Documents\Vicente Amigo - Vivencias (2010) [FLAC] {Box Set 6CD & 1DVD}\Cd3\12 - Como Antes,Como Nunca…Como Siempre….wav

Peak level 76.1 %
Extraction speed 1.6 X
Track quality 100.0 %
Test CRC 6CEC0D63
Copy CRC 6CEC0D63
Track not present in AccurateRip database
Copy OK

Track 13

Filename C:\Users\user\Documents\Vicente Amigo - Vivencias (2010) [FLAC] {Box Set 6CD & 1DVD}\Cd3\13 - Buscando El Aliento.wav

Peak level 98.8 %
Extraction speed 1.3 X
Track quality 100.0 %
Test CRC 6AB89702
Copy CRC 6AB89702
Track not present in AccurateRip database
Copy OK

Track 14

Filename C:\Users\user\Documents\Vicente Amigo - Vivencias (2010) [FLAC] {Box Set 6CD & 1DVD}\Cd3\14 - Guajira.wav

Peak level 98.8 %
Extraction speed 1.9 X
Track quality 100.0 %
Test CRC 20AAADE4
Copy CRC 20AAADE4
Track not present in AccurateRip database
Copy OK

Track 15

Filename C:\Users\user\Documents\Vicente Amigo - Vivencias (2010) [FLAC] {Box Set 6CD & 1DVD}\Cd3\15 - Poeta en el Viento.wav

Peak level 98.8 %
Extraction speed 2.0 X
Track quality 100.0 %
Test CRC 4A931A56
Copy CRC 4A931A56
Track not present in AccurateRip database
Copy OK


None of the tracks are present in the AccurateRip database

No errors occurred

End of status report

==== Log checksum 3514460537F7E72FEA8619654BC477BD19A633DC67E2B1A4B4C17DCD0610CDC9 ====

Exact Audio Copy V1.0 beta 3 from 29. August 2011

EAC extraction logfile from 8. March 2012, 16:36

Vicente Amigo / Ciudad de las Ideas

Used drive : HL-DT-STDVDRAM GH22NS50 Adapter: 0 ID: 0

Read mode : Secure
Utilize accurate stream : Yes
Defeat audio cache : Yes
Make use of C2 pointers : No

Read offset correction : 667
Overread into Lead-In and Lead-Out : No
Fill up missing offset samples with silence : Yes
Delete leading and trailing silent blocks : No
Null samples used in CRC calculations : Yes
Used interface : Installed external ASPI interface
Gap handling : Appended to previous track

Used output format : User Defined Encoder
Selected bitrate : 1024 kBit/s
Quality : High
Add ID3 tag : No
Command line compressor : C:\Program Files\Exact Audio Copy\Flac\flac.exe
Additional command line options : -8 -V -T "ARTIST=%artist%" -T "TITLE=%title%" -T "ALBUM=%albumtitle%" -T "DATE=%year%" -T "TRACKNUMBER=%tracknr%" -T "TOTALTRACKS=%numtracks%" -T "GENRE=%genre%" -T "ALBUMARTIST=%albumartist%" -T "ALBUM ARTIST=%albumartist%" -T "COMMENT=EAC Secure Mode, Test & Copy, AccurateRip, FLAC -8" %source%


TOC of the extracted CD

Track | Start | Length | Start sector | End sector
––––––––––––––––––––––––––––-
1 | 0:00.00 | 4:50.38 | 0 | 21787
2 | 4:50.38 | 7:07.13 | 21788 | 53825
3 | 11:57.51 | 6:30.17 | 53826 | 83092
4 | 18:27.68 | 5:18.03 | 83093 | 106945
5 | 23:45.71 | 6:02.29 | 106946 | 134124
6 | 29:48.25 | 4:27.54 | 134125 | 154203
7 | 34:16.04 | 6:09.16 | 154204 | 181894
8 | 40:25.20 | 8:27.67 | 181895 | 219986


Track 1

Filename C:\Users\user\Documents\Vicente Amigo - Vivencias (2010) [FLAC] {Box Set 6CD & 1DVD}\Cd4\01 - Tres Notas para Decir te Quiero.wav

Pre-gap length 0:00:02.00

Peak level 92.8 %
Extraction speed 0.9 X
Track quality 99.9 %
Test CRC 815FEA43
Copy CRC 815FEA43
Cannot be verified as accurate (confidence 12) [99ECA092], AccurateRip returned [40DC7AE7] (AR v2)
Copy OK

Track 2

Filename C:\Users\user\Documents\Vicente Amigo - Vivencias (2010) [FLAC] {Box Set 6CD & 1DVD}\Cd4\02 - La Tarde es Caramelo (Alegrias).wav

Pre-gap length 0:00:01.01

Peak level 98.8 %
Extraction speed 1.2 X
Track quality 100.0 %
Test CRC 012A1488
Copy CRC 012A1488
Cannot be verified as accurate (confidence 12) [CF804F05], AccurateRip returned [E6159BCB] (AR v2)
Copy OK

Track 3

Filename C:\Users\user\Documents\Vicente Amigo - Vivencias (2010) [FLAC] {Box Set 6CD & 1DVD}\Cd4\03 - Ojos de la Alhambra.wav

Peak level 88.8 %
Extraction speed 1.4 X
Track quality 100.0 %
Test CRC 79676327
Copy CRC 79676327
Cannot be verified as accurate (confidence 12) [FE042FC3], AccurateRip returned [07D5331E] (AR v2)
Copy OK

Track 4

Filename C:\Users\user\Documents\Vicente Amigo - Vivencias (2010) [FLAC] {Box Set 6CD & 1DVD}\Cd4\04 - Compare Manuel (Tangos).wav

Peak level 98.9 %
Extraction speed 1.4 X
Track quality 99.9 %
Test CRC 5DBD02E3
Copy CRC 5DBD02E3
Cannot be verified as accurate (confidence 12) [7238591C], AccurateRip returned [835A5270] (AR v2)
Copy OK

Track 5

Filename C:\Users\user\Documents\Vicente Amigo - Vivencias (2010) [FLAC] {Box Set 6CD & 1DVD}\Cd4\05 - Bolero de Vicente.wav

Peak level 91.7 %
Extraction speed 1.6 X
Track quality 100.0 %
Test CRC 6E0490AC
Copy CRC 6E0490AC
Cannot be verified as accurate (confidence 12) [2B6027E8], AccurateRip returned [C457BF35] (AR v2)
Copy OK

Track 6

Filename C:\Users\user\Documents\Vicente Amigo - Vivencias (2010) [FLAC] {Box Set 6CD & 1DVD}\Cd4\06 - Tata.wav

Pre-gap length 0:00:02.40

Peak level 97.7 %
Extraction speed 1.7 X
Track quality 100.0 %
Test CRC 2B48DCDA
Copy CRC 2B48DCDA
Cannot be verified as accurate (confidence 12) [AD3D402B], AccurateRip returned [CCA75278] (AR v2)
Copy OK

Track 7

Filename C:\Users\user\Documents\Vicente Amigo - Vivencias (2010) [FLAC] {Box Set 6CD & 1DVD}\Cd4\07 - Cordoba (Solea).wav

Pre-gap length 0:00:01.51

Peak level 97.7 %
Extraction speed 1.9 X
Track quality 100.0 %
Test CRC 66FB2E19
Copy CRC 66FB2E19
Cannot be verified as accurate (confidence 12) [50462A0E], AccurateRip returned [27DF521F] (AR v2)
Copy OK

Track 8

Filename C:\Users\user\Documents\Vicente Amigo - Vivencias (2010) [FLAC] {Box Set 6CD & 1DVD}\Cd4\08 - Ciudad de las Ideas.wav

Peak level 75.3 %
Extraction speed 2.1 X
Track quality 100.0 %
Test CRC E9EC62F5
Copy CRC E9EC62F5
Cannot be verified as accurate (confidence 12) [CACF811D], AccurateRip returned [6711F081] (AR v2)
Copy OK


No tracks could be verified as accurate
You may have a different pressing from the one(s) in the database

No errors occurred

End of status report

==== Log checksum 251EACD2554BE3EF9E66937B7E27176A1005E9ADF4DE0A68E82CD69A772106BB ====

Exact Audio Copy V1.0 beta 3 from 29. August 2011

EAC extraction logfile from 8. March 2012, 21:21

Vicente Amigo / Un Momento en el Sonido

Used drive : HL-DT-STDVDRAM GH22NS50 Adapter: 0 ID: 0

Read mode : Secure
Utilize accurate stream : Yes
Defeat audio cache : Yes
Make use of C2 pointers : No

Read offset correction : 667
Overread into Lead-In and Lead-Out : No
Fill up missing offset samples with silence : Yes
Delete leading and trailing silent blocks : No
Null samples used in CRC calculations : Yes
Used interface : Installed external ASPI interface
Gap handling : Appended to previous track

Used output format : User Defined Encoder
Selected bitrate : 1024 kBit/s
Quality : High
Add ID3 tag : No
Command line compressor : C:\Program Files\Exact Audio Copy\Flac\flac.exe
Additional command line options : -8 -V -T "ARTIST=%artist%" -T "TITLE=%title%" -T "ALBUM=%albumtitle%" -T "DATE=%year%" -T "TRACKNUMBER=%tracknr%" -T "TOTALTRACKS=%numtracks%" -T "GENRE=%genre%" -T "ALBUMARTIST=%albumartist%" -T "ALBUM ARTIST=%albumartist%" -T "COMMENT=EAC Secure Mode, Test & Copy, AccurateRip, FLAC -8" %source%


TOC of the extracted CD

Track | Start | Length | Start sector | End sector
––––––––––––––––––––––––––––-
1 | 0:00.00 | 4:59.17 | 0 | 22441
2 | 4:59.17 | 8:12.50 | 22442 | 59391
3 | 13:11.67 | 7:09.62 | 59392 | 91628
4 | 20:21.54 | 5:08.49 | 91629 | 114777
5 | 25:30.28 | 5:39.28 | 114778 | 140230
6 | 31:09.56 | 7:11.01 | 140231 | 172556
7 | 38:20.57 | 6:04.67 | 172557 | 199923
8 | 44:25.49 | 8:01.61 | 199924 | 236059
9 | 52:27.35 | 8:25.61 | 236060 | 273995
10 | 60:53.21 | 5:43.11 | 273996 | 299731


Track 1

Filename C:\Users\user\Documents\Vicente Amigo - Vivencias (2010) [FLAC] {Box Set 6CD & 1DVD}\Cd5\01 - Demipati (Rumba).wav

Pre-gap length 0:00:02.00

Peak level 100.0 %
Extraction speed 1.0 X
Track quality 100.0 %
Test CRC 46DBC4D2
Copy CRC 46DBC4D2
Accurately ripped (confidence 10) [F14F7BD6] (AR v1)
Copy OK

Track 2

Filename C:\Users\user\Documents\Vicente Amigo - Vivencias (2010) [FLAC] {Box Set 6CD & 1DVD}\Cd5\02 - Campo de la Verdad.wav

Pre-gap length 0:00:02.00

Peak level 100.0 %
Extraction speed 1.2 X
Track quality 99.9 %
Test CRC 90B170FB
Copy CRC 90B170FB
Accurately ripped (confidence 10) [BFC444C2] (AR v1)
Copy OK

Track 3

Filename C:\Users\user\Documents\Vicente Amigo - Vivencias (2010) [FLAC] {Box Set 6CD & 1DVD}\Cd5\03 - Mezquita (Solea).wav

Pre-gap length 0:00:02.00

Peak level 99.9 %
Extraction speed 1.4 X
Track quality 100.0 %
Test CRC 98394A76
Copy CRC 98394A76
Accurately ripped (confidence 10) [83C7D618] (AR v1)
Copy OK

Track 4

Filename C:\Users\user\Documents\Vicente Amigo - Vivencias (2010) [FLAC] {Box Set 6CD & 1DVD}\Cd5\04 - Tangos del Arco Bajo (Tangos).wav

Pre-gap length 0:00:02.00

Peak level 100.0 %
Extraction speed 1.5 X
Track quality 100.0 %
Test CRC 58612F01
Copy CRC 58612F01
Accurately ripped (confidence 10) [B7FFD98B] (AR v1)
Copy OK

Track 5

Filename C:\Users\user\Documents\Vicente Amigo - Vivencias (2010) [FLAC] {Box Set 6CD & 1DVD}\Cd5\05 - Bolero a Marcos.wav

Pre-gap length 0:00:02.00

Peak level 100.0 %
Extraction speed 1.7 X
Track quality 100.0 %
Test CRC 7A6A0F13
Copy CRC 7A6A0F13
Accurately ripped (confidence 10) [2E5C6FDB] (AR v1)
Copy OK

Track 6

Filename C:\Users\user\Documents\Vicente Amigo - Vivencias (2010) [FLAC] {Box Set 6CD & 1DVD}\Cd5\06 - Silia y el Tiempo (Farruca).wav

Pre-gap length 0:00:02.00

Peak level 100.0 %
Extraction speed 1.8 X
Track quality 100.0 %
Test CRC DD89424F
Copy CRC DD89424F
Accurately ripped (confidence 10) [0B3CC4E9] (AR v1)
Copy OK

Track 7

Filename C:\Users\user\Documents\Vicente Amigo - Vivencias (2010) [FLAC] {Box Set 6CD & 1DVD}\Cd5\07 - Oriente Mediterraneo (Zapateado).wav

Pre-gap length 0:00:02.00

Peak level 100.0 %
Extraction speed 1.7 X
Track quality 99.9 %
Test CRC 340BAC02
Copy CRC 340BAC02
Accurately ripped (confidence 10) [37C7C1D0] (AR v1)
Copy OK

Track 8

Filename C:\Users\user\Documents\Vicente Amigo - Vivencias (2010) [FLAC] {Box Set 6CD & 1DVD}\Cd5\08 - Rocamador (Buleria composicion).wav

Pre-gap length 0:00:02.00

Peak level 100.0 %
Extraction speed 2.1 X
Track quality 100.0 %
Test CRC 1B19CAB1
Copy CRC 1B19CAB1
Accurately ripped (confidence 10) [BD18BFBA] (AR v1)
Copy OK

Track 9

Filename C:\Users\user\Documents\Vicente Amigo - Vivencias (2010) [FLAC] {Box Set 6CD & 1DVD}\Cd5\09 - Un Momento en el Sonido (Taranta).wav

Pre-gap length 0:00:02.00

Peak level 98.8 %
Extraction speed 2.2 X
Track quality 100.0 %
Test CRC F4C6BAB3
Copy CRC F4C6BAB3
Accurately ripped (confidence 10) [680BADA6] (AR v1)
Copy OK

Track 10

Filename C:\Users\user\Documents\Vicente Amigo - Vivencias (2010) [FLAC] {Box Set 6CD & 1DVD}\Cd5\10 - Bolero a Marcos (Version arreglos de cuerda).wav

Pre-gap length 0:00:30.00

Peak level 100.0 %
Extraction speed 2.3 X
Track quality 100.0 %
Test CRC AED10519
Copy CRC AED10519
Accurately ripped (confidence 9) [A61B2CC0] (AR v1)
Copy OK


All tracks accurately ripped

No errors occurred

End of status report

==== Log checksum E04D1DBD154C0B6DFD3256D1B28DCE230069B7F656FD9A54AFA5E470319E17C4 ====

Exact Audio Copy V1.0 beta 3 from 29. August 2011

EAC extraction logfile from 9. March 2012, 7:54

Vicente Amigo / Paseo de Gracia

Used drive : HL-DT-STDVDRAM GH22NS50 Adapter: 0 ID: 0

Read mode : Secure
Utilize accurate stream : Yes
Defeat audio cache : Yes
Make use of C2 pointers : No

Read offset correction : 667
Overread into Lead-In and Lead-Out : No
Fill up missing offset samples with silence : Yes
Delete leading and trailing silent blocks : No
Null samples used in CRC calculations : Yes
Used interface : Installed external ASPI interface
Gap handling : Appended to previous track

Used output format : User Defined Encoder
Selected bitrate : 1024 kBit/s
Quality : High
Add ID3 tag : No
Command line compressor : C:\Program Files\Exact Audio Copy\Flac\flac.exe
Additional command line options : -8 -V -T "ARTIST=%artist%" -T "TITLE=%title%" -T "ALBUM=%albumtitle%" -T "DATE=%year%" -T "TRACKNUMBER=%tracknr%" -T "TOTALTRACKS=%numtracks%" -T "GENRE=%genre%" -T "ALBUMARTIST=%albumartist%" -T "ALBUM ARTIST=%albumartist%" -T "COMMENT=EAC Secure Mode, Test & Copy, AccurateRip, FLAC -8" %source%


TOC of the extracted CD

Track | Start | Length | Start sector | End sector
––––––––––––––––––––––––––––-
1 | 0:00.00 | 3:55.30 | 0 | 17654
2 | 3:55.30 | 8:40.47 | 17655 | 56701
3 | 12:36.02 | 4:50.40 | 56702 | 78491
4 | 17:26.42 | 7:03.29 | 78492 | 110245
5 | 24:29.71 | 5:01.02 | 110246 | 132822
6 | 29:30.73 | 7:23.50 | 132823 | 166097
7 | 36:54.48 | 6:37.40 | 166098 | 195912
8 | 43:32.13 | 5:40.59 | 195913 | 221471
9 | 49:12.72 | 7:25.05 | 221472 | 254851


Track 1

Filename C:\Users\user\Documents\Vicente Amigo - Vivencias (2010) [FLAC] {Box Set 6CD & 1DVD}\Cd6\01 - Amor de Nadie.wav

Pre-gap length 0:00:02.00

Peak level 99.1 %
Extraction speed 0.9 X
Track quality 99.9 %
Test CRC 0AA132EF
Copy CRC 0AA132EF
Accurately ripped (confidence 3) [0F3530FF] (AR v1)
Copy OK

Track 2

Filename C:\Users\user\Documents\Vicente Amigo - Vivencias (2010) [FLAC] {Box Set 6CD & 1DVD}\Cd6\02 - Autorretrato.wav

Pre-gap length 0:00:00.27

Peak level 99.1 %
Extraction speed 1.3 X
Track quality 100.0 %
Test CRC D367D1E9
Copy CRC D367D1E9
Accurately ripped (confidence 3) [534AA192] (AR v1)
Copy OK

Track 3

Filename C:\Users\user\Documents\Vicente Amigo - Vivencias (2010) [FLAC] {Box Set 6CD & 1DVD}\Cd6\03 - Bolero del Amigo.wav

Pre-gap length 0:00:01.05

Peak level 98.6 %
Extraction speed 1.4 X
Track quality 100.0 %
Test CRC CA4AF7B3
Copy CRC CA4AF7B3
Accurately ripped (confidence 3) [CCCA242F] (AR v1)
Copy OK

Track 4

Filename C:\Users\user\Documents\Vicente Amigo - Vivencias (2010) [FLAC] {Box Set 6CD & 1DVD}\Cd6\04 - Azules y Corinto.wav

Pre-gap length 0:00:01.24

Peak level 99.4 %
Extraction speed 1.6 X
Track quality 100.0 %
Test CRC 6008C16E
Copy CRC 6008C16E
Accurately ripped (confidence 3) [3A10FC34] (AR v1)
Copy OK

Track 5

Filename C:\Users\user\Documents\Vicente Amigo - Vivencias (2010) [FLAC] {Box Set 6CD & 1DVD}\Cd6\05 - Y sera verdad ….wav

Pre-gap length 0:00:00.66

Peak level 99.1 %
Extraction speed 1.6 X
Track quality 100.0 %
Test CRC 5DAB8B10
Copy CRC 5DAB8B10
Accurately ripped (confidence 3) [67171D1A] (AR v1)
Copy OK

Track 6

Filename C:\Users\user\Documents\Vicente Amigo - Vivencias (2010) [FLAC] {Box Set 6CD & 1DVD}\Cd6\06 - Luz de la sombra.wav

Pre-gap length 0:00:01.09

Peak level 98.6 %
Extraction speed 1.8 X
Track quality 100.0 %
Test CRC 22D1497A
Copy CRC 22D1497A
Accurately ripped (confidence 3) [FF5E28F4] (AR v1)
Copy OK

Track 7

Filename C:\Users\user\Documents\Vicente Amigo - Vivencias (2010) [FLAC] {Box Set 6CD & 1DVD}\Cd6\07 - Paseo de Gracia.wav

Pre-gap length 0:00:01.59

Peak level 98.6 %
Extraction speed 1.9 X
Track quality 100.0 %
Test CRC 7F607F54
Copy CRC 7F607F54
Accurately ripped (confidence 3) [8695EDB4] (AR v1)
Copy OK

Track 8

Filename C:\Users\user\Documents\Vicente Amigo - Vivencias (2010) [FLAC] {Box Set 6CD & 1DVD}\Cd6\08 - Pan Caliente.wav

Pre-gap length 0:00:00.59

Peak level 98.6 %
Extraction speed 2.0 X
Track quality 100.0 %
Test CRC 4586820E
Copy CRC 4586820E
Accurately ripped (confidence 3) [DC93CF66] (AR v1)
Copy OK

Track 9

Filename C:\Users\user\Documents\Vicente Amigo - Vivencias (2010) [FLAC] {Box Set 6CD & 1DVD}\Cd6\09 - La Estrella.wav

Pre-gap length 0:00:01.19

Peak level 98.8 %
Extraction speed 2.2 X
Track quality 100.0 %
Test CRC 5AD4A9F8
Copy CRC 5AD4A9F8
Accurately ripped (confidence 3) [BAAE7FE2] (AR v1)
Copy OK


All tracks accurately ripped

No errors occurred

End of status report

==== Log checksum AFBFC0AD4F04EDE296595F8B208AE85310F6CE163C3589BCD08C2984B91429AD ====

I 07:54:49 DVD Decrypter Version 3.5.4.0 started!
I 07:54:49 Media Center Edition (6.1, Build 7601 : Service Pack 1)
I 07:54:49 Initialising SPTI…
I 07:54:49 Searching for SCSI / ATAPI devices…
I 07:54:49 Found 1 DVD-RAM/±RW!
I 07:58:25 Operation Started!
I 07:58:25 Source Device: [1:1:0] HL-DT-ST DVDRAM GH22NS50 TN03 (E:) (ATA)
I 07:58:25 Source Media Type: DVD-ROM
I 07:58:25 Source Media Region Code: 1; 2; 3; 4; 5; 6; 7; 8
I 07:58:25 Source Media Copyright Protection System Type: None
I 07:58:25 Source Media Implementation Identifier: Daikin U.S. Comtec Lab
I 07:58:25 Destination File: C:\Users\user\Documents\Vicente Amigo - Vivencias (2010) [FLAC] {Box Set 6CD & 1DVD}\DVD PAL\DVDIMAGE.ISO
I 07:58:25 File Splitting: None
I 07:58:25 Hardware Read Error Retries: 20
I 07:58:25 Detect Mastering Errors: No
I 07:58:25 Remove Macrovision Protection: Yes
I 07:58:25 Extracting Sectors… (LBA: 0 - 1643168)
I 07:58:25 Found IFO File: VIDEO_TS.IFO - (LBA: 282 - 287)
I 07:58:25 Found VOB File: VIDEO_TS.VOB - (LBA: 288 - 292) - KEY: N/A
I 07:58:25 Found BUP File: VIDEO_TS.BUP - (LBA: 309 - 314)
I 07:58:25 Found IFO File: VTS_01_0.IFO - (LBA: 315 - 340)
I 07:58:25 Found VOB File: VTS_01_0.VOB - (LBA: 341 - 213991) - KEY: N/A
I 07:59:27 Found VOB File: VTS_01_1.VOB - (LBA: 213992 - 738093) - KEY: N/A
I 08:01:15 Found VOB File: VTS_01_2.VOB - (LBA: 738094 - 1262277) - KEY: N/A
I 08:02:41 Found VOB File: VTS_01_3.VOB - (LBA: 1262278 - 1637699) - KEY: N/A
I 08:03:35 Found BUP File: VTS_01_0.BUP - (LBA: 1637700 - 1637725)
I 08:03:35 Found IFO File: VTS_02_0.IFO - (LBA: 1637726 - 1637731)
I 08:03:35 Found VOB File: VTS_02_1.VOB - (LBA: 1637732 - 1643161) - KEY: N/A
I 08:03:36 Found BUP File: VTS_02_0.BUP - (LBA: 1643162 - 1643167)
I 08:03:36 Operation Successfully Completed! - Duration: 00:05:11
I 08:03:36 Average Read Rate: 10.567 KB/s (7.6x) - Maximum Read Rate: 14.867 KB/s (10.7x)


Vicente Amigo - Vivencias: La obra completa de un genio (2010) {Sony Music Box Set 6 CD & 1 DVD PAL rec 1991-2009}

Vicente Amigo - Vivencias: La obra completa de un genio (2010) {Sony Music Box Set 6 CD & 1 DVD PAL rec 1991-2009}

Vicente Amigo - Vivencias: La obra completa de un genio (2010) {Sony Music Box Set 6 CD & 1 DVD PAL rec 1991-2009}

Vicente Amigo - Vivencias: La obra completa de un genio (2010) {Sony Music Box Set 6 CD & 1 DVD PAL rec 1991-2009}

Vicente Amigo - Vivencias: La obra completa de un genio (2010) {Sony Music Box Set 6 CD & 1 DVD PAL rec 1991-2009}



Paco de Lucia & Ricardo Mo...va Integral Box Set CD 01of27}
Paco de Lucia & Ricardo Mo...va Integral Box Set CD 02of27}
Paco de Lucia & Ricardo Mo...va Integral Box Set CD 03of27}
Paco de Lucia - La Fabulosa Gu...va Integral Box Set CD 04of27}
Paco de Lucia & Ramon de A...va Integral Box Set CD 05of27}

Paco de Lucia & Ramon de A...va Integral Box Set CD 06of27}
Paco de Lucia - Fantasia Flame...va Integral Box Set CD 07of27}
Paco de Lucia & Ramon de A...va Integral Box Set CD 08of27}
Paco de Lucia & Ramon de A...va Integral Box Set CD 09of27}
Paco de Lucia - El mundo del F...va Integral Box Set CD 10of27}

Paco de Lucia - Recital de Gui...va Integral Box Set CD 11of27}
Paco de Lucia - El Duende Flam...va Integral Box Set CD 12of27}
Paco de Lucia - Fuente y Cauda...va Integral Box Set CD 13of27}
Paco de Lucia - En vivo desde ... Integral Box Set CD 14 of 27}
Paco de Lucia - Almoraima (197... Integral Box Set CD 15 of 27}

Paco de Lucia - Interpreta a M... Integral Box Set CD 16 of 27}
Paco de Lucia - Castro Marin (... Integral Box Set CD 17 of 27}
Paco de Lucia - Solo Quiero Ca... Integral Box Set CD 18 of 27}
Paco de Lucia & Sextet - L... Integral Box Set CD 19 of 27}
Paco de Lucia - Siroco (1987) ... Integral Box Set CD 20 of 27}

Paco de Lucia - Zyryab (1990) ... Integral Box Set CD 21 of 27}
Paco de Lucia - Concierto de A... Integral Box Set CD 22 of 27}
Paco de Lucia & Sextet - L... Integral Box Set CD 23 of 27}
Paco de Lucia , Al Di Meola &a... Integral Box Set CD 24 of 27}
Paco de Lucia - Luzia (1998) {2010 Nueva Integral Box Set CD 25 of 27}

Paco de Lucia - Por Descubrir ... Integral Box Set CD 26 of 27}
Paco de Lucia - Cositas Buenas... Integral Box Set CD 27 of 27}

== Camaron - La Leyenda Del Ti...versary Remastered Edition} ==

Paco de Lucia - En Vivo Concie...5 PAL - Universal Music Spain}

Paco de Lucia - Francisco Sanc...5 PAL] {Universal Music Spain}

Paco de Lucia & John McLau...x 1987 (2016) {2CD+Bonus DVD9}

El Camaron de la Isla & Pa...va Integral Box Set CD 01of21}
El Camaron de la Isla & Pa...va Integral Box Set CD 02of21}
El Camaron de la Isla & Pa...va Integral Box Set CD 03of21}
El Camaron de la Isla & Pa...va Integral Box Set CD 04of21}
El Camaron de la Isla & Pa...va Integral Box Set CD 05of21}

El Camaron de la Isla & Pa...va Integral Box Set CD 06of21}
El Camaron de la Isla & Pa...va Integral Box Set CD 07of21}
El Camaron de la Isla & Pa...va Integral Box Set CD 08of21}
El Camaron de la Isla & Pa...va Integral Box Set CD 09of21}

Juan el Flaco - Suena Flamenco (2014) {La Voz del Flamenco LVF1072}

El Camaron de la Isla - La Ley...va Integral Box Set CD 10of21}
El Camaron de la Isla with Pac...va Integral Box Set CD 11of21}
El Camaron de la Isla with Pac...va Integral Box Set CD 12of21}
El Camaron de la Isla with Pac...va Integral Box Set CD 13of21}
Accademia del Piacere, Fahmi A...DVD5 PAL Alqhai&Alqhai004}

Camaron de la Isla - Nueva Int...Download} (with Paco de Lucia)
Camarón de La Isla - Lo Mejor ... Altaya N.F.028 rec 1972-1992}



===