Tags
Language
Tags
March 2024
Su Mo Tu We Th Fr Sa
25 26 27 28 29 1 2
3 4 5 6 7 8 9
10 11 12 13 14 15 16
17 18 19 20 21 22 23
24 25 26 27 28 29 30
31 1 2 3 4 5 6
Attention❗ To save your time, in order to download anything on this site, you must be registered 👉 HERE. If you do not have a registration yet, it is better to do it right away. ✌

( • )( • ) ( ͡⚆ ͜ʖ ͡⚆ ) (‿ˠ‿)
SpicyMags.xyz

Victor Wainwright - Victor Wainwright and the Train (2018)

Posted By: delpotro
Victor Wainwright - Victor Wainwright and the Train (2018)

Victor Wainwright - Victor Wainwright and the Train (2018)
XLD Rip | FLAC (tracks+log+.cue) - 389 Mb | MP3 CBR 320 kbps - 142 Mb | 01:01:45
Modern Electric Blues | Label: Ruf Records

It had to be a train. The name of Victor Wainwright's new band - and the sleeve image of their debut album - is also the most fitting of metaphors. In music folklore, the train might have associations with the freight-hopping bluesmen of yore, but with this restless boogie-woogie innovator stoking the furnace, this project is a charging locomotive - surging forward, crashing through boundaries of genre, sweeping up fresh sounds and clattering headlong past the doubters. At a sweet-spot in his career, where most established stars would rest on their laurels, Victor Wainwright & The Train instead rips up all that has gone before. These twelve tracks are originals in every sense, written by Wainwright, pricking up ears in a sterile music industry and stretching the concept of roots in bold directions. The result is an album that walks a tightrope between scholarly respect and anarchic irreverence. On this white-knuckle ride, only The Train could keep the material on the tracks. "I ended up with a hit-squad of downright amazing musicians," he reflects, "that shared my curiosity for all corners of the roots genre. We wanted to capture how we feel performing, right smack-dab on this record, and I believe we've done that. Now I just try to keep up…"
Tracklist:
1. Healing (05:01)
2. Wiltshire Grave (04:30)
3. Train (03:35)
4. Dull Your Shine (05:35)
5. Money (04:21)
6. Thank You Lucille (05:11)
7. Boogie Depression (03:33)
8. Everything I Need (05:09)
9. Righteous (04:45)
10. I'll Start Tomorrow (04:21)
11. Sunshine (07:02)
12. That's Love to Me (08:37)

X Lossless Decoder version 20170729 (150.3)

XLD extraction logfile from 2018-09-27 17:48:23 -0700

Victor Wainwright and The Train / Victor Wainwright and The Train

Used drive : TSSTcorp BDDVDW SE-506BB (revision TS00)
Media type : Pressed CD

Ripper mode : XLD Secure Ripper
Disable audio cache : OK for the drive with a cache less than 1375KiB
Make use of C2 pointers : NO
Read offset correction : 6
Max retry count : 100
Gap status : Analyzed, Appended (except HTOA)

TOC of the extracted CD
Track | Start | Length | Start sector | End sector
––––––––––––––––––––––––––––-
1 | 00:00:00 | 05:01:73 | 0 | 22647
2 | 05:01:73 | 04:30:45 | 22648 | 42942
3 | 09:32:43 | 03:35:33 | 42943 | 59100
4 | 13:08:01 | 05:35:65 | 59101 | 84290
5 | 18:43:66 | 04:21:08 | 84291 | 103873
6 | 23:04:74 | 05:10:72 | 103874 | 127195
7 | 28:15:71 | 03:33:39 | 127196 | 143209
8 | 31:49:35 | 05:09:38 | 143210 | 166422
9 | 36:58:73 | 04:45:01 | 166423 | 187798
10 | 41:43:74 | 04:21:22 | 187799 | 207395
11 | 46:05:21 | 07:02:36 | 207396 | 239081
12 | 53:07:57 | 08:37:55 | 239082 | 277911

List of alternate offset correction values
# | Absolute | Relative | Confidence
–––––––––––––––––––––
1 | -6 | -12 | 2

AccurateRip Summary (DiscID: 00195bb3-00ee7fc2-a30e790c)
Track 01 : OK (v1+v2, confidence 2/2, with different offset)
Track 02 : OK (v1+v2, confidence 2/2, with different offset)
Track 03 : OK (v1, confidence 1/2, with different offset)
Track 04 : OK (v1+v2, confidence 2/2, with different offset)
Track 05 : OK (v1+v2, confidence 2/2, with different offset)
Track 06 : OK (v1+v2, confidence 2/2, with different offset)
Track 07 : OK (v1+v2, confidence 2/2, with different offset)
Track 08 : OK (v1+v2, confidence 2/2, with different offset)
Track 09 : OK (v1+v2, confidence 2/2, with different offset)
Track 10 : OK (v1+v2, confidence 2/2, with different offset)
Track 11 : OK (v1+v2, confidence 2/2, with different offset)
Track 12 : OK (v1+v2, confidence 2/2, with different offset)
->All tracks accurately ripped.

All Tracks
Album gain : -8.78 dB
Peak : 0.999969
Statistics
Read error : 0
Jitter error (maybe fixed) : 2
Retry sector count : 268
Damaged sector count : 0

Track 01
Filename : /Volumes/Hollywood and Vine/Rips/Victor Wainwright and The Train - Victor Wainwright and The Train (2018) [FLAC]/01 Healing.flac
Pre-gap length : 00:02:00

Track gain : -8.74 dB
Peak : 0.999969
CRC32 hash (test run) : F1EFC02F
CRC32 hash : F1EFC02F
CRC32 hash (skip zero) : 43E4E900
AccurateRip v1 signature : B64D3F21 (2F238F19 w/correction)
AccurateRip v2 signature : 03C3DFD5 (7C9869C6 w/correction)
->Accurately ripped with different offset (v1+v2, confidence 1+1/2, offset -12)
Statistics
Read error : 0
Jitter error (maybe fixed) : 0
Retry sector count : 0
Damaged sector count : 0

Track 02
Filename : /Volumes/Hollywood and Vine/Rips/Victor Wainwright and The Train - Victor Wainwright and The Train (2018) [FLAC]/02 Wiltshire Grave.flac

Track gain : -7.91 dB
Peak : 0.999969
CRC32 hash (test run) : 6456E801
CRC32 hash : 6456E801
CRC32 hash (skip zero) : 245A3CAD
AccurateRip v1 signature : 225617E1 (9645860D w/correction)
AccurateRip v2 signature : D5D4857E (49BBC10B w/correction)
->Accurately ripped with different offset (v1+v2, confidence 1+1/2, offset -12)
Statistics
Read error : 0
Jitter error (maybe fixed) : 0
Retry sector count : 0
Damaged sector count : 0

Track 03
Filename : /Volumes/Hollywood and Vine/Rips/Victor Wainwright and The Train - Victor Wainwright and The Train (2018) [FLAC]/03 Train.flac

Track gain : -9.79 dB
Peak : 0.999969
CRC32 hash (test run) : 02E19627
CRC32 hash : 02E19627
CRC32 hash (skip zero) : 34D9AD86
AccurateRip v1 signature : 03E02366 (6262DE63 w/correction)
AccurateRip v2 signature : 05445E3B
->Accurately ripped with different offset (v1, confidence 1/2, offset -12)
Statistics
Read error : 0
Jitter error (maybe fixed) : 0
Retry sector count : 0
Damaged sector count : 0

Track 04
Filename : /Volumes/Hollywood and Vine/Rips/Victor Wainwright and The Train - Victor Wainwright and The Train (2018) [FLAC]/04 Dull Your Shine.flac

Track gain : -9.27 dB
Peak : 0.999847
CRC32 hash (test run) : 9EBA47A8
CRC32 hash : 9EBA47A8
CRC32 hash (skip zero) : 7EE0DF94
AccurateRip v1 signature : 126CA29C (93A38A85 w/correction)
AccurateRip v2 signature : BC49403B (3E6341CF w/correction)
->Accurately ripped with different offset (v1+v2, confidence 1+1/2, offset -12)
Statistics
Read error : 0
Jitter error (maybe fixed) : 0
Retry sector count : 1
Damaged sector count : 0

Track 05
Filename : /Volumes/Hollywood and Vine/Rips/Victor Wainwright and The Train - Victor Wainwright and The Train (2018) [FLAC]/05 Money.flac

Track gain : -9.66 dB
Peak : 0.991486
CRC32 hash (test run) : F7DE9434
CRC32 hash : F7DE9434
CRC32 hash (skip zero) : CD25C707
AccurateRip v1 signature : 6FCED9DB (AB27F2AA w/correction)
AccurateRip v2 signature : D109A51F (0D171BF4 w/correction)
->Accurately ripped with different offset (v1+v2, confidence 1+1/2, offset -12)
Statistics
Read error : 0
Jitter error (maybe fixed) : 1
Retry sector count : 0
Damaged sector count : 0

Track 06
Filename : /Volumes/Hollywood and Vine/Rips/Victor Wainwright and The Train - Victor Wainwright and The Train (2018) [FLAC]/06 Thank You Lucille.flac

Track gain : -8.14 dB
Peak : 0.993988
CRC32 hash (test run) : 9FD56B61
CRC32 hash : 9FD56B61
CRC32 hash (skip zero) : C5BFF9D8
AccurateRip v1 signature : C3D1F327 (6009F0CD w/correction)
AccurateRip v2 signature : 69DA93A7 (0619AE24 w/correction)
->Accurately ripped with different offset (v1+v2, confidence 1+1/2, offset -12)
Statistics
Read error : 0
Jitter error (maybe fixed) : 0
Retry sector count : 0
Damaged sector count : 0

Track 07
Filename : /Volumes/Hollywood and Vine/Rips/Victor Wainwright and The Train - Victor Wainwright and The Train (2018) [FLAC]/07 Boogie Depression.flac

Track gain : -9.56 dB
Peak : 0.999969
CRC32 hash (test run) : 50943441
CRC32 hash : 50943441
CRC32 hash (skip zero) : E7923220
AccurateRip v1 signature : 5C68D946 (71E06C8C w/correction)
AccurateRip v2 signature : 5EA477BF (741A81CD w/correction)
->Accurately ripped with different offset (v1+v2, confidence 1+1/2, offset -12)
Statistics
Read error : 0
Jitter error (maybe fixed) : 0
Retry sector count : 0
Damaged sector count : 0

Track 08
Filename : /Volumes/Hollywood and Vine/Rips/Victor Wainwright and The Train - Victor Wainwright and The Train (2018) [FLAC]/08 Everything I Need.flac

Track gain : -7.90 dB
Peak : 0.999695
CRC32 hash (test run) : 05C106E7
CRC32 hash : 05C106E7
CRC32 hash (skip zero) : 7936413C
AccurateRip v1 signature : E3176058 (B72803B8 w/correction)
AccurateRip v2 signature : 98B929A8 (6D9FF1F6 w/correction)
->Accurately ripped with different offset (v1+v2, confidence 1+1/2, offset -12)
Statistics
Read error : 0
Jitter error (maybe fixed) : 0
Retry sector count : 0
Damaged sector count : 0

Track 09
Filename : /Volumes/Hollywood and Vine/Rips/Victor Wainwright and The Train - Victor Wainwright and The Train (2018) [FLAC]/09 Righteous.flac

Track gain : -9.22 dB
Peak : 0.992188
CRC32 hash (test run) : F006B492
CRC32 hash : F006B492
CRC32 hash (skip zero) : 49ABA3F0
AccurateRip v1 signature : 5C008765 (2581E747 w/correction)
AccurateRip v2 signature : 9F34DEF6 (68BFC216 w/correction)
->Accurately ripped with different offset (v1+v2, confidence 1+1/2, offset -12)
Statistics
Read error : 0
Jitter error (maybe fixed) : 0
Retry sector count : 0
Damaged sector count : 0

Track 10
Filename : /Volumes/Hollywood and Vine/Rips/Victor Wainwright and The Train - Victor Wainwright and The Train (2018) [FLAC]/10 I'll Start Tomorrow.flac

Track gain : -9.12 dB
Peak : 0.999939
CRC32 hash (test run) : 0C65C16D
CRC32 hash : 0C65C16D
CRC32 hash (skip zero) : 10188CC7
AccurateRip v1 signature : 09EDEF87 (0E7C5062 w/correction)
AccurateRip v2 signature : 0C8AC7D4 (11CE3577 w/correction)
->Accurately ripped with different offset (v1+v2, confidence 1+1/2, offset -12)
Statistics
Read error : 0
Jitter error (maybe fixed) : 0
Retry sector count : 0
Damaged sector count : 0

Track 11
Filename : /Volumes/Hollywood and Vine/Rips/Victor Wainwright and The Train - Victor Wainwright and The Train (2018) [FLAC]/11 Sunshine.flac

Track gain : -6.55 dB
Peak : 0.999939
CRC32 hash (test run) : E050D2B2
CRC32 hash : E050D2B2
CRC32 hash (skip zero) : 7EBD4E0C
AccurateRip v1 signature : 8A4AB967 (698FB5E5 w/correction)
AccurateRip v2 signature : EFB9FD1C (CEFC4F42 w/correction)
->Accurately ripped with different offset (v1+v2, confidence 1+1/2, offset -12)
Statistics
Read error : 0
Jitter error (maybe fixed) : 1
Retry sector count : 267
Damaged sector count : 0

Track 12
Filename : /Volumes/Hollywood and Vine/Rips/Victor Wainwright and The Train - Victor Wainwright and The Train (2018) [FLAC]/12 That's Love To Me.flac

Track gain : -8.19 dB
Peak : 0.999969
CRC32 hash (test run) : D390487C
CRC32 hash : D390487C
CRC32 hash (skip zero) : 0F78B541
AccurateRip v1 signature : 7AE4411C (B45911E4 w/correction)
AccurateRip v2 signature : 0C3359F2 (45B1E7AE w/correction)
->Accurately ripped with different offset (v1+v2, confidence 1+1/2, offset -12)
Statistics
Read error : 0
Jitter error (maybe fixed) : 0
Retry sector count : 0
Damaged sector count : 0

No errors occurred

End of status report

––-BEGIN XLD SIGNATURE––-
vl6pvNcCte1kkPghfzrstIedOCL13oOuBZxBWlq3EvkdwXc7DUImxrIn7npYipn68wtKtPkIB6RETVjiiFTdJWqmfx7rrnfSjBIRGge
––-END XLD SIGNATURE––-

Thanks to the Original ripper !