Subcategories
Tags
Language
Tags

Yannick Bovy - Celebrates Nat King Cole (2019)

Posted By: delpotro
Yannick Bovy - Celebrates Nat King Cole (2019)

Yannick Bovy - Celebrates Nat King Cole (2019)
EAC Rip | FLAC (tracks+log+.cue) - 275 Mb | MP3 CBR 320 kbps - 107 Mb | 00:42:49
Soul | Label: Top Act Music, Universal Music

Yannick Bovy, the young cronner all the way from Belgium together with Mr. Cole’s enormous repertoire, this musical celebration will surprise you with a life unforgettable hits and swing you to the moon. To refresh all the great memories with Nat King Cole, Yannick also released his album “Yannick Bovy Celebrates Nat King Cole” as a tribute to Nat King Cole’s unparalleled repertoire and gained rave reviews from fans around the Globe.
Tracklist:
1. Yannick Bovy – The Soul of Nat King Cole (02:50)
2. Yannick Bovy – Let There Be Love (02:18)
3. Yannick Bovy – Makin' Whoopee (03:16)
4. Ryan Ricks – Mambo Italiano (feat. Yannick Bovy) (02:23)
5. Yannick Bovy – I've Got You Under My Skin (03:20)
6. Yannick Bovy – I Wanna Be Around (02:50)
7. Yannick Bovy – It's Impossible (03:15)
8. Yannick Bovy – L.O.V.E. (02:53)
9. Yannick Bovy – Cheek to Cheek (03:15)
10. Yannick Bovy & Bustamante – Fly Me to the Moon (02:37)
11. Yannick Bovy – Nice Work If You Can Get It (02:12)
12. Yannick Bovy – Let's Face the Music and Dance (feat. VRT Big Band) [Live] (02:43)
13. Yannick Bovy & VRT Big Band – Smile (Live) (03:28)
14. Yannick Bovy, Sazz Leonore & VRT Big Band – Our Love Is Here to Stay (Live) (02:43)
15. Yannick Bovy & VRT Big Band – The Rules of the Road (Live) (02:40)

Exact Audio Copy V1.3 from 2. September 2016

EAC extraction logfile from 6. November 2020, 19:33

Yannick Bovy / Yannick Bovy Celebrates Nat King Cole

Used drive : PLEXTOR PX-891SAF Adapter: 1 ID: 0

Read mode : Secure
Utilize accurate stream : Yes
Defeat audio cache : Yes
Make use of C2 pointers : No

Read offset correction : 6
Overread into Lead-In and Lead-Out : No
Fill up missing offset samples with silence : Yes
Delete leading and trailing silent blocks : No
Null samples used in CRC calculations : Yes
Used interface : Native Win32 interface for Win NT & 2000
Gap handling : Appended to previous track

Used output format : User Defined Encoder
Selected bitrate : 1024 kBit/s
Quality : High
Add ID3 tag : No
Command line compressor : C:\Program Files (x86)\Exact Audio Copy\Flac\flac.exe
Additional command line options : -8 -V -T "ARTIST=%artist%" -T "TITLE=%title%" -T "ALBUM=%albumtitle%" -T "DATE=%year%" -T "TRACKNUMBER=%tracknr%" -T "GENRE=%genre%" -T "PERFORMER=%albuminterpret%" -T "COMPOSER=%composer%" %haslyrics%–tag-from-file=LYRICS="%lyricsfile%"%haslyrics% -T "ALBUMARTIST=%albumartist%" -T "DISCNUMBER=%cdnumber%" -T "TOTALDISCS=%totalcds%" -T "TOTALTRACKS=%numtracks%" -T "COMMENT=%comment%" %source% -o %dest%


TOC of the extracted CD

Track | Start | Length | Start sector | End sector
––––––––––––––––––––––––––––-
1 | 0:00.00 | 2:50.20 | 0 | 12769
2 | 2:50.20 | 2:18.70 | 12770 | 23189
3 | 5:09.15 | 3:16.36 | 23190 | 37925
4 | 8:25.51 | 2:23.23 | 37926 | 48673
5 | 10:48.74 | 3:20.34 | 48674 | 63707
6 | 14:09.33 | 2:50.13 | 63708 | 76470
7 | 16:59.46 | 3:15.43 | 76471 | 91138
8 | 20:15.14 | 2:53.66 | 91139 | 104179
9 | 23:09.05 | 3:15.21 | 104180 | 118825
10 | 26:24.26 | 2:37.16 | 118826 | 130616
11 | 29:01.42 | 2:12.45 | 130617 | 140561
12 | 31:14.12 | 2:43.15 | 140562 | 152801
13 | 33:57.27 | 3:28.71 | 152802 | 168472
14 | 37:26.23 | 2:43.36 | 168473 | 180733
15 | 40:09.59 | 2:40.03 | 180734 | 192736


Track 1

Filename D:\#EAC new\#wav+flac\#New\Yannick Bovy - Yannick Bovy Celebrates Nat King Cole\01. Yannick Bovy - The Soul Of Nat King Cole.wav

Pre-gap length 0:00:02.00

Peak level 89.1 %
Extraction speed 4.7 X
Track quality 100.0 %
Test CRC 186533DC
Copy CRC 186533DC
Track not present in AccurateRip database
Copy OK

Track 2

Filename D:\#EAC new\#wav+flac\#New\Yannick Bovy - Yannick Bovy Celebrates Nat King Cole\02. Yannick Bovy - Let There Be Love.wav

Pre-gap length 0:00:00.66

Peak level 89.1 %
Extraction speed 4.8 X
Track quality 100.0 %
Test CRC FB050A2E
Copy CRC FB050A2E
Track not present in AccurateRip database
Copy OK

Track 3

Filename D:\#EAC new\#wav+flac\#New\Yannick Bovy - Yannick Bovy Celebrates Nat King Cole\03. Yannick Bovy - Makin' Whoopee.wav

Pre-gap length 0:00:01.24

Peak level 89.1 %
Extraction speed 5.5 X
Track quality 100.0 %
Test CRC 4DCFED8E
Copy CRC 4DCFED8E
Track not present in AccurateRip database
Copy OK

Track 4

Filename D:\#EAC new\#wav+flac\#New\Yannick Bovy - Yannick Bovy Celebrates Nat King Cole\04. Yannick Bovy & Ryan Ricks - Mambo Italiano.wav

Pre-gap length 0:00:01.40

Peak level 89.1 %
Extraction speed 5.5 X
Track quality 100.0 %
Test CRC 2C5A742E
Copy CRC 2C5A742E
Track not present in AccurateRip database
Copy OK

Track 5

Filename D:\#EAC new\#wav+flac\#New\Yannick Bovy - Yannick Bovy Celebrates Nat King Cole\05. Yannick Bovy - I've Got You Under My Skin.wav

Pre-gap length 0:00:01.16

Peak level 89.1 %
Extraction speed 6.2 X
Track quality 100.0 %
Test CRC 6BA80182
Copy CRC 6BA80182
Track not present in AccurateRip database
Copy OK

Track 6

Filename D:\#EAC new\#wav+flac\#New\Yannick Bovy - Yannick Bovy Celebrates Nat King Cole\06. Yannick Bovy - I Wanna Be Around.wav

Pre-gap length 0:00:02.45

Peak level 89.1 %
Extraction speed 6.3 X
Track quality 100.0 %
Test CRC EEC7113D
Copy CRC EEC7113D
Track not present in AccurateRip database
Copy OK

Track 7

Filename D:\#EAC new\#wav+flac\#New\Yannick Bovy - Yannick Bovy Celebrates Nat King Cole\07. Yannick Bovy - It's Impossible.wav

Pre-gap length 0:00:02.14

Peak level 67.4 %
Extraction speed 6.7 X
Track quality 100.0 %
Test CRC 3CF99A14
Copy CRC 3CF99A14
Track not present in AccurateRip database
Copy OK

Track 8

Filename D:\#EAC new\#wav+flac\#New\Yannick Bovy - Yannick Bovy Celebrates Nat King Cole\08. Yannick Bovy - L.O.V.E..wav

Pre-gap length 0:00:02.09

Peak level 89.1 %
Extraction speed 6.9 X
Track quality 100.0 %
Test CRC A6422141
Copy CRC A6422141
Track not present in AccurateRip database
Copy OK

Track 9

Filename D:\#EAC new\#wav+flac\#New\Yannick Bovy - Yannick Bovy Celebrates Nat King Cole\09. Yannick Bovy - Cheek To Cheek.wav

Pre-gap length 0:00:02.30

Peak level 88.9 %
Extraction speed 7.3 X
Track quality 100.0 %
Test CRC 62CAC2E4
Copy CRC 62CAC2E4
Track not present in AccurateRip database
Copy OK

Track 10

Filename D:\#EAC new\#wav+flac\#New\Yannick Bovy - Yannick Bovy Celebrates Nat King Cole\10. Yannick Bovy & Bustamante - Fly Me To The Moon.wav

Pre-gap length 0:00:02.77

Peak level 89.1 %
Extraction speed 7.3 X
Track quality 100.0 %
Test CRC 75911672
Copy CRC 75911672
Track not present in AccurateRip database
Copy OK

Track 11

Filename D:\#EAC new\#wav+flac\#New\Yannick Bovy - Yannick Bovy Celebrates Nat King Cole\11. Yannick Bovy - Nice Work If You Can Get It.wav

Peak level 89.1 %
Extraction speed 7.2 X
Track quality 100.0 %
Test CRC 6ADEB7C9
Copy CRC 6ADEB7C9
Track not present in AccurateRip database
Copy OK

Track 12

Filename D:\#EAC new\#wav+flac\#New\Yannick Bovy - Yannick Bovy Celebrates Nat King Cole\12. Yannick Bovy & The VRT Big Band - Let's Face The Music And Dance (Live).wav

Pre-gap length 0:00:01.46

Peak level 89.1 %
Extraction speed 7.7 X
Track quality 100.0 %
Test CRC 17FA5213
Copy CRC 17FA5213
Track not present in AccurateRip database
Copy OK

Track 13

Filename D:\#EAC new\#wav+flac\#New\Yannick Bovy - Yannick Bovy Celebrates Nat King Cole\13. Yannick Bovy - Smile - Live At Flagey- Brussels 2018.wav

Pre-gap length 0:00:01.61

Peak level 89.1 %
Extraction speed 8.2 X
Track quality 100.0 %
Test CRC B516C841
Copy CRC B516C841
Track not present in AccurateRip database
Copy OK

Track 14

Filename D:\#EAC new\#wav+flac\#New\Yannick Bovy - Yannick Bovy Celebrates Nat King Cole\14. Yannick Bovy & Sazz Leonore - Our Love Is Here To Stay ( Live).wav

Peak level 89.1 %
Extraction speed 8.1 X
Track quality 100.0 %
Test CRC A17DAB4A
Copy CRC A17DAB4A
Track not present in AccurateRip database
Copy OK

Track 15

Filename D:\#EAC new\#wav+flac\#New\Yannick Bovy - Yannick Bovy Celebrates Nat King Cole\15. Yannick Bovy - The Rules Of The Road (Live).wav

Peak level 89.1 %
Extraction speed 6.2 X
Track quality 99.9 %
Test CRC B2C1D2B6
Copy CRC B2C1D2B6
Track not present in AccurateRip database
Copy OK


None of the tracks are present in the AccurateRip database

No errors occurred

End of status report

–– CUETools DB Plugin V2.1.6

[CTDB TOCID: TkzRDX_4ADVzLzT.N92ulZW.seA-] disk not present in database
Submit result: TkzRDX_4ADVzLzT.N92ulZW.seA- has been uploaded


==== Log checksum A802285AB08625EEC4F9EFD910E29D72920E554F676B2DE57463002C498278F9 ====

––––––––––––––––––––––––––––––

Exact Audio Copy V1.3 from 2. September 2016

EAC extraction logfile from 6. November 2020, 19:33

Yannick Bovy / Yannick Bovy Celebrates Nat King Cole

Used drive : PLEXTOR PX-891SAF Adapter: 1 ID: 0

Read mode : Secure
Utilize accurate stream : Yes
Defeat audio cache : Yes
Make use of C2 pointers : No

Read offset correction : 6
Overread into Lead-In and Lead-Out : No
Fill up missing offset samples with silence : Yes
Delete leading and trailing silent blocks : No
Null samples used in CRC calculations : Yes
Used interface : Native Win32 interface for Win NT & 2000
Gap handling : Appended to previous track

Used output format : User Defined Encoder
Selected bitrate : 1024 kBit/s
Quality : High
Add ID3 tag : No
Command line compressor : C:\Program Files (x86)\Exact Audio Copy\Flac\flac.exe
Additional command line options : -8 -V -T "ARTIST=%artist%" -T "TITLE=%title%" -T "ALBUM=%albumtitle%" -T "DATE=%year%" -T "TRACKNUMBER=%tracknr%" -T "GENRE=%genre%" -T "PERFORMER=%albuminterpret%" -T "COMPOSER=%composer%" %haslyrics%–tag-from-file=LYRICS="%lyricsfile%"%haslyrics% -T "ALBUMARTIST=%albumartist%" -T "DISCNUMBER=%cdnumber%" -T "TOTALDISCS=%totalcds%" -T "TOTALTRACKS=%numtracks%" -T "COMMENT=%comment%" %source% -o %dest%


TOC of the extracted CD

Track | Start | Length | Start sector | End sector
––––––––––––––––––––––––––––-
1 | 0:00.00 | 2:50.20 | 0 | 12769
2 | 2:50.20 | 2:18.70 | 12770 | 23189
3 | 5:09.15 | 3:16.36 | 23190 | 37925
4 | 8:25.51 | 2:23.23 | 37926 | 48673
5 | 10:48.74 | 3:20.34 | 48674 | 63707
6 | 14:09.33 | 2:50.13 | 63708 | 76470
7 | 16:59.46 | 3:15.43 | 76471 | 91138
8 | 20:15.14 | 2:53.66 | 91139 | 104179
9 | 23:09.05 | 3:15.21 | 104180 | 118825
10 | 26:24.26 | 2:37.16 | 118826 | 130616
11 | 29:01.42 | 2:12.45 | 130617 | 140561
12 | 31:14.12 | 2:43.15 | 140562 | 152801
13 | 33:57.27 | 3:28.71 | 152802 | 168472
14 | 37:26.23 | 2:43.36 | 168473 | 180733
15 | 40:09.59 | 2:40.03 | 180734 | 192736


Track 1

Filename D:\#EAC new\#wav+flac\#New\Yannick Bovy - Yannick Bovy Celebrates Nat King Cole\01. Yannick Bovy - The Soul Of Nat King Cole.wav

Pre-gap length 0:00:02.00

Peak level 89.1 %
Extraction speed 4.7 X
Track quality 100.0 %
Test CRC 186533DC
Copy CRC 186533DC
Track not present in AccurateRip database
Copy OK

Track 2

Filename D:\#EAC new\#wav+flac\#New\Yannick Bovy - Yannick Bovy Celebrates Nat King Cole\02. Yannick Bovy - Let There Be Love.wav

Pre-gap length 0:00:00.66

Peak level 89.1 %
Extraction speed 4.8 X
Track quality 100.0 %
Test CRC FB050A2E
Copy CRC FB050A2E
Track not present in AccurateRip database
Copy OK

Track 3

Filename D:\#EAC new\#wav+flac\#New\Yannick Bovy - Yannick Bovy Celebrates Nat King Cole\03. Yannick Bovy - Makin' Whoopee.wav

Pre-gap length 0:00:01.24

Peak level 89.1 %
Extraction speed 5.5 X
Track quality 100.0 %
Test CRC 4DCFED8E
Copy CRC 4DCFED8E
Track not present in AccurateRip database
Copy OK

Track 4

Filename D:\#EAC new\#wav+flac\#New\Yannick Bovy - Yannick Bovy Celebrates Nat King Cole\04. Yannick Bovy & Ryan Ricks - Mambo Italiano.wav

Pre-gap length 0:00:01.40

Peak level 89.1 %
Extraction speed 5.5 X
Track quality 100.0 %
Test CRC 2C5A742E
Copy CRC 2C5A742E
Track not present in AccurateRip database
Copy OK

Track 5

Filename D:\#EAC new\#wav+flac\#New\Yannick Bovy - Yannick Bovy Celebrates Nat King Cole\05. Yannick Bovy - I've Got You Under My Skin.wav

Pre-gap length 0:00:01.16

Peak level 89.1 %
Extraction speed 6.2 X
Track quality 100.0 %
Test CRC 6BA80182
Copy CRC 6BA80182
Track not present in AccurateRip database
Copy OK

Track 6

Filename D:\#EAC new\#wav+flac\#New\Yannick Bovy - Yannick Bovy Celebrates Nat King Cole\06. Yannick Bovy - I Wanna Be Around.wav

Pre-gap length 0:00:02.45

Peak level 89.1 %
Extraction speed 6.3 X
Track quality 100.0 %
Test CRC EEC7113D
Copy CRC EEC7113D
Track not present in AccurateRip database
Copy OK

Track 7

Filename D:\#EAC new\#wav+flac\#New\Yannick Bovy - Yannick Bovy Celebrates Nat King Cole\07. Yannick Bovy - It's Impossible.wav

Pre-gap length 0:00:02.14

Peak level 67.4 %
Extraction speed 6.7 X
Track quality 100.0 %
Test CRC 3CF99A14
Copy CRC 3CF99A14
Track not present in AccurateRip database
Copy OK

Track 8

Filename D:\#EAC new\#wav+flac\#New\Yannick Bovy - Yannick Bovy Celebrates Nat King Cole\08. Yannick Bovy - L.O.V.E..wav

Pre-gap length 0:00:02.09

Peak level 89.1 %
Extraction speed 6.9 X
Track quality 100.0 %
Test CRC A6422141
Copy CRC A6422141
Track not present in AccurateRip database
Copy OK

Track 9

Filename D:\#EAC new\#wav+flac\#New\Yannick Bovy - Yannick Bovy Celebrates Nat King Cole\09. Yannick Bovy - Cheek To Cheek.wav

Pre-gap length 0:00:02.30

Peak level 88.9 %
Extraction speed 7.3 X
Track quality 100.0 %
Test CRC 62CAC2E4
Copy CRC 62CAC2E4
Track not present in AccurateRip database
Copy OK

Track 10

Filename D:\#EAC new\#wav+flac\#New\Yannick Bovy - Yannick Bovy Celebrates Nat King Cole\10. Yannick Bovy & Bustamante - Fly Me To The Moon.wav

Pre-gap length 0:00:02.77

Peak level 89.1 %
Extraction speed 7.3 X
Track quality 100.0 %
Test CRC 75911672
Copy CRC 75911672
Track not present in AccurateRip database
Copy OK

Track 11

Filename D:\#EAC new\#wav+flac\#New\Yannick Bovy - Yannick Bovy Celebrates Nat King Cole\11. Yannick Bovy - Nice Work If You Can Get It.wav

Peak level 89.1 %
Extraction speed 7.2 X
Track quality 100.0 %
Test CRC 6ADEB7C9
Copy CRC 6ADEB7C9
Track not present in AccurateRip database
Copy OK

Track 12

Filename D:\#EAC new\#wav+flac\#New\Yannick Bovy - Yannick Bovy Celebrates Nat King Cole\12. Yannick Bovy & The VRT Big Band - Let's Face The Music And Dance (Live).wav

Pre-gap length 0:00:01.46

Peak level 89.1 %
Extraction speed 7.7 X
Track quality 100.0 %
Test CRC 17FA5213
Copy CRC 17FA5213
Track not present in AccurateRip database
Copy OK

Track 13

Filename D:\#EAC new\#wav+flac\#New\Yannick Bovy - Yannick Bovy Celebrates Nat King Cole\13. Yannick Bovy - Smile - Live At Flagey- Brussels 2018.wav

Pre-gap length 0:00:01.61

Peak level 89.1 %
Extraction speed 8.2 X
Track quality 100.0 %
Test CRC B516C841
Copy CRC B516C841
Track not present in AccurateRip database
Copy OK

Track 14

Filename D:\#EAC new\#wav+flac\#New\Yannick Bovy - Yannick Bovy Celebrates Nat King Cole\14. Yannick Bovy & Sazz Leonore - Our Love Is Here To Stay ( Live).wav

Peak level 89.1 %
Extraction speed 8.1 X
Track quality 100.0 %
Test CRC A17DAB4A
Copy CRC A17DAB4A
Track not present in AccurateRip database
Copy OK

Track 15

Filename D:\#EAC new\#wav+flac\#New\Yannick Bovy - Yannick Bovy Celebrates Nat King Cole\15. Yannick Bovy - The Rules Of The Road (Live).wav

Peak level 89.1 %
Extraction speed 6.2 X
Track quality 99.9 %
Test CRC B2C1D2B6
Copy CRC B2C1D2B6
Track not present in AccurateRip database
Copy OK


None of the tracks are present in the AccurateRip database

No errors occurred

End of status report

–– CUETools DB Plugin V2.1.6

[CTDB TOCID: TkzRDX_4ADVzLzT.N92ulZW.seA-] disk not present in database
Submit result: TkzRDX_4ADVzLzT.N92ulZW.seA- has been uploaded


==== Log checksum A802285AB08625EEC4F9EFD910E29D72920E554F676B2DE57463002C498278F9 ====

Thanks to the Original ripper !