Tags
Language
Tags
April 2024
Su Mo Tu We Th Fr Sa
31 1 2 3 4 5 6
7 8 9 10 11 12 13
14 15 16 17 18 19 20
21 22 23 24 25 26 27
28 29 30 1 2 3 4

Art Of Noise - And What Have You Done With My Body, God (4CD) (2006) {ZTT} **[RE-UP]**

Posted By: TestTickles
Art Of Noise - And What Have You Done With My Body, God (4CD) (2006) {ZTT} **[RE-UP]**

Art Of Noise - And What Have You Done With My Body, God (4CD) (2006) {ZTT}
EAC Rip | FLAC with CUE and log | scans | 1.13 gb
MP3 CBR 320kbps | RAR | 477 mb
Genre: electronic, electronic pop

And What Have You Done With My Body, God is a 4CD box set by British electronic quintet Art Of Noise. It features early/primitive versions of songs that would be on their first two releases for the Zang Tuum Tumb label, along with outtakes, alternate takes, and unique mixes not used, plus programs made for cassingles. This consists of partial scans, everything but the booklet due to inability of scanning it.

Art Of Noise - And What Have You Done With My Body, God (4CD) (2006) {ZTT} **[RE-UP]**

DISC ONE: The Very Start Of Noise
01. Beat Box (One Made Earlier)
02. Once Upon A Lime
03. War (Demo)
04. Close To The Edge
05. Confession
06. Moments In Love
07. Sign Of Relief
08. Who's Afraid Of Scale
09. So What Happens Now? (Take 2)
10. The Subject Has Moved Left
11. It's Not Fair
12. Close To The Edge (Ruff Mix)
13. A Time For Fear (Who's Afraid?)
14. Moments In Bed
15. Hands Off Love (Untitled Bonus Track)

DISC TWO: Found Sounds & Field Trips
01. Moments In Love (12" B Side Idea)
02. Tears Out Of A Stone
03. Samba #2
04. The Chain Of Chance
05. Fairlight-In-The-Being
06. Diversions 3
07. Close (To Being Compiled)
08. Diversions 5
09. Damn It All!
10. Structure
11. The Angel Reel: Hymn 1 (Take 2)
12. The Angel Reel: Hymn 3
13. The Angel Reel: Fairground
14. And What Have You Done With My Body, God?
15. Klimax
16. Who Knew

DISC THREE: Who's Afraid Of…Goodbye
01. War (Demo 4)
02. The Focus Of Satisfaction
03. Moments In Love (7" Master Rejected)
04. It Stopped
05. The Uncertainty Of Syrup
06. The Long Hello
07. The Vacuum Divine
08. The Ambassadors Reel: Beat Box
09. The Ambassadors Reel: Medley
10. The Ambassadors Reel: Oobly
11. Goodbye Art Of Noise
12. Moments In Love (Untitled Bonus Track)

DISC FOUR: Extended Play
Into Battle with The Art Of Noise
01. Battle
02. Beat Box
03. The Army Now
04. Donna
05. Moments In Love
06. Bright Noise
07. Flesh In Armour
08. Comes And Goes
09. Moment In Love

That Was Close
10. Diversion Eight, Diversion Two, Closest, Close-Up, Close (To The Edit), Closed

The Tortoise & The Hare
11. Moments In Love (From Battle To Beaten)
12. Love Beat
13. In Case We Sneezed

Besides Close
14. A Time To Hear (Who's Listening)
15. (Do) Donna (Do)
16. Battle Outtakes (Untitled Bonus Track)


Compiled and curated by Ian Peel
Produced by Peter Gardiner for ZTT Records, assisted by Vicky Ball
With thanks to Paul Barton and Joe Deville

EAC extraction logfile from 5. March 2017, 5:22 for CD
Art Of Noise / And What Have You Done With My Body, God (Disc 1)

Used drive : TSSTcorpDVD+-RW TS-H653B Adapter: 2 ID: 0
Read mode : Secure with NO C2, accurate stream, disable cache
Read offset correction : 6
Overread into Lead-In and Lead-Out : No

Used output format : Internal WAV Routines
44.100 Hz; 16 Bit; Stereo

Other options :
Fill up missing offset samples with silence : Yes
Delete leading and trailing silent blocks : No
Native Win32 interface for Win NT & 2000


Track 1
Filename C:\Documents and Settings\Desktop\Art Of Noise - And What Have You Done With My Body, God (4CD) (2006) [FLAC] {ZTT}\Disc 1 - The Very Start Of Noise\01 - Beat Box

(One Made Earlier).wav

Pre-gap length 0:00:02.00

Peak level 94.2 %
Track quality 100.0 %
Test CRC AAC4DBCF
Copy CRC AAC4DBCF
Copy OK

Track 2
Filename C:\Documents and Settings\Desktop\Art Of Noise - And What Have You Done With My Body, God (4CD) (2006) [FLAC] {ZTT}\Disc 1 - The Very Start Of Noise\02 - Once Upon

A Lime.wav

Pre-gap length 0:00:00.69

Peak level 91.5 %
Track quality 100.0 %
Test CRC 1B145BDF
Copy CRC 1B145BDF
Copy OK

Track 3
Filename C:\Documents and Settings\Desktop\Art Of Noise - And What Have You Done With My Body, God (4CD) (2006) [FLAC] {ZTT}\Disc 1 - The Very Start Of Noise\03 - War

(Demo).wav

Pre-gap length 0:00:00.68

Peak level 97.8 %
Track quality 100.0 %
Test CRC DC1E5C57
Copy CRC DC1E5C57
Copy OK

Track 4
Filename C:\Documents and Settings\Desktop\Art Of Noise - And What Have You Done With My Body, God (4CD) (2006) [FLAC] {ZTT}\Disc 1 - The Very Start Of Noise\04 - Close To

The Edge.wav

Pre-gap length 0:00:00.68

Peak level 100.0 %
Track quality 100.0 %
Test CRC 2C275261
Copy CRC 2C275261
Copy OK

Track 5
Filename C:\Documents and Settings\Desktop\Art Of Noise - And What Have You Done With My Body, God (4CD) (2006) [FLAC] {ZTT}\Disc 1 - The Very Start Of Noise\05 -

Confession.wav

Pre-gap length 0:00:00.68

Peak level 100.0 %
Track quality 100.0 %
Test CRC FD0D5F36
Copy CRC FD0D5F36
Copy OK

Track 6
Filename C:\Documents and Settings\Desktop\Art Of Noise - And What Have You Done With My Body, God (4CD) (2006) [FLAC] {ZTT}\Disc 1 - The Very Start Of Noise\06 - Moments

In Love.wav

Pre-gap length 0:00:00.68

Peak level 100.0 %
Track quality 100.0 %
Test CRC D03E410D
Copy CRC D03E410D
Copy OK

Track 7
Filename C:\Documents and Settings\Desktop\Art Of Noise - And What Have You Done With My Body, God (4CD) (2006) [FLAC] {ZTT}\Disc 1 - The Very Start Of Noise\07 - Sign Of

Relief.wav

Pre-gap length 0:00:00.66

Peak level 99.6 %
Track quality 99.8 %
Test CRC 5EF68D80
Copy CRC 5EF68D80
Copy OK

Track 8
Filename C:\Documents and Settings\Desktop\Art Of Noise - And What Have You Done With My Body, God (4CD) (2006) [FLAC] {ZTT}\Disc 1 - The Very Start Of Noise\08 - Who's

Afraid Of Scale .wav

Pre-gap length 0:00:00.68

Peak level 89.0 %
Track quality 100.0 %
Test CRC 369A3142
Copy CRC 369A3142
Copy OK

Track 9
Filename C:\Documents and Settings\Desktop\Art Of Noise - And What Have You Done With My Body, God (4CD) (2006) [FLAC] {ZTT}\Disc 1 - The Very Start Of Noise\09 - So What

Happens Now (Take 2).wav

Pre-gap length 0:00:00.68

Peak level 87.5 %
Track quality 100.0 %
Test CRC A7B4B9A7
Copy CRC A7B4B9A7
Copy OK

Track 10
Filename C:\Documents and Settings\Desktop\Art Of Noise - And What Have You Done With My Body, God (4CD) (2006) [FLAC] {ZTT}\Disc 1 - The Very Start Of Noise\10 - The

Subject Has Moved Left.wav

Pre-gap length 0:00:00.68

Peak level 100.0 %
Track quality 100.0 %
Test CRC AB50F061
Copy CRC AB50F061
Copy OK

Track 11
Filename C:\Documents and Settings\Desktop\Art Of Noise - And What Have You Done With My Body, God (4CD) (2006) [FLAC] {ZTT}\Disc 1 - The Very Start Of Noise\11 - It's Not

Fair.wav

Pre-gap length 0:00:00.85

Peak level 77.4 %
Track quality 99.9 %
Test CRC B2594BFE
Copy CRC B2594BFE
Copy OK

Track 12
Filename C:\Documents and Settings\Desktop\Art Of Noise - And What Have You Done With My Body, God (4CD) (2006) [FLAC] {ZTT}\Disc 1 - The Very Start Of Noise\12 - Close To

The Edge (Ruff Mix).wav

Pre-gap length 0:00:00.68

Peak level 100.0 %
Track quality 100.0 %
Test CRC 72D35B7E
Copy CRC 72D35B7E
Copy OK

Track 13
Filename C:\Documents and Settings\Desktop\Art Of Noise - And What Have You Done With My Body, God (4CD) (2006) [FLAC] {ZTT}\Disc 1 - The Very Start Of Noise\13 - A Time

For Fear (Who's Afraid ).wav

Pre-gap length 0:00:00.68

Peak level 87.9 %
Track quality 100.0 %
Test CRC EBD7047B
Copy CRC EBD7047B
Copy OK

Track 14
Filename C:\Documents and Settings\Desktop\Art Of Noise - And What Have You Done With My Body, God (4CD) (2006) [FLAC] {ZTT}\Disc 1 - The Very Start Of Noise\14 - Moments

In Bed.wav

Pre-gap length 0:00:00.68

Peak level 100.0 %
Track quality 100.0 %
Test CRC 0478F093
Copy CRC 0478F093
Copy OK

Track 15
Filename C:\Documents and Settings\Desktop\Art Of Noise - And What Have You Done With My Body, God (4CD) (2006) [FLAC] {ZTT}\Disc 1 - The Very Start Of Noise\15 -

(Untitled).wav

Pre-gap length 0:00:00.68

Peak level 60.5 %
Track quality 100.0 %
Test CRC 147670AF
Copy CRC 147670AF
Copy OK

No errors occured


End of status report







EAC extraction logfile from 5. March 2017, 5:42 for CD
Art Of Noise / And What Have You Done With My Body, God (Disc 2)

Used drive : TSSTcorpDVD+-RW TS-H653B Adapter: 2 ID: 0
Read mode : Secure with NO C2, accurate stream, disable cache
Read offset correction : 6
Overread into Lead-In and Lead-Out : No

Used output format : Internal WAV Routines
44.100 Hz; 16 Bit; Stereo

Other options :
Fill up missing offset samples with silence : Yes
Delete leading and trailing silent blocks : No
Native Win32 interface for Win NT & 2000


Track 1
Filename C:\Documents and Settings\Desktop\Art Of Noise - And What Have You Done With My Body, God (4CD) (2006) [FLAC] {ZTT}\Disc 2 - Found Sounds & Field Trips\01 -

Moments In Love (12'' B Side Idea).wav

Pre-gap length 0:00:02.00

Peak level 98.9 %
Track quality 100.0 %
Test CRC 52B2BC5B
Copy CRC 52B2BC5B
Copy OK

Track 2
Filename C:\Documents and Settings\Desktop\Art Of Noise - And What Have You Done With My Body, God (4CD) (2006) [FLAC] {ZTT}\Disc 2 - Found Sounds & Field Trips\02 - Tears

Out Of A Stone.wav

Pre-gap length 0:00:00.68

Peak level 73.7 %
Track quality 100.0 %
Test CRC 2270956D
Copy CRC 2270956D
Copy OK

Track 3
Filename C:\Documents and Settings\Desktop\Art Of Noise - And What Have You Done With My Body, God (4CD) (2006) [FLAC] {ZTT}\Disc 2 - Found Sounds & Field Trips\03 - Samba

#2.wav

Pre-gap length 0:00:00.68

Peak level 70.4 %
Track quality 99.7 %
Test CRC F50C174A
Copy CRC F50C174A
Copy OK

Track 4
Filename C:\Documents and Settings\Desktop\Art Of Noise - And What Have You Done With My Body, God (4CD) (2006) [FLAC] {ZTT}\Disc 2 - Found Sounds & Field Trips\04 - The

Chain Of Chance.wav

Pre-gap length 0:00:00.68

Peak level 75.2 %
Track quality 100.0 %
Test CRC 9C6DA508
Copy CRC 9C6DA508
Copy OK

Track 5
Filename C:\Documents and Settings\Desktop\Art Of Noise - And What Have You Done With My Body, God (4CD) (2006) [FLAC] {ZTT}\Disc 2 - Found Sounds & Field Trips\05 -

Fairlight-In-The-Being.wav

Pre-gap length 0:00:00.68

Peak level 84.7 %
Track quality 100.0 %
Test CRC B49E6B8B
Copy CRC B49E6B8B
Copy OK

Track 6
Filename C:\Documents and Settings\Desktop\Art Of Noise - And What Have You Done With My Body, God (4CD) (2006) [FLAC] {ZTT}\Disc 2 - Found Sounds & Field Trips\06 -

Diversions 3.wav

Pre-gap length 0:00:00.68

Peak level 99.6 %
Track quality 100.0 %
Test CRC C5BA9CE1
Copy CRC C5BA9CE1
Copy OK

Track 7
Filename C:\Documents and Settings\Desktop\Art Of Noise - And What Have You Done With My Body, God (4CD) (2006) [FLAC] {ZTT}\Disc 2 - Found Sounds & Field Trips\07 - Close

(To Being Compiled).wav

Pre-gap length 0:00:00.68

Peak level 93.8 %
Track quality 100.0 %
Test CRC EA626AC0
Copy CRC EA626AC0
Copy OK

Track 8
Filename C:\Documents and Settings\Desktop\Art Of Noise - And What Have You Done With My Body, God (4CD) (2006) [FLAC] {ZTT}\Disc 2 - Found Sounds & Field Trips\08 -

Diversions 5.wav

Pre-gap length 0:00:00.68

Peak level 92.6 %
Track quality 100.0 %
Test CRC C8BD5442
Copy CRC C8BD5442
Copy OK

Track 9
Filename C:\Documents and Settings\Desktop\Art Of Noise - And What Have You Done With My Body, God (4CD) (2006) [FLAC] {ZTT}\Disc 2 - Found Sounds & Field Trips\09 - Damn

It All!.wav

Pre-gap length 0:00:00.68

Peak level 62.0 %
Track quality 100.0 %
Test CRC E50D65F4
Copy CRC E50D65F4
Copy OK

Track 10
Filename C:\Documents and Settings\Desktop\Art Of Noise - And What Have You Done With My Body, God (4CD) (2006) [FLAC] {ZTT}\Disc 2 - Found Sounds & Field Trips\10 -

Structure.wav

Pre-gap length 0:00:00.68

Peak level 84.5 %
Track quality 100.0 %
Test CRC 4E8FE337
Copy CRC 4E8FE337
Copy OK

Track 11
Filename C:\Documents and Settings\Desktop\Art Of Noise - And What Have You Done With My Body, God (4CD) (2006) [FLAC] {ZTT}\Disc 2 - Found Sounds & Field Trips\11 - The

Angel Reel- Hymn 1 (Take 2).wav

Pre-gap length 0:00:00.68

Peak level 65.6 %
Track quality 100.0 %
Test CRC 72965E3E
Copy CRC 72965E3E
Copy OK

Track 12
Filename C:\Documents and Settings\Desktop\Art Of Noise - And What Have You Done With My Body, God (4CD) (2006) [FLAC] {ZTT}\Disc 2 - Found Sounds & Field Trips\12 - The

Angel Reel- Hymn 3.wav

Pre-gap length 0:00:00.68

Peak level 45.5 %
Track quality 100.0 %
Test CRC 336EAE18
Copy CRC 336EAE18
Copy OK

Track 13
Filename C:\Documents and Settings\Desktop\Art Of Noise - And What Have You Done With My Body, God (4CD) (2006) [FLAC] {ZTT}\Disc 2 - Found Sounds & Field Trips\13 - The

Angel Reel- Fairground.wav

Pre-gap length 0:00:00.68

Peak level 47.5 %
Track quality 99.7 %
Test CRC 85C8ADB6
Copy CRC 85C8ADB6
Copy OK

Track 14
Filename C:\Documents and Settings\Desktop\Art Of Noise - And What Have You Done With My Body, God (4CD) (2006) [FLAC] {ZTT}\Disc 2 - Found Sounds & Field Trips\14 - And

What Have You Done With My Body, God .wav

Pre-gap length 0:00:00.68

Peak level 72.2 %
Track quality 100.0 %
Test CRC E6DB1DFA
Copy CRC E6DB1DFA
Copy OK

Track 15
Filename C:\Documents and Settings\Desktop\Art Of Noise - And What Have You Done With My Body, God (4CD) (2006) [FLAC] {ZTT}\Disc 2 - Found Sounds & Field Trips\15 -

Klimax.wav

Pre-gap length 0:00:00.68

Peak level 89.7 %
Track quality 100.0 %
Test CRC 7B4281EF
Copy CRC 7B4281EF
Copy OK

Track 16
Filename C:\Documents and Settings\Desktop\Art Of Noise - And What Have You Done With My Body, God (4CD) (2006) [FLAC] {ZTT}\Disc 2 - Found Sounds & Field Trips\16 - Who

Knew .wav

Pre-gap length 0:00:00.68

Peak level 72.7 %
Track quality 100.0 %
Test CRC 2F266046
Copy CRC 2F266046
Copy OK

No errors occured


End of status report







EAC extraction logfile from 5. March 2017, 6:04 for CD
Art Of Noise / nd What Have You Done With My Body, God (Disc 3)

Used drive : TSSTcorpDVD+-RW TS-H653B Adapter: 2 ID: 0
Read mode : Secure with NO C2, accurate stream, disable cache
Read offset correction : 6
Overread into Lead-In and Lead-Out : No

Used output format : Internal WAV Routines
44.100 Hz; 16 Bit; Stereo

Other options :
Fill up missing offset samples with silence : Yes
Delete leading and trailing silent blocks : No
Native Win32 interface for Win NT & 2000


Track 1
Filename C:\Documents and Settings\Desktop\Art Of Noise - And What Have You Done With My Body, God (4CD) (2006) [FLAC] {ZTT}\Disc 3 - Who's Afraid Of…Goodbye\01 - War

(Demo 4).wav

Pre-gap length 0:00:02.00

Peak level 82.2 %
Track quality 99.9 %
Test CRC 21618664
Copy CRC 21618664
Copy OK

Track 2
Filename C:\Documents and Settings\Desktop\Art Of Noise - And What Have You Done With My Body, God (4CD) (2006) [FLAC] {ZTT}\Disc 3 - Who's Afraid Of…Goodbye\02 - The

Focus Of Satisfaction.wav

Pre-gap length 0:00:00.68

Peak level 77.8 %
Track quality 100.0 %
Test CRC D8BDBE3D
Copy CRC D8BDBE3D
Copy OK

Track 3
Filename C:\Documents and Settings\Desktop\Art Of Noise - And What Have You Done With My Body, God (4CD) (2006) [FLAC] {ZTT}\Disc 3 - Who's Afraid Of…Goodbye\03 - Moments

In Love (7'' Master Rejected).wav

Pre-gap length 0:00:00.68

Peak level 85.5 %
Track quality 100.0 %
Test CRC FCE364E3
Copy CRC FCE364E3
Copy OK

Track 4
Filename C:\Documents and Settings\Desktop\Art Of Noise - And What Have You Done With My Body, God (4CD) (2006) [FLAC] {ZTT}\Disc 3 - Who's Afraid Of…Goodbye\04 - It

Stopped.wav

Pre-gap length 0:00:00.68

Peak level 100.0 %
Track quality 100.0 %
Test CRC EB741204
Copy CRC EB741204
Copy OK

Track 5
Filename C:\Documents and Settings\Desktop\Art Of Noise - And What Have You Done With My Body, God (4CD) (2006) [FLAC] {ZTT}\Disc 3 - Who's Afraid Of…Goodbye\05 - The

Uncertainty Of Syrup.wav

Pre-gap length 0:00:00.68

Peak level 78.4 %
Track quality 100.0 %
Test CRC 7BF0C63F
Copy CRC 7BF0C63F
Copy OK

Track 6
Filename C:\Documents and Settings\Desktop\Art Of Noise - And What Have You Done With My Body, God (4CD) (2006) [FLAC] {ZTT}\Disc 3 - Who's Afraid Of…Goodbye\06 - The

Long Hello.wav

Pre-gap length 0:00:00.68

Peak level 67.2 %
Track quality 99.9 %
Test CRC 4B447E2C
Copy CRC 4B447E2C
Copy OK

Track 7
Filename C:\Documents and Settings\Desktop\Art Of Noise - And What Have You Done With My Body, God (4CD) (2006) [FLAC] {ZTT}\Disc 3 - Who's Afraid Of…Goodbye\07 - The

Vacuum Divine.wav

Pre-gap length 0:00:00.68

Peak level 83.9 %
Track quality 99.7 %
Test CRC 345043BC
Copy CRC 345043BC
Copy OK

Track 8
Filename C:\Documents and Settings\Desktop\Art Of Noise - And What Have You Done With My Body, God (4CD) (2006) [FLAC] {ZTT}\Disc 3 - Who's Afraid Of…Goodbye\08 - The

Ambassadors Reel- Beat Box.wav

Pre-gap length 0:00:00.68

Peak level 94.1 %
Track quality 100.0 %
Test CRC EA3264B2
Copy CRC EA3264B2
Copy OK

Track 9
Filename C:\Documents and Settings\Desktop\Art Of Noise - And What Have You Done With My Body, God (4CD) (2006) [FLAC] {ZTT}\Disc 3 - Who's Afraid Of…Goodbye\09 - The

Ambassadors Reel- Medley.wav

Pre-gap length 0:00:00.68

Peak level 85.0 %
Track quality 99.9 %
Test CRC A0DDC118
Copy CRC A0DDC118
Copy OK

Track 10
Filename C:\Documents and Settings\Desktop\Art Of Noise - And What Have You Done With My Body, God (4CD) (2006) [FLAC] {ZTT}\Disc 3 - Who's Afraid Of…Goodbye\10 - The

Ambassadors Reel- Oobly.wav

Pre-gap length 0:00:01.24

Peak level 90.8 %
Track quality 100.0 %
Test CRC 521A5CB6
Copy CRC 521A5CB6
Copy OK

Track 11
Filename C:\Documents and Settings\Desktop\Art Of Noise - And What Have You Done With My Body, God (4CD) (2006) [FLAC] {ZTT}\Disc 3 - Who's Afraid Of…Goodbye\11 - Goodbye

Art Of Noise.wav

Pre-gap length 0:00:00.68

Peak level 75.4 %
Track quality 100.0 %
Test CRC 2804EDE1
Copy CRC 2804EDE1
Copy OK

Track 12
Filename C:\Documents and Settings\Desktop\Art Of Noise - And What Have You Done With My Body, God (4CD) (2006) [FLAC] {ZTT}\Disc 3 - Who's Afraid Of…Goodbye\12 -

(Untitled).wav

Pre-gap length 0:00:00.68

Peak level 100.0 %
Track quality 100.0 %
Test CRC 60350176
Copy CRC 60350176
Copy OK

No errors occured


End of status report







EAC extraction logfile from 5. March 2017, 7:03 for CD
Art Of Noise / And What Have You Done With My Body, God? (Disc 4)

Used drive : TSSTcorpDVD+-RW TS-H653B Adapter: 2 ID: 0
Read mode : Secure with NO C2, accurate stream, disable cache
Read offset correction : 6
Overread into Lead-In and Lead-Out : No

Used output format : Internal WAV Routines
44.100 Hz; 16 Bit; Stereo

Other options :
Fill up missing offset samples with silence : Yes
Delete leading and trailing silent blocks : No
Native Win32 interface for Win NT & 2000


Track 1
Filename C:\Documents and Settings\Desktop\Art Of Noise - And What Have You Done With My Body, God (4CD) (2006) [FLAC] {ZTT}\Disc 4 - Extended Play\01 - Battle.wav

Pre-gap length 0:00:02.00

Peak level 70.9 %
Track quality 100.0 %
Test CRC D5C60B95
Copy CRC D5C60B95
Copy OK

Track 2
Filename C:\Documents and Settings\Desktop\Art Of Noise - And What Have You Done With My Body, God (4CD) (2006) [FLAC] {ZTT}\Disc 4 - Extended Play\02 - Beat Box.wav

Peak level 100.0 %
Track quality 100.0 %
Test CRC E6ED8D53
Copy CRC E6ED8D53
Copy OK

Track 3
Filename C:\Documents and Settings\Desktop\Art Of Noise - And What Have You Done With My Body, God (4CD) (2006) [FLAC] {ZTT}\Disc 4 - Extended Play\03 - The Army Now.wav

Pre-gap length 0:00:01.00

Peak level 91.7 %
Track quality 100.0 %
Test CRC DAA5BA2E
Copy CRC DAA5BA2E
Copy OK

Track 4
Filename C:\Documents and Settings\Desktop\Art Of Noise - And What Have You Done With My Body, God (4CD) (2006) [FLAC] {ZTT}\Disc 4 - Extended Play\04 - Donna.wav

Pre-gap length 0:00:01.00

Peak level 82.4 %
Track quality 100.0 %
Test CRC F921CB0C
Copy CRC F921CB0C
Copy OK

Track 5
Filename C:\Documents and Settings\Desktop\Art Of Noise - And What Have You Done With My Body, God (4CD) (2006) [FLAC] {ZTT}\Disc 4 - Extended Play\05 - Moments In Love.wav

Pre-gap length 0:00:00.98

Peak level 94.4 %
Track quality 100.0 %
Test CRC 9DBD5EE6
Copy CRC 9DBD5EE6
Copy OK

Track 6
Filename C:\Documents and Settings\Desktop\Art Of Noise - And What Have You Done With My Body, God (4CD) (2006) [FLAC] {ZTT}\Disc 4 - Extended Play\06 - Bright Noise.wav

Pre-gap length 0:00:01.00

Peak level 52.9 %
Track quality 100.0 %
Test CRC F78140D0
Copy CRC F78140D0
Copy OK

Track 7
Filename C:\Documents and Settings\Desktop\Art Of Noise - And What Have You Done With My Body, God (4CD) (2006) [FLAC] {ZTT}\Disc 4 - Extended Play\07 - Flesh In Armour.wav

Peak level 82.7 %
Track quality 100.0 %
Test CRC 28D66DA7
Copy CRC 28D66DA7
Copy OK

Track 8
Filename C:\Documents and Settings\Desktop\Art Of Noise - And What Have You Done With My Body, God (4CD) (2006) [FLAC] {ZTT}\Disc 4 - Extended Play\08 - Comes And Goes.wav

Pre-gap length 0:00:01.00

Peak level 68.8 %
Track quality 100.0 %
Test CRC 36D7DB21
Copy CRC 36D7DB21
Copy OK

Track 9
Filename C:\Documents and Settings\Desktop\Art Of Noise - And What Have You Done With My Body, God (4CD) (2006) [FLAC] {ZTT}\Disc 4 - Extended Play\09 - Moment In Love.wav

Pre-gap length 0:00:01.00

Peak level 100.0 %
Track quality 100.0 %
Test CRC E97B8876
Copy CRC E97B8876
Copy OK

Track 10
Filename C:\Documents and Settings\Desktop\Art Of Noise - And What Have You Done With My Body, God (4CD) (2006) [FLAC] {ZTT}\Disc 4 - Extended Play\10 - Diversion Eight,

Diversion Two, Closest, Close-Up, Close (To The Edit), Closed.wav

Pre-gap length 0:00:01.00

Peak level 82.7 %
Track quality 100.0 %
Test CRC BC4C76C4
Copy CRC BC4C76C4
Copy OK

Track 11
Filename C:\Documents and Settings\Desktop\Art Of Noise - And What Have You Done With My Body, God (4CD) (2006) [FLAC] {ZTT}\Disc 4 - Extended Play\11 - Moments In Love

(From Battle To Beaten).wav

Pre-gap length 0:00:01.00

Peak level 84.3 %
Track quality 99.9 %
Test CRC 17FCBA16
Copy CRC 17FCBA16
Copy OK

Track 12
Filename C:\Documents and Settings\Desktop\Art Of Noise - And What Have You Done With My Body, God (4CD) (2006) [FLAC] {ZTT}\Disc 4 - Extended Play\12 - Love Beat.wav

Pre-gap length 0:00:01.00

Peak level 100.0 %
Track quality 100.0 %
Test CRC C2230574
Copy CRC C2230574
Copy OK

Track 13
Filename C:\Documents and Settings\Desktop\Art Of Noise - And What Have You Done With My Body, God (4CD) (2006) [FLAC] {ZTT}\Disc 4 - Extended Play\13 - In Case We

Sneezed.wav

Pre-gap length 0:00:01.00

Peak level 43.8 %
Track quality 100.0 %
Test CRC 463B529B
Copy CRC 463B529B
Copy OK

Track 14
Filename C:\Documents and Settings\Desktop\Art Of Noise - And What Have You Done With My Body, God (4CD) (2006) [FLAC] {ZTT}\Disc 4 - Extended Play\14 - A Time To Hear

(Who's Listening).wav

Pre-gap length 0:00:01.00

Peak level 94.8 %
Track quality 100.0 %
Test CRC 4EF3C0D3
Copy CRC 4EF3C0D3
Copy OK

Track 15
Filename C:\Documents and Settings\Desktop\Art Of Noise - And What Have You Done With My Body, God (4CD) (2006) [FLAC] {ZTT}\Disc 4 - Extended Play\15 - (Do) Donna (Do).wav

Pre-gap length 0:00:01.00

Peak level 100.0 %
Track quality 100.0 %
Test CRC 74FD5116
Copy CRC 74FD5116
Copy OK

Track 16
Filename C:\Documents and Settings\Desktop\Art Of Noise - And What Have You Done With My Body, God (4CD) (2006) [FLAC] {ZTT}\Disc 4 - Extended Play\16 - (Untitled).wav

Pre-gap length 0:00:01.00

Peak level 86.6 %
Track quality 99.5 %
Test CRC 3BA35AE7
Copy CRC 3BA35AE7
Copy OK

No errors occured


End of status report


Art Of Noise - And What Have You Done With My Body, God (4CD) (2006) {ZTT} **[RE-UP]**