Tags
Language
Tags
June 2024
Su Mo Tu We Th Fr Sa
26 27 28 29 30 31 1
2 3 4 5 6 7 8
9 10 11 12 13 14 15
16 17 18 19 20 21 22
23 24 25 26 27 28 29
30 1 2 3 4 5 6

VA - 50 Jaar Nederpop: Rare & Obscure (2008)

Posted By: Rtax
VA - 50 Jaar Nederpop: Rare & Obscure (2008)

VA - 50 Jaar Nederpop: Rare & Obscure (2008)
EAC Rip | FLAC (tracks, cue, log) - 2 GB | MP3 CBR 320 kbps - 713 MB
5:06:25 | Rock, Pop | Label: Universal Music / Fonos / Beeld En Geluid

Boxje van vier cd’s met zeer zeldzame plaatjes uit het archief van popkenner Leo Blokhuis. Tussen de vele onbekende namen vinden we obscure werkjes van bands als Earth & Fire, Rick van der Linden, The Scene, Tröckener Kecks, Sjako!, Bintangs en Doe Maar.50 Jaar Nederpop, Rare & Obscure is een verzamelalbum van (vaak) vergeten vaderlandse popmuziek. De verzameling kwam tot stand na een uitzending van De nacht van de popmuziek in dit geval De nacht van de nederpop.
De samenstelling was in handen van Leo Blokhuis, Het Nederland Instituut voor Beeld en geluid (Oscar Smit) en schrijver Ed Hoogeveen. De vier compact discs geven een beeld van de ontwikkeling van de Nederpop, maar laat daarbij vooral het onbekend repertoire horen. Voorwaarde om opgenomen te worden in deze verzameling, was dat het nummer nog niet voorhanden was op een normale compact disc.

Tracklist
CD1
1. Andy Field – Come On Guitar
2. Arthur & The Cronies – Please Don't Cry
3. Wim Bitter – Teenage Muziek
4. Erik van Eldik & The Shakin' Hearts – My Old Kentucky Home
5. Rypke Westra & Orkest û.l.f. Bert Paige – Tink Oan My (All Of Me)
6. The Ricochets – Ecstasy (feat. Ritchie Clark)
7. Mariska Veres – Is Het Waar (Is It True)
8. The Beatniks – Wouldn't You Like To Know
9. The Cavaliers – Asspoes
10. The John Breughel Four – Sweet Damrose
11. Ivo & The Furies – Daddy's Classical Emotion
12. Lysett – It's The Little Things
13. The Dutch Beat College – We Love The Pirates
14. The Eurfians – Waaro? (Wild Thing)
15. The Key – I See Your Image
16. The Selfkick – Gosh, I'm Your Woman, Not Your Wife
17. Fullhouse – Do It Right
18. Adjéèf The Poet – Iekk! I'm A Freak
19. Ik Gerard Kreuger & The Pleinboys – Why Should I Sing?
20. Ekseption – Talk About Tomorrow
21. Mother's Love – Lady From The Ballroom
22. The Vipers – Town Of Tuxley
23. J.B. Euson & Stax – I Want You Around Me
24. Daddy's Act – Baby's In Black
25. The Free – Try Try Try Pt. 1
26. Freddies – Comedy Is Over Now
27. Dizzy Man's Band – Tell Me It's All-Right
28. Rainman – The Bird
29. High Tide Formation – Fluffy

CD2
1. September – Little Sister
2. Slight Ache – Second Flood
3. Alderman – Come In The Evening
4. Casey & His Group – Comin' Home Baby
5. April Shower – Mama Look Upon Me
6. Richard Neal – Take Me To The Water
7. Jackie Cornell – Everyday's Torture
8. Moan – Health Of Freedom
9. Monica & Voices Of Freedom – Empty Words
10. Speed – Easy To Say
11. Treshold Fear – Sally Saddlepain
12. Tortilla – Every Angel Comes From Nowhere
13. Joy – Sail Away
14. Mayfly – Blue Sofa
15. Leon de Graaff – Simple Mind
16. Mike & Michael – A Star
17. Windmill – For You To Remember
18. Amsterdam – Mary Lou
19. Ruby Carmichael – Little Yellow Shop
20. Limousine – Daddy Grandpa
21. Good-Time Joe – Slipstream
22. Crypto – Labyrinth
23. Specs Hildebrand – Manuel
24. Marx – My Daylight

CD3
1. Slumberlandband – The Beatles
2. Bloom – Don't Break This Heart
3. Earth & Fire – De Tijd Zegt Niets
4. Groupies Delite & The Sandwich Band – Alley Oop
5. Geo – Hurry Boy
6. Dianne Marchal – Sandy
7. Pandemonium – 1941
8. Rick van der Linden – GX-1
9. Shirley – It's Me
10. FM – In The Valley Back Home
11. Girlie – Andy (For Love It Takes Two)
12. Joe Bourne – Bourne To Satisfy
13. Nits – Looking For A Friend
14. The Tapes – You Just Can't Sleep
15. Tits – We're So Glad Elvis Is Dead
16. Doe Maar – Blozen
17. Bintangs – Snake In The Grass
18. Stampei – Blij Dat Het Morgen Maandag Is
19. Mo – Oh Young People
20. White Honey – Nothing Going On In The City

CD4
1. The Scene – The Beat
2. Tröckener Kecks – Rik Ringers
3. Nasmak – I Hope I'm Gonna Rain Today
4. Soviet Sex – Talk To Me
5. The Dutch – Nous Sommes Très Petits
6. The Thought – I Had Too Much To Dream Last Night
7. The Actor – Covergirl
8. Frites Modern – Sesam Straat
9. Blue Murder – Entertainment
10. Kiem – Doin' Time
11. Secret Sounds – State Of Sound
12. Grin – You Need A Gun To Blow My Mind
13. Ivy Green – The Turning Point
14. Mark Foggo – Taking Things Too Far
15. L'Attentat – King Of The Neighbourhood
16. Eton Crop – Yes Please Bob
17. MAM – Maternité
18. Sjako! – Here Come The Weirdo's
19. Buffalo Bob & The Rinkelstars – Sympathy For The Devil
20. Slide – One Good Reason
21. Peter Pan Speedrock – Pussy Rodeo
Exact Audio Copy V0.99 prebeta 4 from 23. January 2008

EAC extraction logfile from 14. February 2011, 22:03

Various / 50 Jaar Nederpop: Rare & Obscure CD1

Used drive : ATAPI DVD A DH16AASH Adapter: 1 ID: 1

Read mode : Secure
Utilize accurate stream : Yes
Defeat audio cache : Yes
Make use of C2 pointers : No

Read offset correction : 6
Overread into Lead-In and Lead-Out : No
Fill up missing offset samples with silence : Yes
Delete leading and trailing silent blocks : No
Null samples used in CRC calculations : Yes
Used interface : Native Win32 interface for Win NT & 2000
Gap handling : Appended to previous track

Used output format : User Defined Encoder
Selected bitrate : 768 kBit/s
Quality : High
Add ID3 tag : Yes
Command line compressor : L:\Program Files\Exact Audio Copy\Flac\flac.exe
Additional command line options : -8 -V -T "artist=%a" -T "title=%t" -T "album=%g" -T "date=%y" -T "tracknumber=%n" -T "genre=%m" -T "comment=High Quality, EAC secure, Lossless flac " %s


TOC of the extracted CD

Track | Start | Length | Start sector | End sector
––––––––––––––––––––––––––––-
1 | 0:00.00 | 2:05.62 | 0 | 9436
2 | 2:05.62 | 2:20.13 | 9437 | 19949
3 | 4:26.00 | 2:09.00 | 19950 | 29624
4 | 6:35.00 | 2:56.44 | 29625 | 42868
5 | 9:31.44 | 2:04.30 | 42869 | 52198
6 | 11:35.74 | 2:06.59 | 52199 | 61707
7 | 13:42.58 | 2:15.44 | 61708 | 71876
8 | 15:58.27 | 2:37.03 | 71877 | 83654
9 | 18:35.30 | 2:50.36 | 83655 | 96440
10 | 21:25.66 | 2:16.24 | 96441 | 106664
11 | 23:42.15 | 2:44.74 | 106665 | 119038
12 | 26:27.14 | 1:54.40 | 119039 | 127628
13 | 28:21.54 | 3:07.71 | 127629 | 141724
14 | 31:29.50 | 2:43.37 | 141725 | 153986
15 | 34:13.12 | 2:53.67 | 153987 | 167028
16 | 37:07.04 | 2:15.26 | 167029 | 177179
17 | 39:22.30 | 3:07.56 | 177180 | 191260
18 | 42:30.11 | 2:51.35 | 191261 | 204120
19 | 45:21.46 | 2:42.65 | 204121 | 216335
20 | 48:04.36 | 2:30.63 | 216336 | 227648
21 | 50:35.24 | 2:59.30 | 227649 | 241103
22 | 53:34.54 | 2:41.46 | 241104 | 253224
23 | 56:16.25 | 3:11.21 | 253225 | 267570
24 | 59:27.46 | 2:57.33 | 267571 | 280878
25 | 62:25.04 | 3:33.01 | 280879 | 296854
26 | 65:58.05 | 3:11.33 | 296855 | 311212
27 | 69:09.38 | 2:50.52 | 311213 | 324014
28 | 72:00.15 | 3:10.11 | 324015 | 338275
29 | 75:10.26 | 2:38.58 | 338276 | 350183


Track 1

Filename F:\Converted Flac\Various - 50 Jaar Nederpop- Rare & Obscure CD1\01 - Come On Guitar.wav

Pre-gap length 0:00:02.00

Peak level 97.7 %
Track quality 100.0 %
Test CRC 636ADDBA
Copy CRC 636ADDBA
Accurately ripped (confidence 3) [88218ED1]
Copy OK

Track 2

Filename F:\Converted Flac\Various - 50 Jaar Nederpop- Rare & Obscure CD1\02 - Please Don't Cry.wav

Pre-gap length 0:00:02.00

Peak level 97.7 %
Track quality 100.0 %
Test CRC F1FBB5EB
Copy CRC F1FBB5EB
Accurately ripped (confidence 3) [0838BDE0]
Copy OK

Track 3

Filename F:\Converted Flac\Various - 50 Jaar Nederpop- Rare & Obscure CD1\03 - Teenager muziek.wav

Pre-gap length 0:00:02.00

Peak level 97.7 %
Track quality 100.0 %
Test CRC F4101D0A
Copy CRC F4101D0A
Accurately ripped (confidence 3) [1DCC0487]
Copy OK

Track 4

Filename F:\Converted Flac\Various - 50 Jaar Nederpop- Rare & Obscure CD1\04 - My Old Kentucky Home.wav

Pre-gap length 0:00:02.00

Peak level 97.7 %
Track quality 100.0 %
Test CRC 0F60903D
Copy CRC 0F60903D
Accurately ripped (confidence 3) [608DE378]
Copy OK

Track 5

Filename F:\Converted Flac\Various - 50 Jaar Nederpop- Rare & Obscure CD1\05 - Tink oan my (All Of Me).wav

Pre-gap length 0:00:02.00

Peak level 97.7 %
Track quality 100.0 %
Test CRC DE647B27
Copy CRC DE647B27
Accurately ripped (confidence 3) [5DAC1EDF]
Copy OK

Track 6

Filename F:\Converted Flac\Various - 50 Jaar Nederpop- Rare & Obscure CD1\06 - Ecstacy.wav

Pre-gap length 0:00:02.00

Peak level 97.7 %
Track quality 100.0 %
Test CRC 75DA0591
Copy CRC 75DA0591
Accurately ripped (confidence 3) [95ED88CD]
Copy OK

Track 7

Filename F:\Converted Flac\Various - 50 Jaar Nederpop- Rare & Obscure CD1\07 - Is het waar (Is It True).wav

Pre-gap length 0:00:02.00

Peak level 97.7 %
Track quality 100.0 %
Test CRC D5B80405
Copy CRC D5B80405
Accurately ripped (confidence 3) [A6FF5EFC]
Copy OK

Track 8

Filename F:\Converted Flac\Various - 50 Jaar Nederpop- Rare & Obscure CD1\08 - Wouldn't You Like To Know.wav

Pre-gap length 0:00:02.00

Peak level 97.7 %
Track quality 99.9 %
Test CRC D7BE0554
Copy CRC D7BE0554
Accurately ripped (confidence 3) [2FEEE47E]
Copy OK

Track 9

Filename F:\Converted Flac\Various - 50 Jaar Nederpop- Rare & Obscure CD1\09 - Assepoes.wav

Pre-gap length 0:00:02.00

Peak level 97.7 %
Track quality 100.0 %
Test CRC A2B7A1E7
Copy CRC A2B7A1E7
Accurately ripped (confidence 3) [E626AC77]
Copy OK

Track 10

Filename F:\Converted Flac\Various - 50 Jaar Nederpop- Rare & Obscure CD1\10 - Sweet Damrose.wav

Pre-gap length 0:00:02.00

Peak level 97.7 %
Track quality 100.0 %
Test CRC EBC4B395
Copy CRC EBC4B395
Accurately ripped (confidence 3) [BA94039E]
Copy OK

Track 11

Filename F:\Converted Flac\Various - 50 Jaar Nederpop- Rare & Obscure CD1\11 - Daddy's Classical Emotion.wav

Pre-gap length 0:00:02.00

Peak level 97.7 %
Track quality 100.0 %
Test CRC A6749242
Copy CRC A6749242
Accurately ripped (confidence 3) [731B0AE3]
Copy OK

Track 12

Filename F:\Converted Flac\Various - 50 Jaar Nederpop- Rare & Obscure CD1\12 - It's The Little Things.wav

Peak level 97.7 %
Track quality 99.9 %
Test CRC 5A47900C
Copy CRC 5A47900C
Accurately ripped (confidence 3) [68DE0CEA]
Copy OK

Track 13

Filename F:\Converted Flac\Various - 50 Jaar Nederpop- Rare & Obscure CD1\13 - We Love The Pirates.wav

Pre-gap length 0:00:02.00

Peak level 97.7 %
Track quality 99.9 %
Test CRC 80DBF76E
Copy CRC 80DBF76E
Accurately ripped (confidence 3) [B6525E88]
Copy OK

Track 14

Filename F:\Converted Flac\Various - 50 Jaar Nederpop- Rare & Obscure CD1\14 - Waaro (Wild Thing).wav

Pre-gap length 0:00:02.00

Peak level 97.7 %
Track quality 100.0 %
Test CRC 610C642A
Copy CRC 610C642A
Accurately ripped (confidence 3) [E7327520]
Copy OK

Track 15

Filename F:\Converted Flac\Various - 50 Jaar Nederpop- Rare & Obscure CD1\15 - I See Your Image.wav

Pre-gap length 0:00:02.00

Peak level 97.7 %
Track quality 100.0 %
Test CRC A20B5E0D
Copy CRC A20B5E0D
Accurately ripped (confidence 3) [94624A11]
Copy OK

Track 16

Filename F:\Converted Flac\Various - 50 Jaar Nederpop- Rare & Obscure CD1\16 - Gosh, I'm Your Woman, Not Your Wife.wav

Pre-gap length 0:00:02.00

Peak level 97.7 %
Track quality 100.0 %
Test CRC B76F4CAB
Copy CRC B76F4CAB
Accurately ripped (confidence 3) [97172C5D]
Copy OK

Track 17

Filename F:\Converted Flac\Various - 50 Jaar Nederpop- Rare & Obscure CD1\17 - Do It Right.wav

Pre-gap length 0:00:02.00

Peak level 97.7 %
Track quality 100.0 %
Test CRC 9EB3D60F
Copy CRC 9EB3D60F
Accurately ripped (confidence 3) [E76A3113]
Copy OK

Track 18

Filename F:\Converted Flac\Various - 50 Jaar Nederpop- Rare & Obscure CD1\18 - Iekk! I'm A Freak.wav

Pre-gap length 0:00:02.00

Peak level 97.7 %
Track quality 100.0 %
Test CRC 6B32FCBE
Copy CRC 6B32FCBE
Accurately ripped (confidence 3) [EB5DBB41]
Copy OK

Track 19

Filename F:\Converted Flac\Various - 50 Jaar Nederpop- Rare & Obscure CD1\19 - Why Should I Sing .wav

Pre-gap length 0:00:02.00

Peak level 97.7 %
Track quality 100.0 %
Test CRC 226EA959
Copy CRC 226EA959
Accurately ripped (confidence 3) [33B99E19]
Copy OK

Track 20

Filename F:\Converted Flac\Various - 50 Jaar Nederpop- Rare & Obscure CD1\20 - Talk About Tomorrow.wav

Pre-gap length 0:00:02.00

Peak level 97.7 %
Track quality 100.0 %
Test CRC BEC61CA6
Copy CRC BEC61CA6
Accurately ripped (confidence 3) [D82A2788]
Copy OK

Track 21

Filename F:\Converted Flac\Various - 50 Jaar Nederpop- Rare & Obscure CD1\21 - Lady From The Ballroom.wav

Pre-gap length 0:00:02.00

Peak level 97.7 %
Track quality 100.0 %
Test CRC F2CCB2B6
Copy CRC F2CCB2B6
Accurately ripped (confidence 3) [ADF940EC]
Copy OK

Track 22

Filename F:\Converted Flac\Various - 50 Jaar Nederpop- Rare & Obscure CD1\22 - Town Of Tuxley.wav

Pre-gap length 0:00:02.00

Peak level 97.7 %
Track quality 100.0 %
Test CRC E0832F34
Copy CRC E0832F34
Accurately ripped (confidence 3) [16E15131]
Copy OK

Track 23

Filename F:\Converted Flac\Various - 50 Jaar Nederpop- Rare & Obscure CD1\23 - I Want You Around Me.wav

Pre-gap length 0:00:02.00

Peak level 97.7 %
Track quality 99.9 %
Test CRC A27A76BE
Copy CRC A27A76BE
Accurately ripped (confidence 3) [2123B306]
Copy OK

Track 24

Filename F:\Converted Flac\Various - 50 Jaar Nederpop- Rare & Obscure CD1\24 - Baby's In Black.wav

Pre-gap length 0:00:02.00

Peak level 97.7 %
Track quality 100.0 %
Test CRC D9DF188A
Copy CRC D9DF188A
Accurately ripped (confidence 3) [03187CB0]
Copy OK

Track 25

Filename F:\Converted Flac\Various - 50 Jaar Nederpop- Rare & Obscure CD1\25 - Try Try Try pt. 1.wav

Pre-gap length 0:00:02.00

Peak level 97.7 %
Track quality 100.0 %
Test CRC D64277B0
Copy CRC D64277B0
Accurately ripped (confidence 3) [48002D78]
Copy OK

Track 26

Filename F:\Converted Flac\Various - 50 Jaar Nederpop- Rare & Obscure CD1\26 - Comedy Is Over Now.wav

Pre-gap length 0:00:02.00

Peak level 97.7 %
Track quality 100.0 %
Test CRC 5FD93103
Copy CRC 5FD93103
Accurately ripped (confidence 3) [F16A211D]
Copy OK

Track 27

Filename F:\Converted Flac\Various - 50 Jaar Nederpop- Rare & Obscure CD1\27 - Tell Me It's All-right.wav

Pre-gap length 0:00:02.00

Peak level 97.7 %
Track quality 99.9 %
Test CRC DD0166D5
Copy CRC DD0166D5
Accurately ripped (confidence 3) [1E7EC2DA]
Copy OK

Track 28

Filename F:\Converted Flac\Various - 50 Jaar Nederpop- Rare & Obscure CD1\28 - The Bird.wav

Pre-gap length 0:00:02.00

Peak level 97.7 %
Track quality 100.0 %
Test CRC DB0A6436
Copy CRC DB0A6436
Accurately ripped (confidence 3) [93F23CE5]
Copy OK

Track 29

Filename F:\Converted Flac\Various - 50 Jaar Nederpop- Rare & Obscure CD1\29 - Fluffy.wav

Pre-gap length 0:00:02.00

Peak level 97.7 %
Track quality 100.0 %
Test CRC AF8EFA83
Copy CRC AF8EFA83
Accurately ripped (confidence 3) [3420440E]
Copy OK


All tracks accurately ripped

No errors occurred

End of status report


Exact Audio Copy V0.99 prebeta 4 from 23. January 2008

EAC extraction logfile from 15. February 2011, 15:04

Various / 50 Jaar Nederpop: Rare & Obscure CD2

Used drive : ATAPI DVD A DH16AASH Adapter: 1 ID: 1

Read mode : Secure
Utilize accurate stream : Yes
Defeat audio cache : Yes
Make use of C2 pointers : No

Read offset correction : 6
Overread into Lead-In and Lead-Out : No
Fill up missing offset samples with silence : Yes
Delete leading and trailing silent blocks : No
Null samples used in CRC calculations : Yes
Used interface : Native Win32 interface for Win NT & 2000
Gap handling : Appended to previous track

Used output format : User Defined Encoder
Selected bitrate : 768 kBit/s
Quality : High
Add ID3 tag : Yes
Command line compressor : L:\Program Files\Exact Audio Copy\Flac\flac.exe
Additional command line options : -8 -V -T "artist=%a" -T "title=%t" -T "album=%g" -T "date=%y" -T "tracknumber=%n" -T "genre=%m" -T "comment=High Quality, EAC secure, Lossless flac " %s


TOC of the extracted CD

Track | Start | Length | Start sector | End sector
––––––––––––––––––––––––––––-
1 | 0:00.00 | 3:40.38 | 0 | 16537
2 | 3:40.38 | 3:02.74 | 16538 | 30261
3 | 6:43.37 | 2:34.41 | 30262 | 41852
4 | 9:18.03 | 3:11.43 | 41853 | 56220
5 | 12:29.46 | 3:38.72 | 56221 | 72642
6 | 16:08.43 | 3:17.56 | 72643 | 87473
7 | 19:26.24 | 4:27.25 | 87474 | 107523
8 | 23:53.49 | 3:04.45 | 107524 | 121368
9 | 26:58.19 | 2:42.38 | 121369 | 133556
10 | 29:40.57 | 2:02.32 | 133557 | 142738
11 | 31:43.14 | 2:21.33 | 142739 | 153346
12 | 34:04.47 | 4:03.22 | 153347 | 171593
13 | 38:07.69 | 3:38.46 | 171594 | 187989
14 | 41:46.40 | 3:00.70 | 187990 | 201559
15 | 44:47.35 | 3:07.55 | 201560 | 215639
16 | 47:55.15 | 2:44.74 | 215640 | 228013
17 | 50:40.14 | 3:25.42 | 228014 | 243430
18 | 54:05.56 | 2:25.70 | 243431 | 254375
19 | 56:31.51 | 3:40.53 | 254376 | 270928
20 | 60:12.29 | 3:32.67 | 270929 | 286895
21 | 63:45.21 | 2:39.10 | 286896 | 298830
22 | 66:24.31 | 2:46.44 | 298831 | 311324
23 | 69:11.00 | 3:37.59 | 311325 | 327658
24 | 72:48.59 | 3:24.21 | 327659 | 342979


Track 1

Filename F:\Converted Flac\Various - 50 Jaar Nederpop- Rare & Obscure CD2\01 - Little Sister.wav

Pre-gap length 0:00:02.00

Peak level 97.7 %
Track quality 99.9 %
Test CRC 4CBDD23F
Copy CRC 4CBDD23F
Accurately ripped (confidence 3) [9CD1E552]
Copy OK

Track 2

Filename F:\Converted Flac\Various - 50 Jaar Nederpop- Rare & Obscure CD2\02 - Second Flood.wav

Pre-gap length 0:00:02.00

Peak level 97.7 %
Track quality 100.0 %
Test CRC 7F3EB741
Copy CRC 7F3EB741
Accurately ripped (confidence 3) [2AD0662A]
Copy OK

Track 3

Filename F:\Converted Flac\Various - 50 Jaar Nederpop- Rare & Obscure CD2\03 - Come In The Evening.wav

Pre-gap length 0:00:02.00

Peak level 97.7 %
Track quality 100.0 %
Test CRC 736E304F
Copy CRC 736E304F
Accurately ripped (confidence 3) [8B4EAF5F]
Copy OK

Track 4

Filename F:\Converted Flac\Various - 50 Jaar Nederpop- Rare & Obscure CD2\04 - Comin' Home Baby.wav

Pre-gap length 0:00:02.00

Peak level 97.7 %
Track quality 99.9 %
Test CRC 672A9902
Copy CRC 672A9902
Accurately ripped (confidence 3) [E264839B]
Copy OK

Track 5

Filename F:\Converted Flac\Various - 50 Jaar Nederpop- Rare & Obscure CD2\05 - Mama Look Upon Me.wav

Pre-gap length 0:00:02.00

Peak level 97.7 %
Track quality 100.0 %
Test CRC 2EBFBB0D
Copy CRC 2EBFBB0D
Accurately ripped (confidence 3) [C3C1EF3F]
Copy OK

Track 6

Filename F:\Converted Flac\Various - 50 Jaar Nederpop- Rare & Obscure CD2\06 - Take Me To The Water.wav

Pre-gap length 0:00:02.00

Peak level 97.7 %
Track quality 100.0 %
Test CRC EF232DED
Copy CRC EF232DED
Accurately ripped (confidence 3) [A53C6B8A]
Copy OK

Track 7

Filename F:\Converted Flac\Various - 50 Jaar Nederpop- Rare & Obscure CD2\07 - Everyday's Torture.wav

Pre-gap length 0:00:02.00

Peak level 97.7 %
Track quality 100.0 %
Test CRC AE07199E
Copy CRC AE07199E
Accurately ripped (confidence 3) [63F933A2]
Copy OK

Track 8

Filename F:\Converted Flac\Various - 50 Jaar Nederpop- Rare & Obscure CD2\08 - Health Of Freedom.wav

Pre-gap length 0:00:02.00

Peak level 97.7 %
Track quality 99.9 %
Test CRC 613D3A30
Copy CRC 613D3A30
Accurately ripped (confidence 3) [CDA97140]
Copy OK

Track 9

Filename F:\Converted Flac\Various - 50 Jaar Nederpop- Rare & Obscure CD2\09 - Empty Words.wav

Pre-gap length 0:00:02.00

Peak level 97.7 %
Track quality 100.0 %
Test CRC 9B7C01D0
Copy CRC 9B7C01D0
Accurately ripped (confidence 3) [C4E3AF47]
Copy OK

Track 10

Filename F:\Converted Flac\Various - 50 Jaar Nederpop- Rare & Obscure CD2\10 - Easy To Say.wav

Pre-gap length 0:00:02.00

Peak level 97.7 %
Track quality 100.0 %
Test CRC 70FC650C
Copy CRC 70FC650C
Accurately ripped (confidence 3) [994E6615]
Copy OK

Track 11

Filename F:\Converted Flac\Various - 50 Jaar Nederpop- Rare & Obscure CD2\11 - Sally Saddlepain.wav

Pre-gap length 0:00:02.00

Peak level 97.7 %
Track quality 99.9 %
Test CRC 73633AF1
Copy CRC 73633AF1
Accurately ripped (confidence 3) [6168638E]
Copy OK

Track 12

Filename F:\Converted Flac\Various - 50 Jaar Nederpop- Rare & Obscure CD2\12 - Every Angel Comes From Nowhere.wav

Pre-gap length 0:00:02.00

Peak level 97.7 %
Track quality 100.0 %
Test CRC 112DF3FE
Copy CRC 112DF3FE
Accurately ripped (confidence 3) [60DB4B04]
Copy OK

Track 13

Filename F:\Converted Flac\Various - 50 Jaar Nederpop- Rare & Obscure CD2\13 - Sail Away.wav

Pre-gap length 0:00:02.00

Peak level 97.7 %
Track quality 100.0 %
Test CRC 4D1B14EC
Copy CRC 4D1B14EC
Accurately ripped (confidence 3) [E0C4DCCE]
Copy OK

Track 14

Filename F:\Converted Flac\Various - 50 Jaar Nederpop- Rare & Obscure CD2\14 - Blue Sofa.wav

Pre-gap length 0:00:02.00

Peak level 97.7 %
Track quality 100.0 %
Test CRC 81BE9EA7
Copy CRC 81BE9EA7
Accurately ripped (confidence 3) [5BB8D7AE]
Copy OK

Track 15

Filename F:\Converted Flac\Various - 50 Jaar Nederpop- Rare & Obscure CD2\15 - Simple Mind.wav

Pre-gap length 0:00:02.00

Peak level 97.7 %
Track quality 100.0 %
Test CRC 74DEC55F
Copy CRC 74DEC55F
Accurately ripped (confidence 3) [B5CF58BB]
Copy OK

Track 16

Filename F:\Converted Flac\Various - 50 Jaar Nederpop- Rare & Obscure CD2\16 - A Star.wav

Pre-gap length 0:00:02.00

Peak level 97.7 %
Track quality 100.0 %
Test CRC 8B1159F1
Copy CRC 8B1159F1
Accurately ripped (confidence 3) [CEF700DF]
Copy OK

Track 17

Filename F:\Converted Flac\Various - 50 Jaar Nederpop- Rare & Obscure CD2\17 - For You To Remember.wav

Pre-gap length 0:00:02.00

Peak level 97.7 %
Track quality 99.9 %
Test CRC 992458B5
Copy CRC 992458B5
Accurately ripped (confidence 3) [39F5C5BB]
Copy OK

Track 18

Filename F:\Converted Flac\Various - 50 Jaar Nederpop- Rare & Obscure CD2\18 - Mary Lou.wav

Pre-gap length 0:00:02.00

Peak level 97.7 %
Track quality 100.0 %
Test CRC 409A8A4A
Copy CRC 409A8A4A
Accurately ripped (confidence 3) [3C221A90]
Copy OK

Track 19

Filename F:\Converted Flac\Various - 50 Jaar Nederpop- Rare & Obscure CD2\19 - Little Yellow Shop.wav

Pre-gap length 0:00:02.00

Peak level 97.7 %
Track quality 100.0 %
Test CRC A8A16D57
Copy CRC A8A16D57
Accurately ripped (confidence 3) [81B2AA4F]
Copy OK

Track 20

Filename F:\Converted Flac\Various - 50 Jaar Nederpop- Rare & Obscure CD2\20 - Daddy Grandpa.wav

Pre-gap length 0:00:02.00

Peak level 97.7 %
Track quality 100.0 %
Test CRC B032A961
Copy CRC B032A961
Accurately ripped (confidence 3) [155728AD]
Copy OK

Track 21

Filename F:\Converted Flac\Various - 50 Jaar Nederpop- Rare & Obscure CD2\21 - Slipstream.wav

Pre-gap length 0:00:02.00

Peak level 97.7 %
Track quality 100.0 %
Test CRC 39526F6D
Copy CRC 39526F6D
Accurately ripped (confidence 3) [E5CD9055]
Copy OK

Track 22

Filename F:\Converted Flac\Various - 50 Jaar Nederpop- Rare & Obscure CD2\22 - Labyrinth.wav

Pre-gap length 0:00:01.74

Peak level 97.7 %
Track quality 100.0 %
Test CRC A6E4333C
Copy CRC A6E4333C
Accurately ripped (confidence 3) [03420869]
Copy OK

Track 23

Filename F:\Converted Flac\Various - 50 Jaar Nederpop- Rare & Obscure CD2\23 - Manuel.wav

Pre-gap length 0:00:02.00

Peak level 97.7 %
Track quality 100.0 %
Test CRC 1B2E2B7D
Copy CRC 1B2E2B7D
Accurately ripped (confidence 3) [D94522E8]
Copy OK

Track 24

Filename F:\Converted Flac\Various - 50 Jaar Nederpop- Rare & Obscure CD2\24 - My Daylight.wav

Pre-gap length 0:00:02.00

Peak level 97.7 %
Track quality 100.0 %
Test CRC 32C950B2
Copy CRC 32C950B2
Accurately ripped (confidence 3) [29EFDA8B]
Copy OK


All tracks accurately ripped

No errors occurred

End of status report


Exact Audio Copy V0.99 prebeta 4 from 23. January 2008

EAC extraction logfile from 15. February 2011, 15:40

Various Artists / 50 Jaar Nederpop Rare & Obscure CD3

Used drive : ATAPI DVD A DH16AASH Adapter: 1 ID: 1

Read mode : Secure
Utilize accurate stream : Yes
Defeat audio cache : Yes
Make use of C2 pointers : No

Read offset correction : 6
Overread into Lead-In and Lead-Out : No
Fill up missing offset samples with silence : Yes
Delete leading and trailing silent blocks : No
Null samples used in CRC calculations : Yes
Used interface : Native Win32 interface for Win NT & 2000
Gap handling : Appended to previous track

Used output format : User Defined Encoder
Selected bitrate : 768 kBit/s
Quality : High
Add ID3 tag : Yes
Command line compressor : L:\Program Files\Exact Audio Copy\Flac\flac.exe
Additional command line options : -8 -V -T "artist=%a" -T "title=%t" -T "album=%g" -T "date=%y" -T "tracknumber=%n" -T "genre=%m" -T "comment=High Quality, EAC secure, Lossless flac " %s


TOC of the extracted CD

Track | Start | Length | Start sector | End sector
––––––––––––––––––––––––––––-
1 | 0:00.00 | 4:12.32 | 0 | 18931
2 | 4:12.32 | 3:00.09 | 18932 | 32440
3 | 7:12.41 | 3:18.13 | 32441 | 47303
4 | 10:30.54 | 3:28.54 | 47304 | 62957
5 | 13:59.33 | 5:50.36 | 62958 | 89243
6 | 19:49.69 | 3:26.32 | 89244 | 104725
7 | 23:16.26 | 3:08.39 | 104726 | 118864
8 | 26:24.65 | 4:26.24 | 118865 | 138838
9 | 30:51.14 | 5:06.57 | 138839 | 161845
10 | 35:57.71 | 4:50.69 | 161846 | 183664
11 | 40:48.65 | 2:50.06 | 183665 | 196420
12 | 43:38.71 | 4:08.66 | 196421 | 215086
13 | 47:47.62 | 4:08.04 | 215087 | 233690
14 | 51:55.66 | 5:10.32 | 233691 | 256972
15 | 57:06.23 | 1:56.69 | 256973 | 265741
16 | 59:03.17 | 3:23.55 | 265742 | 281021
17 | 62:26.72 | 2:52.41 | 281022 | 293962
18 | 65:19.38 | 3:08.21 | 293963 | 308083
19 | 68:27.59 | 2:52.71 | 308084 | 321054
20 | 71:20.55 | 3:44.62 | 321055 | 337916


Track 1

Filename F:\Converted Flac\Various Artists - 50 Jaar Nederpop Rare & Obscure CD3\01 - The Beatles.wav

Pre-gap length 0:00:02.00

Peak level 97.7 %
Track quality 100.0 %
Test CRC 7A6C8CC9
Copy CRC 7A6C8CC9
Accurately ripped (confidence 2) [88C8F6D9]
Copy OK

Track 2

Filename F:\Converted Flac\Various Artists - 50 Jaar Nederpop Rare & Obscure CD3\02 - Don't Break This Heart.wav

Pre-gap length 0:00:02.00

Peak level 97.7 %
Track quality 100.0 %
Test CRC DB9AA263
Copy CRC DB9AA263
Accurately ripped (confidence 2) [D608CCD8]
Copy OK

Track 3

Filename F:\Converted Flac\Various Artists - 50 Jaar Nederpop Rare & Obscure CD3\03 - De Tijd Zegt Niets.wav

Pre-gap length 0:00:02.00

Peak level 97.7 %
Track quality 100.0 %
Test CRC DB4F927F
Copy CRC DB4F927F
Accurately ripped (confidence 2) [42B9D825]
Copy OK

Track 4

Filename F:\Converted Flac\Various Artists - 50 Jaar Nederpop Rare & Obscure CD3\04 - Alley Oop.wav

Pre-gap length 0:00:02.00

Peak level 97.7 %
Track quality 100.0 %
Test CRC 5925F97D
Copy CRC 5925F97D
Accurately ripped (confidence 2) [C42071D7]
Copy OK

Track 5

Filename F:\Converted Flac\Various Artists - 50 Jaar Nederpop Rare & Obscure CD3\05 - Hurry Boy.wav

Pre-gap length 0:00:02.00

Peak level 97.7 %
Track quality 100.0 %
Test CRC 07EF1852
Copy CRC 07EF1852
Accurately ripped (confidence 2) [8AB6D43C]
Copy OK

Track 6

Filename F:\Converted Flac\Various Artists - 50 Jaar Nederpop Rare & Obscure CD3\06 - Sandy.wav

Pre-gap length 0:00:02.00

Peak level 97.7 %
Track quality 100.0 %
Test CRC 86FAED87
Copy CRC 86FAED87
Accurately ripped (confidence 2) [47D64A01]
Copy OK

Track 7

Filename F:\Converted Flac\Various Artists - 50 Jaar Nederpop Rare & Obscure CD3\07 - 1941.wav

Pre-gap length 0:00:02.00

Peak level 97.7 %
Track quality 100.0 %
Test CRC F246A5FB
Copy CRC F246A5FB
Accurately ripped (confidence 2) [92E25321]
Copy OK

Track 8

Filename F:\Converted Flac\Various Artists - 50 Jaar Nederpop Rare & Obscure CD3\08 - GX-1.wav

Pre-gap length 0:00:02.00

Peak level 97.7 %
Track quality 99.9 %
Test CRC 1127D335
Copy CRC 1127D335
Accurately ripped (confidence 2) [368E31B0]
Copy OK

Track 9

Filename F:\Converted Flac\Various Artists - 50 Jaar Nederpop Rare & Obscure CD3\09 - It's Me.wav

Pre-gap length 0:00:02.00

Peak level 97.7 %
Track quality 100.0 %
Test CRC 8DA47781
Copy CRC 8DA47781
Accurately ripped (confidence 2) [E4E29D14]
Copy OK

Track 10

Filename F:\Converted Flac\Various Artists - 50 Jaar Nederpop Rare & Obscure CD3\10 - In The Valley Back Home.wav

Pre-gap length 0:00:02.00

Peak level 97.7 %
Track quality 100.0 %
Test CRC 1CE18447
Copy CRC 1CE18447
Accurately ripped (confidence 2) [2C166676]
Copy OK

Track 11

Filename F:\Converted Flac\Various Artists - 50 Jaar Nederpop Rare & Obscure CD3\11 - Andy (For Love It Takes Two).wav

Pre-gap length 0:00:02.00

Peak level 97.7 %
Track quality 100.0 %
Test CRC 4CB9842F
Copy CRC 4CB9842F
Accurately ripped (confidence 2) [78639E42]
Copy OK

Track 12

Filename F:\Converted Flac\Various Artists - 50 Jaar Nederpop Rare & Obscure CD3\12 - Bourne To Satisfy.wav

Pre-gap length 0:00:02.00

Peak level 97.7 %
Track quality 100.0 %
Test CRC 790C6AD7
Copy CRC 790C6AD7
Accurately ripped (confidence 2) [80B70ECD]
Copy OK

Track 13

Filename F:\Converted Flac\Various Artists - 50 Jaar Nederpop Rare & Obscure CD3\13 - Looking For A Friend.wav

Pre-gap length 0:00:02.00

Peak level 97.7 %
Track quality 99.9 %
Test CRC C23AF16B
Copy CRC C23AF16B
Accurately ripped (confidence 2) [FD0ADD48]
Copy OK

Track 14

Filename F:\Converted Flac\Various Artists - 50 Jaar Nederpop Rare & Obscure CD3\14 - You Just Can't Sleep.wav

Pre-gap length 0:00:02.00

Peak level 97.7 %
Track quality 100.0 %
Test CRC 99315B45
Copy CRC 99315B45
Accurately ripped (confidence 2) [C232DF18]
Copy OK

Track 15

Filename F:\Converted Flac\Various Artists - 50 Jaar Nederpop Rare & Obscure CD3\15 - We're So Glad Elvis Is Dead.wav

Pre-gap length 0:00:02.00

Peak level 97.7 %
Track quality 100.0 %
Test CRC 0D60F030
Copy CRC 0D60F030
Accurately ripped (confidence 2) [EE04D9E8]
Copy OK

Track 16

Filename F:\Converted Flac\Various Artists - 50 Jaar Nederpop Rare & Obscure CD3\16 - Blozen.wav

Pre-gap length 0:00:02.00

Peak level 97.7 %
Track quality 100.0 %
Test CRC 2AB35C1D
Copy CRC 2AB35C1D
Accurately ripped (confidence 2) [C0152560]
Copy OK

Track 17

Filename F:\Converted Flac\Various Artists - 50 Jaar Nederpop Rare & Obscure CD3\17 - Snake In The Grass.wav

Pre-gap length 0:00:02.00

Peak level 97.7 %
Track quality 100.0 %
Test CRC F0FA8957
Copy CRC F0FA8957
Accurately ripped (confidence 2) [8E96CF42]
Copy OK

Track 18

Filename F:\Converted Flac\Various Artists - 50 Jaar Nederpop Rare & Obscure CD3\18 - Blij Dat Het Morgen Maandag Is.wav

Pre-gap length 0:00:02.00

Peak level 97.7 %
Track quality 99.9 %
Test CRC ECC9297A
Copy CRC ECC9297A
Accurately ripped (confidence 2) [B88C2CB6]
Copy OK

Track 19

Filename F:\Converted Flac\Various Artists - 50 Jaar Nederpop Rare & Obscure CD3\19 - Oh Young People.wav

Pre-gap length 0:00:02.00

Peak level 97.7 %
Track quality 100.0 %
Test CRC 33C01BA3
Copy CRC 33C01BA3
Accurately ripped (confidence 2) [2019930B]
Copy OK

Track 20

Filename F:\Converted Flac\Various Artists - 50 Jaar Nederpop Rare & Obscure CD3\20 - Nothing Going On In The City.wav

Pre-gap length 0:00:02.00

Peak level 97.7 %
Track quality 99.9 %
Test CRC 06F5B080
Copy CRC 06F5B080
Accurately ripped (confidence 2) [D39FA8F9]
Copy OK


All tracks accurately ripped

No errors occurred

End of status report


Exact Audio Copy V0.99 prebeta 4 from 23. January 2008

EAC extraction logfile from 15. February 2011, 16:13

Various Artists / 50 Jaar Nederpop Rare & Obscure CD4

Used drive : ATAPI DVD A DH16AASH Adapter: 1 ID: 1

Read mode : Secure
Utilize accurate stream : Yes
Defeat audio cache : Yes
Make use of C2 pointers : No

Read offset correction : 6
Overread into Lead-In and Lead-Out : No
Fill up missing offset samples with silence : Yes
Delete leading and trailing silent blocks : No
Null samples used in CRC calculations : Yes
Used interface : Native Win32 interface for Win NT & 2000
Gap handling : Appended to previous track

Used output format : User Defined Encoder
Selected bitrate : 768 kBit/s
Quality : High
Add ID3 tag : Yes
Command line compressor : L:\Program Files\Exact Audio Copy\Flac\flac.exe
Additional command line options : -8 -V -T "artist=%a" -T "title=%t" -T "album=%g" -T "date=%y" -T "tracknumber=%n" -T "genre=%m" -T "comment=High Quality, EAC secure, Lossless flac " %s


TOC of the extracted CD

Track | Start | Length | Start sector | End sector
––––––––––––––––––––––––––––-
1 | 0:00.00 | 2:35.43 | 0 | 11667
2 | 2:35.43 | 2:08.67 | 11668 | 21334
3 | 4:44.35 | 4:06.29 | 21335 | 39813
4 | 8:50.64 | 4:13.53 | 39814 | 58841
5 | 13:04.42 | 4:26.42 | 58842 | 78833
6 | 17:31.09 | 3:47.62 | 78834 | 95920
7 | 21:18.71 | 3:25.66 | 95921 | 111361
8 | 24:44.62 | 2:14.38 | 111362 | 121449
9 | 26:59.25 | 5:11.56 | 121450 | 144830
10 | 32:11.06 | 3:04.05 | 144831 | 158635
11 | 35:15.11 | 3:52.58 | 158636 | 176093
12 | 39:07.69 | 4:28.44 | 176094 | 196237
13 | 43:36.38 | 3:23.19 | 196238 | 211481
14 | 46:59.57 | 6:00.61 | 211482 | 238542
15 | 53:00.43 | 3:14.58 | 238543 | 253150
16 | 56:15.26 | 2:44.07 | 253151 | 265457
17 | 58:59.33 | 4:29.31 | 265458 | 285663
18 | 63:28.64 | 3:52.26 | 285664 | 303089
19 | 67:21.15 | 4:45.57 | 303090 | 324521
20 | 72:06.72 | 2:29.72 | 324522 | 335768
21 | 74:36.69 | 2:37.10 | 335769 | 347553


Track 1

Filename F:\Converted Flac\Various Artists - 50 Jaar Nederpop Rare & Obscure CD4\01 - The Beat.wav

Pre-gap length 0:00:02.00

Peak level 97.7 %
Track quality 100.0 %
Test CRC AB1F1873
Copy CRC AB1F1873
Accurately ripped (confidence 2) [A2EA924A]
Copy OK

Track 2

Filename F:\Converted Flac\Various Artists - 50 Jaar Nederpop Rare & Obscure CD4\02 - Rik Ringers.wav

Pre-gap length 0:00:02.00

Peak level 97.7 %
Track quality 100.0 %
Test CRC 69BD4DD8
Copy CRC 69BD4DD8
Accurately ripped (confidence 2) [7A244C76]
Copy OK

Track 3

Filename F:\Converted Flac\Various Artists - 50 Jaar Nederpop Rare & Obscure CD4\03 - I Hope I'm Gonna Rain Today.wav

Pre-gap length 0:00:02.00

Peak level 97.7 %
Track quality 99.9 %
Test CRC BF560552
Copy CRC BF560552
Accurately ripped (confidence 2) [A6DDFC76]
Copy OK

Track 4

Filename F:\Converted Flac\Various Artists - 50 Jaar Nederpop Rare & Obscure CD4\04 - Talk To Me.wav

Pre-gap length 0:00:02.00

Peak level 97.7 %
Track quality 99.9 %
Test CRC 17C5F575
Copy CRC 17C5F575
Accurately ripped (confidence 2) [C6EF5440]
Copy OK

Track 5

Filename F:\Converted Flac\Various Artists - 50 Jaar Nederpop Rare & Obscure CD4\05 - Nous Sommes Très Petit.wav

Pre-gap length 0:00:02.00

Peak level 97.7 %
Track quality 100.0 %
Test CRC 0FC7CD58
Copy CRC 0FC7CD58
Accurately ripped (confidence 2) [10E11669]
Copy OK

Track 6

Filename F:\Converted Flac\Various Artists - 50 Jaar Nederpop Rare & Obscure CD4\06 - I Had Too Much To Dream Last Night.wav

Pre-gap length 0:00:02.00

Peak level 97.7 %
Track quality 100.0 %
Test CRC E14482A2
Copy CRC E14482A2
Accurately ripped (confidence 2) [CACC9DE6]
Copy OK

Track 7

Filename F:\Converted Flac\Various Artists - 50 Jaar Nederpop Rare & Obscure CD4\07 - Covergirl.wav

Pre-gap length 0:00:02.00

Peak level 97.7 %
Track quality 99.9 %
Test CRC 9B837966
Copy CRC 9B837966
Accurately ripped (confidence 2) [B5D11673]
Copy OK

Track 8

Filename F:\Converted Flac\Various Artists - 50 Jaar Nederpop Rare & Obscure CD4\08 - Sesam Straat.wav

Pre-gap length 0:00:02.00

Peak level 97.7 %
Track quality 100.0 %
Test CRC BEF2B92B
Copy CRC BEF2B92B
Accurately ripped (confidence 2) [E6574826]
Copy OK

Track 9

Filename F:\Converted Flac\Various Artists - 50 Jaar Nederpop Rare & Obscure CD4\09 - Entertainment.wav

Pre-gap length 0:00:02.00

Peak level 97.7 %
Track quality 100.0 %
Test CRC 63CE421F
Copy CRC 63CE421F
Accurately ripped (confidence 2) [42564330]
Copy OK

Track 10

Filename F:\Converted Flac\Various Artists - 50 Jaar Nederpop Rare & Obscure CD4\10 - Doin' Time.wav

Pre-gap length 0:00:02.00

Peak level 97.7 %
Track quality 100.0 %
Test CRC D19B8CED
Copy CRC D19B8CED
Accurately ripped (confidence 2) [DAD32FBB]
Copy OK

Track 11

Filename F:\Converted Flac\Various Artists - 50 Jaar Nederpop Rare & Obscure CD4\11 - State Of Sound.wav

Pre-gap length 0:00:02.00

Peak level 97.7 %
Track quality 99.9 %
Test CRC EC302EBE
Copy CRC EC302EBE
Accurately ripped (confidence 2) [5B6AE57B]
Copy OK

Track 12

Filename F:\Converted Flac\Various Artists - 50 Jaar Nederpop Rare & Obscure CD4\12 - You Need A Gun To Blow My Mind.wav

Pre-gap length 0:00:02.00

Peak level 97.7 %
Track quality 100.0 %
Test CRC 551705C3
Copy CRC 551705C3
Accurately ripped (confidence 2) [243C1D85]
Copy OK

Track 13

Filename F:\Converted Flac\Various Artists - 50 Jaar Nederpop Rare & Obscure CD4\13 - The Turning Point.wav

Pre-gap length 0:00:02.00

Peak level 97.7 %
Track quality 100.0 %
Test CRC BEC394CA
Copy CRC BEC394CA
Accurately ripped (confidence 2) [F778A4A8]
Copy OK

Track 14

Filename F:\Converted Flac\Various Artists - 50 Jaar Nederpop Rare & Obscure CD4\14 - Taking Things Too Far.wav

Pre-gap length 0:00:02.00

Peak level 97.7 %
Track quality 100.0 %
Test CRC AA40532F
Copy CRC AA40532F
Accurately ripped (confidence 2) [E4CB464B]
Copy OK

Track 15

Filename F:\Converted Flac\Various Artists - 50 Jaar Nederpop Rare & Obscure CD4\15 - King Of The Neighbourhood.wav

Pre-gap length 0:00:02.00

Peak level 97.7 %
Track quality 100.0 %
Test CRC D29DCB16
Copy CRC D29DCB16
Accurately ripped (confidence 2) [9C4975B7]
Copy OK

Track 16

Filename F:\Converted Flac\Various Artists - 50 Jaar Nederpop Rare & Obscure CD4\16 - Yes Please Bob.wav

Pre-gap length 0:00:02.00

Peak level 97.7 %
Track quality 100.0 %
Test CRC 0205BF35
Copy CRC 0205BF35
Accurately ripped (confidence 2) [BB6DD18C]
Copy OK

Track 17

Filename F:\Converted Flac\Various Artists - 50 Jaar Nederpop Rare & Obscure CD4\17 - Maternité.wav

Pre-gap length 0:00:02.00

Peak level 97.7 %
Track quality 100.0 %
Test CRC 0A92B0B9
Copy CRC 0A92B0B9
Accurately ripped (confidence 2) [BCD3444A]
Copy OK

Track 18

Filename F:\Converted Flac\Various Artists - 50 Jaar Nederpop Rare & Obscure CD4\18 - Here Come The Weirdo's.wav

Pre-gap length 0:00:02.00

Peak level 97.7 %
Track quality 100.0 %
Test CRC 0024E552
Copy CRC 0024E552
Accurately ripped (confidence 2) [60747CD5]
Copy OK

Track 19

Filename F:\Converted Flac\Various Artists - 50 Jaar Nederpop Rare & Obscure CD4\19 - Sympathy For The Devil.wav

Pre-gap length 0:00:02.00

Peak level 97.7 %
Track quality 100.0 %
Test CRC 84C465BD
Copy CRC 84C465BD
Accurately ripped (confidence 2) [4C665816]
Copy OK

Track 20

Filename F:\Converted Flac\Various Artists - 50 Jaar Nederpop Rare & Obscure CD4\20 - One Good Reason.wav

Pre-gap length 0:00:02.00

Peak level 97.7 %
Track quality 100.0 %
Test CRC E494C08D
Copy CRC E494C08D
Accurately ripped (confidence 2) [9914A64A]
Copy OK

Track 21

Filename F:\Converted Flac\Various Artists - 50 Jaar Nederpop Rare & Obscure CD4\21 - Pussy Rodeo.wav

Pre-gap length 0:00:02.00

Peak level 93.1 %
Track quality 100.0 %
Test CRC 3D129CD4
Copy CRC 3D129CD4
Accurately ripped (confidence 3) [38E7722D]
Copy OK


All tracks accurately ripped

No errors occurred

End of status report